#TITLE:un deux trois;
#ARTIST:SDMS;
#BANNER:un deux trois.png;
#BACKGROUND:un deux trois-bg.png;
#CDTITLE:./CDTITLES/Song Pack 17.png;
#MUSIC:un deux trois.ogg;
#SAMPLESTART:66.87;
#SAMPLELENGTH:15;
#DISPLAYBPM:0:140;
#BPMS:0=140,100=70,108=140;
#STOPS:100=3.428;

//---------------dance-single - ----------------
#NOTES:
     dance-single:
     :
     Beginner:
     1:
     :
0000
0000
0000
0000
,
0000
0000
0000
0000
,
0000
0000
0000
0000
,
0000
0000
0000
0000
,
0000
0000
0000
0000
,
0010
0000
0000
0000
,
0001
0000
0000
0000
,
0100
0000
0000
0000
,
1000
0000
0000
0000
,
0001
0001
0001
0000
,
1000
1000
1000
0000
,
0001
0001
0001
0000
,
0100
0000
0100
0000
,
1000
1000
1000
0000
,
0001
0001
0001
0000
,
1000
1000
1000
0000
,
0100
0000
0100
0000
,
1000
0000
1000
0000
,
0001
0000
0000
0000
,
1000
0000
1000
0000
,
0100
0000
0000
0000
,
0001
0001
0001
0000
,
1000
1000
1000
0000
,
0001
0001
0001
0000
,
0100
0100
0100
0000
,
1000
0000
0010
0000
,
0001
0000
0100
0000
,
1000
0000
1001
0000
,
0100
0000
1001
0000
,
1000
1000
1000
1000
,
1000
0000
0000
0000
,
0001
0001
0001
0000
,
1000
1000
1000
0000
,
0001
0001
0001
0000
,
0100
0000
0100
0000
,
1000
1000
1000
0000
,
0001
0001
0001
0000
,
1000
1000
1000
0000
,
0100
0000
0100
0000
,
0010
0000
0000
0000
,
0001
0000
0000
0000
,
0100
0000
0000
0000
,
1000
0000
0000
0000
,
0001
0001
0001
0000
,
1000
1000
1000
0000
,
0001
0001
0001
0000
,
0100
0100
0100
0000
,
1000
0000
0010
0000
,
0001
0000
0100
0000
,
1000
0000
0110
0000
,
1001
0000
0000
0000
;

//---------------dance-single - ----------------
#NOTES:
     dance-single:
     :
     Easy:
     4:
     :
0000
0000
0000
0000
,
0000
0000
0000
0000
,
0000
0000
0000
0000
,
0000
0000
0000
0000
,
0000
0000
0000
0000
,
0010
0000
0000
0000
,
1000
0000
0001
0000
,
0020
0000
0030
0000
,
0200
0000
0300
0010
,
1000
0000
0001
0000
,
0010
0010
1000
0001
,
0100
0000
0100
0000
,
1000
0000
0001
0100
,
1000
1000
0002
0003
,
0001
1000
0100
0100
,
0020
0030
0002
0003
,
0001
1000
0001
0100
,
2000
3000
0100
0000
,
0001
1000
0010
0000
,
2000
3000
0002
0003
,
0010
1000
0010
0100
,
0001
0001
1000
0100
,
0020
0030
0100
0001
,
0020
0000
0030
0000
,
0010
1000
0100
0010
,
0200
0000
0300
0000
,
0010
0000
0100
0000
,
0001
0000
0100
0000
,
1000
0000
0010
0000
,
0001
0100
1000
0001
,
2002
0000
3003
0000
,
1000
0000
0001
0000
,
0010
0010
1000
0001
,
0100
0000
0100
0000
,
1000
0100
0001
0100
,
1000
1000
0002
0003
,
0001
1000
0100
0100
,
0020
0030
0002
0003
,
0001
1000
0001
0100
,
0020
0000
0030
0000
,
2000
0000
3001
0000
,
0200
0000
0310
0100
,
0002
0103
1000
0010
,
0200
0300
0100
0010
,
2000
3000
0002
0003
,
1000
0100
0001
0000
,
1000
0100
0010
0001
,
0002
0000
0003
0010
,
2000
0000
3000
0100
,
0100
0010
0100
0010
,
0220
0000
0000
0330
;

//---------------dance-single - ----------------
#NOTES:
     dance-single:
     :
     Medium:
     6:
     :
0000
0000
0000
0000
,
0000
0000
0000
0000
,
0000
0000
0000
0000
,
0000
0000
0000
0000
,
0000
0000
0000
0000
,
0020
0030
0200
0300
,
0100
0010
1000
0100
,
0001
0000
1000
0000
0001
0100
0010
0000
,
0001
0000
1000
0000
0001
1000
0010
0100
,
1000
0000
0101
0000
1000
0100
0010
0000
,
0002
0000
0103
0000
1000
0001
0100
0000
,
0001
0100
0002
0000
1003
0000
0100
0000
,
1000
0010
0001
0100
,
2000
3010
0100
1010
,
0001
0100
0002
0000
0013
1000
0100
0000
,
0010
0000
0100
0000
0010
0100
2000
0000
,
3001
0110
0100
1001
,
0020
0000
0030
0100
,
2000
0000
3002
0013
,
0200
1000
0320
0001
,
0032
2003
3020
0230
,
0301
1001
1000
0100
,
0010
0100
0010
0000
1000
0001
0010
0000
,
0001
0210
0310
0100
,
1000
0100
0001
0010
,
1001
0200
0000
0000
0002
0003
0000
0000
,
2000
3000
0000
0000
0002
0003
0300
0000
,
0101
0000
1010
0000
,
1010
0000
0101
0000
,
0001
0100
0010
0100
,
0220
0000
0000
0330
,
0001
0000
1100
0000
0001
0100
0010
0000
,
2000
0000
3100
0000
0001
1000
0100
0000
,
1000
0100
2000
0000
3001
0000
0100
0000
,
0001
0010
1000
0100
,
0002
0013
0100
0011
,
1000
0100
2000
0000
3010
0001
0100
0000
,
0010
0000
0100
0000
0010
0100
0002
0000
,
1003
0110
0100
1001
,
1000
0100
0001
0100
,
0010
0100
0010
0000
1000
0001
0100
0010
,
1000
1000
0001
0001
,
0020
0030
0100
1001
,
2000
3001
0200
0310
,
0020
1000
0130
0001
,
1000
0100
1000
0000
0100
0000
0001
0000
,
0010
1000
0100
0001
,
0020
0031
0200
1300
,
0100
1001
0010
0110
,
0010
0000
0100
0000
0001
1000
0001
0000
,
2002
0000
0000
3003
;

//---------------dance-single - ----------------
#NOTES:
     dance-single:
     :
     Hard:
     7:
     :
0000
0000
0000
0000
,
0000
0000
0000
0000
,
0000
0000
0000
0000
,
0000
0000
0000
0000
,
0000
0000
0000
0000
,
1000
0001
1000
0100
0010
0000
1000
0100
,
1000
0001
0010
0100
1000
0000
0001
0100
,
0001
1000
0001
0100
0010
0000
0001
0100
,
0001
1000
0010
0100
0001
0000
1000
0100
,
0001
0100
0001
0000
1000
0000
0101
0000
,
0010
0100
0001
1000
0001
0100
0001
0000
,
1000
0100
1000
0000
0001
0000
1100
0000
,
0010
0100
1000
0001
1000
0100
1000
1000
,
0001
0100
0001
0000
1000
0000
0101
0000
,
0010
0100
0001
1000
0001
0100
0001
0000
,
1000
0100
1000
0000
0001
0000
1100
0000
,
0010
0100
1000
0001
1000
0100
1000
1000
,
2000
0000
0001
0000
0100
3000
0001
1000
,
0200
0000
1000
0000
0001
0300
1000
0100
,
0002
0000
0010
0000
1000
0003
1000
0010
,
0200
0000
0010
0000
0001
0000
1300
0001
,
0001
0000
0100
0000
0001
0000
1000
0001
,
0100
0000
0001
0000
1000
0000
0001
0100
,
0001
0000
1000
0000
0001
0000
0001
0010
,
0100
0000
0010
0000
0100
0000
0001
1000
,
1001
0002
0000
0000
0020
0000
0003
0000
,
0230
0000
2300
3002
,
1003
0100
0110
0001
,
0101
0010
0110
1001
,
0001
0010
0100
0010
0100
1000
0100
0000
,
0220
0000
0000
0330
,
0001
0100
0001
0000
1000
0000
0101
0000
,
0010
0100
0001
1000
0001
0100
0001
0001
,
1000
0100
1000
0000
0001
0000
1100
0000
,
0010
0100
1000
0001
1000
0100
1000
1000
,
0001
0100
0001
0000
1000
0000
0101
0000
,
0010
0100
0001
1000
0001
0100
0001
0001
,
1000
0100
1000
0000
0001
0000
1100
0000
,
0010
0100
1000
0001
1000
0100
1000
0000
,
1001
0000
1000
0001
0100
0001
0100
0000
,
1100
0000
0100
0001
1000
0100
0010
0000
,
0101
0000
1000
0100
0010
0001
1000
0000
,
0110
0000
0001
0100
1000
0100
0001
0000
,
0001
1000
0001
1000
0100
1000
0100
0000
,
0001
1000
0100
1000
0001
0100
0010
0000
,
1000
0100
0001
0100
0010
1000
0001
0000
,
0010
0100
1000
0100
0001
0100
1000
0000
,
1000
0100
0010
0001
0001
0010
0100
1000
,
0100
0100
0100
1000
0010
0100
0001
0010
,
0001
0001
0001
0010
0100
1000
0001
0000
,
0220
0000
0000
0330
;

//---------------dance-single - ----------------
#NOTES:
     dance-single:
     :
     Challenge:
     9:
     :
0000
0000
0000
0000
,
0000
0000
0000
0000
,
0000
0000
0000
0000
,
0000
0000
0000
0000
,
0000
0000
0000
0000
,
0020
1000
0100
0031
,
0200
0001
0010
0301
,
2000
0001
0100
3010
,
0100
0000
0001
0000
1000
0000
0010
1000
0010
1000
0010
1000
0010
0000
0100
0000
,
1010
0000
0000
1000
0100
0000
1000
0000
0010
0000
0100
0000
0001
0000
1000
0000
,
1001
0000
0000
1000
0100
0000
0010
0000
0001
0000
0010
0000
0100
0000
1000
0000
,
0011
0000
0000
0001
1000
0000
0100
0000
0010
0000
0100
0000
1000
0000
0001
0000
,
1001
0000
0000
1000
0010
0000
0100
0000
0001
0000
0010
0000
0011
0000
1001
0000
,
1010
0000
0000
0010
0100
0000
0001
0000
0010
0000
0100
0000
1000
0000
0100
0000
,
0110
0000
0000
0100
0010
0000
0001
0000
0100
0000
0010
0000
1000
0000
0010
0000
,
1010
0000
0000
1000
0001
0000
0100
0000
0001
0000
0010
0000
0100
0000
1000
0000
,
1001
0000
0000
0001
0100
0000
0010
0000
0110
0000
0000
0000
1001
0000
0000
0000
,
1100
0000
0000
0100
0000
0000
0010
0000
1000
0000
0000
0000
0001
0000
0100
0000
,
0010
0000
0000
0100
0000
0000
0001
0000
0010
0000
0000
0000
1000
0000
0001
0000
,
0010
0000
0000
0001
0000
0000
0010
0000
0100
0000
0000
0000
1000
0000
0010
0000
,
0100
0000
0000
0010
0000
0000
0001
0000
0010
0000
0000
0000
0100
0000
1000
0000
,
0100
0010
0001
0010
0100
1000
0010
0100
,
0001
0010
0100
1000
0100
1000
0010
0100
,
0001
0010
0100
1000
0010
0100
1000
0001
,
0010
0100
1000
0000
1000
0010
1000
0100
,
0010
0000
1000
0100
0020
0000
0000
0030
0100
1000
0001
0100
0020
0000
0000
0030
,
0001
1000
0100
0010
0200
0000
0000
0300
1000
0001
0100
0010
0200
0000
0000
0300
,
0101
0010
1100
0010
,
0011
1000
1010
0001
,
1001
0100
1001
0010
1001
0100
1001
0010
,
2002
0000
0000
3003
,
0101
0000
0000
0001
0010
0000
0001
0000
0100
0000
0010
0000
1000
0000
0001
0000
,
1001
0000
0000
0001
0010
0000
0100
0000
1000
0000
0100
0000
0010
0000
0001
0000
,
1100
0000
0000
1000
0001
0000
0010
0000
0100
0000
0010
0000
0001
0000
1000
0000
,
1001
0000
0000
0001
0100
0000
0010
0000
1000
0000
0100
0000
1100
0000
1001
0000
,
0011
0000
1000
0100
0010
0000
0100
0000
1000
0000
0001
0000
0100
0000
0010
0000
,
0110
0000
0010
1000
0100
0000
0010
0000
0100
0000
1000
0000
0010
0000
0100
0000
,
0110
0000
0100
0001
0010
0000
0001
0000
1000
0000
0100
0000
0010
0000
0001
0000
,
0011
0000
0010
0001
1000
0000
0010
0000
0100
0000
0001
0000
0101
0000
1001
0000
,
1100
0000
0000
0001
0100
0000
0010
0000
0100
0000
0000
0000
0110
0000
0000
0000
,
1001
0000
0000
1000
0100
0000
1000
0000
0001
0000
0000
0000
0011
0000
1001
0000
,
1010
0000
0000
0100
0001
0000
1000
0000
0010
0000
0000
0000
0110
0000
0000
0000
,
0101
0000
0000
0010
1000
0000
0100
0000
1000
0000
0000
0000
1001
0000
0000
0000
,
0011
0000
0000
1000
0010
0000
0100
0000
0010
0000
0000
0000
0110
0000
0000
0000
,
1001
0000
0000
0001
0010
0000
0001
0000
1000
0000
0000
0000
1100
0000
1001
0000
,
0101
0000
0000
0010
1000
0000
0001
0000
0100
0000
0000
0000
0110
0000
0000
0000
,
0110
0100
0101
0001
0011
0010
0110
1001
,
0001
0100
0002
0000
1000
0000
1000
0000
0100
0000
0100
0000
1003
0000
1000
0000
,
0010
0100
0020
0000
1000
0000
1000
0000
0001
0000
0001
0000
1030
0000
1000
0000
,
0001
0010
0001
0000
1000
0010
1000
0000
0001
0100
0001
0000
1000
0100
1000
0000
,
0020
0000
0000
0030
;

//---------------dance-double - ----------------
#NOTES:
     dance-double:
     :
     Beginner:
     1:
     :
00000000
00000000
00000000
00000000
,
00000000
00000000
00000000
00000000
,
00000000
00000000
00000000
00000000
,
00000000
00000000
00000000
00000000
,
00000000
00000000
00000000
00000000
,
00000010
00000000
00000000
00000000
,
00001000
00000000
00000000
00000000
,
00000001
00000000
00000000
00000000
,
00001000
00000000
00000000
00000000
,
00000100
00000100
00000100
00000000
,
00010000
00010000
00010000
00000000
,
00001000
00001000
00001000
00000000
,
00100000
00000000
00100000
00000000
,
00010000
00010000
00010000
00000000
,
10000000
10000000
10000000
00000000
,
00100000
00100000
00100000
00000000
,
00010000
00000000
00010000
00000000
,
00100000
00000000
00100000
00000000
,
00001000
00000000
00000000
00000000
,
00010000
00000000
00010000
00000000
,
00000010
00000000
00000000
00000000
,
00001000
00001000
00001000
00000000
,
00000001
00000001
00000001
00000000
,
00000100
00000100
00000100
00000000
,
00000010
00000010
00000010
00000000
,
00010000
00000000
00001000
00000000
,
00000100
00010000
00001000
00000000
,
00010000
00000000
00011000
00000000
,
00100000
00000000
01100000
00000000
,
01000000
01000000
01000000
01000000
,
01000000
00000000
00000000
00000000
,
10000000
10000000
10000000
00000000
,
00010000
00010000
00010000
00000000
,
00100000
00100000
00100000
00000000
,
00001000
00000000
00001000
00000000
,
00010000
00010000
00010000
00000000
,
00000100
00000100
00000100
00000000
,
00001000
00001000
00001000
00000000
,
00000010
00000000
00000010
00000000
,
00000100
00000000
00000000
00000000
,
00000001
00000000
00000000
00000000
,
00001000
00000000
00000000
00000000
,
00000100
00000000
00000000
00000000
,
00000010
00000010
00000010
00000000
,
00001000
00001000
00001000
00000000
,
00000001
00000001
00000001
00000000
,
00001000
00001000
00001000
00000000
,
00000100
00000000
00010000
00000000
,
00001000
00000000
00100000
00000000
,
00010000
00000000
10010000
00000000
,
01100000
00000000
00000000
00000000
;

//---------------dance-double - ----------------
#NOTES:
     dance-double:
     :
     Easy:
     3:
     :
00000000
00000000
00000000
00000000
,
00000000
00000000
00000000
00000000
,
00000000
00000000
00000000
00000000
,
00000000
00000000
00000000
00000000
,
00000000
00000000
00000000
00000000
,
00001000
00000000
00000000
00000000
,
00000001
00000000
00000000
00000000
,
00001000
00000000
00000000
00000001
,
00000001
00000000
00000000
00000100
,
00001000
00000000
00001000
00001000
,
00010000
00000000
00010000
00010000
,
00100000
00000000
00100000
00100000
,
01000000
00000000
00010000
10000000
,
10010000
00000000
00000000
00000000
,
00010000
00000000
10000000
00010000
,
10000000
00000000
01000000
00010000
,
00001000
00000000
00010000
00001000
,
00000020
00000000
00000030
00000100
,
00000200
00000000
00000300
00001000
,
00002000
00000000
00003000
00000001
,
00000001
00000000
00000000
00000000
,
00001001
00000000
00000100
00000100
,
00001000
00000000
00010000
00010000
,
00100000
00000000
01000000
00000000
,
00010000
10000000
01000000
00100000
,
01100000
00000000
00010000
00000000
,
00010000
00000000
00010000
00000000
,
10000000
00000000
01000000
00000000
,
00010000
00000000
00001000
00000000
,
00000010
00000001
00001000
00000010
,
00002002
00000000
00003003
00000000
,
00001001
00000000
00000000
00000010
,
00000100
00000000
00000000
00000001
,
00001000
00000000
00000000
00010000
,
10000000
00000000
00000000
10000000
,
10010000
00010000
00010000
00000000
,
10000000
10000000
10000000
00000000
,
01000000
00010000
00001000
00001000
,
00010000
00010000
00001000
00001000
,
00011000
00000000
00001000
00000010
,
00000001
00000000
00000001
00000100
,
00001000
00000000
00001000
00001000
,
00000001
00000000
00000001
00000000
,
00000110
00000000
00000001
00001000
,
00000001
00000000
00000100
00000000
,
00001000
00000000
00010000
00000000
,
00100000
00100000
01000000
01000000
,
10010000
00000000
00010000
00000000
,
10000000
00000000
01000000
00000000
,
00010000
00001000
00000010
00000001
,
00001001
00000000
00000000
00000000
;

//---------------dance-double - ----------------
#NOTES:
     dance-double:
     :
     Medium:
     6:
     :
00000000
00000000
00000000
00000000
,
00000000
00000000
00000000
00000000
,
00000000
00000000
00000000
00000000
,
00000000
00000000
00000000
00000000
,
00000000
00000000
00000000
00000000
,
10000000
00000000
10000000
00000000
,
00010000
00000000
00010000
00000000
,
10000000
00000000
00100000
00000000
,
00010000
00000000
00001000
00000000
00000010
00000001
00001000
00000000
,
00000110
00000001
00000001
00001000
,
00001000
00000001
00000010
00000100
,
00001000
00000001
00000100
00001000
,
00010000
00100000
10000000
01000000
,
01100000
10000000
10000000
00010000
,
00010000
10000000
00100000
01000000
,
00010000
10000000
01000000
00010000
,
00001000
00000010
00000001
00001000
,
00002000
00000000
00000001
00003001
,
00000002
00000000
00001000
00001003
,
00002000
00000000
00010000
00013000
,
00020000
00000000
10000000
10030000
,
22000000
03000000
00010000
31000000
,
02020000
03000000
10000000
01030000
,
22000000
33000000
01010000
00000000
,
00001000
00010000
00000100
00000010
,
00002002
00003003
00000001
00000000
,
00000001
00000000
00001000
00000000
,
00001001
00000000
00011000
00000000
,
10010000
00000000
01100000
00000000
,
10010000
01100000
00110000
10100000
,
20020000
00000000
00000000
30030000
,
00010000
00010000
00000000
00000000
10000000
00000000
10000000
00000000
,
10000000
10000000
00000000
00000000
10000000
00000000
10000000
00000000
,
00010000
00000000
00001000
00000000
,
00000010
00000010
00000010
00000010
,
00001100
00000000
00000001
00000000
00000010
00000000
00000010
00000100
,
00001000
00000000
00001000
00000000
00001000
00000000
00000001
00000100
,
00001000
00001000
00010000
01000000
,
10000000
00010000
01000000
00000000
01000000
00000000
01000000
00000000
,
10020000
00130000
00100000
01000000
,
20000000
30100000
00100000
00010000
,
00001000
00001000
00000010
00000100
,
00001000
00000001
00001000
00000000
00000010
00000100
00000010
00000000
,
00001002
00000013
00000010
00000100
,
00002000
00003010
00000010
00000100
,
00000001
00000010
00001000
00010000
,
00011000
00100000
10000000
00010000
,
01100000
10000000
00010000
10000000
,
00100000
00010000
00001000
00000010
,
00001100
00000010
00000101
00001000
,
00000110
00000000
00000000
00000000
;

//---------------dance-double - ----------------
#NOTES:
     dance-double:
     :
     Hard:
     7:
     :
00000000
00000000
00000000
00000000
,
00000000
00000000
00000000
00000000
,
00000000
00000000
00000000
00000000
,
00000000
00000000
00000000
00000000
,
00000000
00000000
00000000
00000000
,
00000001
00001000
00000001
00000000
00001000
00000000
00001000
00000000
,
00000001
00000000
00000100
00000000
00001000
00010000
00001000
00000000
,
00100000
01000000
00100000
00000000
00010000
00000000
10000000
00000000
,
00010000
10000000
00010000
00000000
01100000
00000000
10010000
00000000
,
00100000
00010000
00000000
10000000
00010000
10000000
01000000
00000000
,
00100000
00010000
00000000
10000000
00100000
00010000
00001000
00000000
,
00000010
00000100
00000000
00001000
00000001
00000010
00000100
00000000
,
00001000
00000001
00000100
00000000
00000010
00000000
00001001
00000000
,
00000010
00001000
00000000
00000001
00001000
00000001
00000100
00000000
,
00000010
00001000
00000000
00000001
00000010
00001000
00010000
00000000
,
00100000
01000000
00000000
00010000
10000000
00100000
01000000
00000000
,
00010000
10000000
00100000
00000000
01000000
00000000
10010000
00000000
,
00200000
00010000
00000000
00010000
00310000
00000000
01000000
00000000
,
00002000
00010000
00000000
00010000
00013000
00000000
00001000
00000000
,
00000020
00000100
00000000
00000100
00000130
00000000
00001000
00000000
,
00000002
00000010
00000000
00000010
00000013
00000000
00001100
00000000
,
00000101
00000000
00000100
00001000
00010000
00000000
01001000
00000000
,
00100000
00000000
10000000
00010000
01000000
00000000
11000000
00000000
,
00100000
00000000
01000000
10000000
00010000
00000000
01100000
00000000
,
10000000
00000000
01000000
00100000
00010000
00000000
11000000
00000000
,
10020000
00000000
00230000
00000000
,
00002000
00300000
00020000
00033000
,
00001100
00000001
00000101
00001000
,
00001010
00000001
00000011
00000100
,
00001000
00000001
00000100
00001000
00010000
01000000
00100000
00000000
,
20020000
00000000
00000000
30030000
,
00200000
00000000
01000000
01300000
,
02000000
00000000
00010000
03010000
,
00020000
00000000
00001000
00031000
,
00002000
00000000
00000010
00003010
,
00001001
00000000
00000010
00000000
00000100
00001000
00000001
00000000
,
00000110
00000000
00001000
00000000
00000010
00000100
00000001
00000000
,
00000010
00000000
00001000
00000000
00010000
00100000
10000000
00000000
,
00010000
10000000
00100000
01000000
00100000
00000000
10010000
00000000
,
00100000
00010000
00000000
01000000
00100000
10000000
00100000
00000000
,
01000000
00010000
00000000
00100000
00001000
00010000
00001000
00000000
,
00000010
00000100
00000000
00001000
00000001
00000100
00000010
00000000
,
00001000
00000001
00000010
00000000
00000100
00000000
00001001
00000000
,
00000110
00000000
00001000
00000000
00000001
00000100
00000010
00000000
,
00001000
00000001
00000000
00000100
00001000
00010000
00001000
00000000
,
00100000
01000000
00000000
10000000
00010000
01000000
00100000
00000000
,
10000000
00010000
00000000
00100000
01000000
10000000
00010000
00000000
,
10000000
01000000
00010000
00000000
00001000
00000100
00000001
00000000
,
00000010
00000001
00000100
00000000
00000010
00001000
00000100
00000000
,
00000010
00000100
00001000
00000001
00000100
00001000
00010000
00000000
,
01010000
00000000
00000000
00000000
;

//---------------dance-double - ----------------
#NOTES:
     dance-double:
     :
     Challenge:
     9:
     :
00000000
00000000
00000000
00000000
,
00000000
00000000
00000000
00000000
,
00000000
00000000
00000000
00000000
,
00000000
00000000
00000000
00000000
,
00000000
00000000
00000000
00000000
,
00000001
00001000
00000100
00001000
,
00010000
00001000
00100000
00010000
,
10000000
00010000
01000000
00010000
,
00100000
00000000
01000000
00000000
10000000
00000000
00100000
01000000
00100000
01000000
00100000
01000000
00100000
00000000
01000000
00000000
,
00010000
00000000
00000000
00100000
00001000
00000000
00010000
00000000
00000100
00000000
00000010
00000000
00000110
00000000
00000000
00000000
,
00001000
00000000
00000000
00000010
00000100
00000000
00000001
00000000
00001000
00000000
00000010
00000000
00001010
00000000
00000000
00000000
,
00000011
00001100
00011000
01010000
,
00110000
00000000
11000000
00000000
01010000
00000000
10010000
01000000
,
00100000
00000000
00000000
01000000
00010000
00000000
00100000
00000000
00010000
00000000
01000000
00000000
01100000
00000000
00000000
00000000
,
10000000
00000000
00000000
01000000
10000000
00000000
01000000
00000000
00100000
00000000
00001000
00000000
00011000
00000000
00000000
00000000
,
00001100
00000110
00000101
00000011
,
00001100
00000000
00000110
00000000
00011000
00001000
00001010
00000000
,
00020000
00000000
00000000
00000100
00000000
00000000
00031000
00000000
00100000
00000000
00000000
00000000
00010000
00000000
01000000
00000000
,
00200000
00000000
00000000
10000000
00000000
00000000
01300000
00000000
00010000
00000000
00000000
00000000
10000000
00000000
01000000
00000000
,
20000000
00000000
00000000
00100000
00000000
00000000
31000000
00000000
00100000
00000000
00000000
00000000
00010000
00000000
10000000
00000000
,
00200000
00000000
00000000
10000000
00000000
00000000
01300000
00000000
00010000
00000000
00000000
00000000
00100000
00000000
00001000
00000000
,
00010000
00000100
00000010
00000001
00000010
00000100
00001000
00000010
,
00010000
00001000
01000000
00100000
01000000
00010000
00100000
01000000
,
10000000
00010000
00100000
00001000
00010000
00000100
00001000
00000010
,
00000100
00000001
00000100
00001000
00010000
00100000
10000000
00100000
,
01100000
00000000
00010000
10000000
01000000
00000000
00000000
00000000
01100000
00000000
00010000
00100000
00001000
00000000
00000000
00000000
,
00011000
00000000
00001000
00000100
00000010
00000000
00000000
00000000
00000110
00000000
00000100
00000001
00001000
00000000
00000000
00000000
,
00000002
00000103
00000200
00001300
,
00002000
00013000
00020000
01030000
,
00100000
00010000
01000000
00100000
10000000
01000000
00100000
00001000
,
00022000
00000000
00000000
00033000
,
00001000
00000000
00000000
00010000
00000010
00000000
00001000
00000000
00000100
00000000
00000010
00000000
00000110
00000000
00000000
00000000
,
00000001
00000000
00000000
00001000
00000010
00000000
00000100
00000000
00000001
00000000
00001000
00000000
00001001
00000000
00000000
00000000
,
00000001
00000000
00000000
00000010
00000100
00000000
00000010
00000000
00000001
00000000
00000100
00000000
00000110
00000000
00000000
00000000
,
00010000
00000000
00000000
00001000
00100000
00000000
00010000
00000000
01000000
00000000
00100000
00000000
01100000
00000000
00000000
00000000
,
11000000
00110000
11000000
01010000
,
00011000
00000000
00110000
00000000
00011000
00000000
00001100
00000100
,
00000010
00000000
00000001
00001000
00000001
00000000
00000100
00000000
00000010
00000000
00000001
00000000
00001000
00000000
00000100
00000000
,
00000010
00000000
00000100
00010000
00001000
00000000
01000000
00000000
00010000
00000000
00100000
00000000
00110000
00000000
00010000
00000000
,
10010000
00000000
00000000
00100000
01000000
00000000
00001000
00000000
00010000
00000000
00000000
00000000
00011000
00000000
00000000
00000000
,
00001100
00000000
00000000
00000100
00001000
00000000
00000010
00000000
00000100
00000000
00000000
00000000
00000110
00000000
00000100
00000000
,
00000101
00000000
00000000
00000001
00001000
00000000
00000100
00000000
00010000
00000000
00000000
00000000
00001100
00000000
00000000
00000000
,
00000110
00000000
00000000
00010000
00001000
00000000
00100000
00000000
01000000
00000000
00000000
00000000
10010000
00000000
00000000
00000000
,
01010000
00000000
00000000
01000000
00100000
00000000
10000000
00000000
01000000
00000000
00000000
00000000
00110000
00000000
00000000
00000000
,
00011000
00000000
00000000
00010000
00001000
00000000
00010000
00000000
00001000
00000000
00000000
00000000
00011000
00000000
00010000
00000000
,
00001010
00000000
00000000
00001000
00000001
00000000
00000010
00000000
00000100
00000000
00000000
00000000
00001001
00000000
00000000
00000000
,
00001000
00000100
00000010
00000100
00001000
00000010
00000100
00000001
,
00001000
00000100
00001000
00000000
00000100
00000000
00010000
00000000
00000100
00000000
00010000
00000000
00000100
00000000
00010000
00000000
,
00001000
00100000
00001000
00000000
00100000
00000000
00010000
00000000
00100000
00000000
00010000
00000000
00100000
00000000
00010000
00000000
,
10000000
01000000
10000000
00000000
00010000
00100000
00010000
00000000
00100000
00001000
00100000
00000000
00001000
00010000
00001000
00000000
,
00200000
00000000
00000000
00300000
;
