#TITLE:exotic ethnic (OR-IF-IS Mix);
#ARTIST:RevenG;
#BANNER:exotic ethnic (OR-IF-IS Mix).png;
#BACKGROUND:exotic ethnic (OR-IF-IS Mix)-bg.png;
#CDTITLE:./CDTITLES/Song Pack 17.png;
#MUSIC:exotic ethnic (OR-IF-IS Mix).ogg;
#SAMPLESTART:16.435;
#SAMPLELENGTH:15;
#DISPLAYBPM:95:190;
#BPMS:0=187.5,5=190.011,180=94.987,212=190.003;

//---------------dance-single - ----------------
#NOTES:
     dance-single:
     :
     Beginner:
     1:
     :
0000
0000
0000
0000
,
0000
0000
0000
0000
,
0000
0000
0000
0000
,
0000
0000
0000
0000
,
0000
0000
0000
0000
,
1000
0000
0000
0000
,
0100
0000
0000
0000
,
0001
0000
0000
0000
,
0100
0000
0000
0000
,
1000
0000
0001
0000
,
1000
0000
0001
0000
,
0100
0100
0100
0000
,
0010
0010
0010
0000
,
1000
1000
1000
0000
,
0001
0001
0001
0000
,
1000
0000
0000
0000
,
0010
0000
0100
0000
,
0001
0000
0010
0000
,
1000
0000
0010
0000
,
0001
0000
0000
0000
,
0100
0000
0010
0000
,
1000
0000
0100
0000
,
0001
0000
0100
0000
,
1000
0000
0001
0000
,
0100
0000
0100
0000
,
0001
0000
1000
0000
,
0100
0000
0100
0000
,
2000
0000
0000
3000
,
1000
0000
0001
0000
,
0010
0000
0000
0000
,
0001
0000
0000
0100
,
0100
0000
0000
0000
,
0010
0000
0000
1000
,
1000
0000
0000
0000
,
0001
0000
0000
0010
,
0020
0000
0000
0030
,
0010
0000
0100
0100
,
0100
0000
0100
0000
,
0100
0000
1000
0000
,
0001
0000
0001
0000
,
0001
0000
0100
0000
,
0010
0000
0010
0000
,
0010
0000
1000
0000
,
0100
0000
0010
0000
,
0001
0000
1000
0000
,
1001
0000
0010
0000
,
0100
0000
0010
0000
,
1001
0000
0010
0000
,
0100
0000
0010
0000
,
0110
0000
1000
0000
,
0001
0000
1000
0000
,
0110
0000
0001
0000
,
1000
0000
0001
0000
,
0110
0000
0100
0000
,
0100
0000
0100
0000
,
1001
0000
0000
0000
,
0001
0000
0001
0000
,
0001
0000
0000
0000
,
0100
0000
0100
0000
,
0100
0000
0000
0000
,
0010
0000
0010
0000
,
0010
0000
0000
0000
,
1000
0000
1000
0000
,
1000
0000
0000
0000
,
0001
0000
0001
0000
,
0001
0000
0100
0000
,
0100
0000
0000
0000
,
1001
0000
0000
0000
;

//---------------dance-single - ----------------
#NOTES:
     dance-single:
     :
     Easy:
     3:
     :
0000
0000
0000
0000
,
0000
0000
0000
0000
,
0000
0000
0000
0000
,
0000
0000
0000
0000
,
0000
0000
0000
0000
,
1000
0000
1000
0000
,
0001
0000
0001
0000
,
1000
0000
1000
0000
,
0001
0000
0001
0000
,
1001
0000
0100
0000
,
0010
0000
0100
0000
,
0001
0001
1000
1000
,
0001
0001
1000
1000
,
0020
0030
0200
0300
,
0010
0100
0010
0100
,
0001
0000
1000
0000
,
0001
1000
0100
0000
,
0020
0030
0002
0003
,
2000
3000
0200
0300
,
0010
0000
0100
0000
,
0010
0001
1000
0000
,
0020
0030
0200
0300
,
0001
0001
0001
0000
,
0020
0030
0200
0300
,
2000
3000
0002
0003
,
1000
0000
0001
0000
,
1000
0001
1000
0001
,
2002
0000
0000
0000
,
3003
0000
0100
0000
,
1001
0000
0100
0000
,
0001
0000
0001
0000
,
0010
0000
0100
0000
,
1000
0000
1000
0000
,
0100
0000
0010
0000
,
0001
0000
0001
0000
,
0010
0000
0010
0000
,
0100
0100
0100
0000
,
0001
0000
0010
0000
,
1000
0100
1000
0000
,
0010
0000
0100
0000
,
0001
0010
0001
0000
,
1000
0000
0100
0000
,
0010
1000
0010
0000
,
1001
0000
0110
0000
,
0110
0000
1001
0000
,
0200
0300
2002
3003
,
0020
0030
2002
3003
,
0100
0001
0010
0001
,
0100
0010
1000
0100
,
0220
0330
0002
0003
,
0220
0330
2000
3000
,
0010
1000
0100
0010
,
0001
1000
0010
0100
,
0110
0000
1001
0000
,
1001
0000
0110
0000
,
1000
0010
1000
0000
,
0001
0100
0001
0000
,
0010
0100
1000
0000
,
0010
0100
0001
0000
,
0100
0001
0100
0000
,
0010
1000
0010
0000
,
0100
0010
1000
0000
,
0100
0010
0001
0000
,
1000
0001
1000
0000
,
0010
0100
0010
0000
,
0100
0001
0010
0000
,
0100
1000
0010
0000
,
1001
0000
0000
0000
;

//---------------dance-single - ----------------
#NOTES:
     dance-single:
     :
     Medium:
     5:
     :
0000
0000
0000
0000
,
0000
0000
0000
0000
,
0000
0000
0000
0000
,
0000
0000
0000
0000
,
0000
0000
0000
0000
,
1000
0000
0010
0200
0000
0000
0300
0000
,
0001
0000
0010
0200
0000
0000
0300
0000
,
1000
0000
0100
0002
0000
0000
0003
0000
,
0010
0100
0010
0100
,
0020
0031
0100
1000
,
0200
0301
0010
0100
,
1100
1100
0010
0001
,
0101
0101
0010
1000
,
0010
0010
0100
0100
,
0001
1000
0001
1000
,
0120
0000
0030
0010
1000
0000
0001
0000
,
1000
0000
0000
1000
0100
0000
0010
0000
,
0001
0100
1000
0010
,
0001
0010
1000
0100
,
0001
0010
0100
0010
,
0001
0100
0010
0100
,
0001
0010
0100
0001
,
0100
1000
0100
0000
0010
0000
0000
0000
,
0100
0010
1000
0010
,
0001
1000
0001
0000
1000
0000
0010
0000
,
1000
0000
0100
0000
0010
0001
0010
0000
,
0001
0100
0001
0000
0010
1000
0010
0000
,
0100
0000
0000
0110
0000
0000
0001
0000
,
0010
0100
1000
0010
,
0001
0000
0100
0020
0000
0000
1030
0000
,
0100
0000
0010
0002
0000
0000
0103
0000
,
0010
0000
1000
0200
0000
0000
0301
0000
,
0100
0000
1000
0010
1000
0000
0100
0000
,
0010
0000
0001
0200
0000
0000
1300
0000
,
0100
0000
0010
2000
0000
0000
3001
0000
,
0010
0000
0000
0110
0000
0000
0100
0000
,
0000
1001
0000
0000
0020
0000
0230
0000
,
1300
0000
0100
2000
0000
0000
3010
0000
,
0100
0000
0001
0200
0000
0000
0301
0000
,
0100
0000
0010
2000
0000
0000
3100
0000
,
0010
0000
0001
1000
0001
0000
0010
0000
,
0100
0000
1000
0200
0000
0000
0301
0000
,
0100
0000
1000
0020
0000
0000
0130
0000
,
1000
0000
0000
1100
0000
0000
0001
0000
,
0000
0011
0000
0000
0200
0000
2300
0000
,
3001
0000
0000
0100
0000
0000
1000
0000
0100
0000
0000
0001
0000
0000
0010
0000
,
0100
0000
0000
1000
0000
0000
0100
0000
0010
0000
0000
0001
0000
0000
1000
0000
,
1100
0000
0000
0001
0000
0000
0100
0000
0101
0000
0000
0010
0000
0000
1000
0000
,
1001
0000
0000
0010
0000
0000
1100
0000
0000
0010
0000
0000
0101
0000
1000
0000
,
0010
0000
0000
0100
0000
0000
0010
0000
1000
0000
0000
0010
0000
0000
0001
0000
,
0100
0000
0000
1000
0000
0000
0100
0000
0001
0000
0000
0010
0000
0000
0100
0000
,
1100
0000
0000
0001
0000
0000
0100
0000
0110
0000
0000
1000
0000
0000
0001
0000
,
0101
0000
0000
1100
0000
0000
0101
0000
0000
1100
0000
0000
0001
0000
1000
0000
,
0001
0100
1000
0010
,
0001
0000
0010
0000
1000
0100
1000
0000
,
0002
0000
0013
0001
,
0100
0000
1000
0000
0100
0001
1000
0000
,
0100
0001
0010
1000
,
0100
0000
1000
0000
0010
0001
0100
0000
,
2000
0000
3100
0001
,
0010
0000
0100
0000
1000
0010
1000
0000
,
0100
0001
0100
1000
,
0001
1000
0001
0000
1001
0000
0000
0000
,
0001
0100
1000
0100
,
0001
1000
0001
0000
1001
0000
0000
0000
,
0010
1000
0100
0001
,
0100
1000
0010
0000
0001
0000
0010
0000
,
1001
0000
0000
0000
;

//---------------dance-single - ----------------
#NOTES:
     dance-single:
     :
     Hard:
     9:
     :
0000
0000
0000
0000
,
0000
0000
0000
0000
,
0000
0000
0000
0000
,
0000
0000
0000
0000
,
0000
0000
0000
0000
,
0010
0000
0001
0200
0000
0300
1001
0000
,
0010
0000
1000
0200
0000
0300
1001
0000
,
0100
0000
0010
0200
0000
0300
0110
0000
,
1000
0000
0001
0010
1000
0010
0001
0100
,
2000
3100
0002
0013
,
2000
3010
0002
0103
,
1100
0101
0011
1010
,
1100
1010
0011
0101
,
0110
1100
0011
1001
,
0101
1010
0110
1001
,
0110
0000
1000
0010
0100
0000
1000
0010
,
0100
0000
0001
0100
0010
1000
0100
0001
,
0101
0000
1100
0000
1020
0000
0130
2000
,
0000
3100
0001
0000
0011
0000
1010
0000
,
0110
0000
0001
0100
0010
0000
0001
0100
,
0010
0000
1000
0010
0100
0001
0010
1000
,
0020
0031
1001
1010
,
0110
0101
1001
0000
,
0200
1300
1001
0101
,
0120
1030
2002
3003
,
0110
0101
1010
1100
,
0010
0001
0010
0001
0100
0000
1000
0000
0100
0000
0001
0000
0010
0000
1000
0000
,
0020
0000
0000
0032
0000
0000
2003
0000
,
0010
0001
0100
3001
,
0110
0000
1000
0200
0001
0000
1300
0000
,
0001
0020
1000
0000
0031
1000
1010
0000
,
1001
0000
1000
0020
0001
0000
1030
0000
,
0001
0200
1000
0000
0301
1000
1100
0000
,
1001
0000
0100
0002
0010
0000
0103
0000
,
0010
2000
0100
0000
3010
1000
1010
0000
,
1001
0000
0000
0110
0000
0000
1100
0000
,
0000
0011
0000
0000
1010
0000
0101
0000
,
1000
0200
0010
0000
1300
0002
0100
0000
,
0013
0200
1000
0000
0310
0001
2000
0000
,
3001
0200
0010
0000
0301
2000
0100
0000
,
3010
0002
1000
0000
0103
0010
2000
0000
,
3001
0200
1000
0000
0301
0020
1000
0000
,
0031
2000
0010
0000
3001
0100
0110
0000
,
1001
0000
0000
1100
0000
0000
0101
0000
,
0000
1010
0000
0000
0011
0000
0110
0000
,
1001
0000
0100
1000
0001
0000
0110
0000
0010
0000
0100
0001
1000
0000
0110
0000
,
0010
1000
0100
0000
0001
0100
1000
0000
0010
0100
1000
0000
0100
0001
0010
0000
,
0110
0000
0010
1000
0100
0000
1001
0000
0110
0000
0010
0001
0100
0000
1001
0000
,
0110
0000
0000
1010
0000
0000
0101
0000
0000
0011
0000
0000
1100
0000
0011
0000
,
1001
0000
0001
1000
0100
0000
0010
0001
0100
0000
0010
1000
0100
0010
0001
0000
,
1100
0000
0010
0100
0001
0000
0100
1000
0010
0000
0100
0001
1000
0100
0010
0001
,
1001
0000
1000
0010
0100
0000
1000
0100
0001
0010
0001
0100
1000
0100
0001
0010
,
1000
0000
1000
1010
0000
0010
0011
0000
0001
0101
0000
0100
1100
0000
0101
0000
,
1001
0011
1100
0110
,
1001
0101
1010
0110
,
1001
0000
0010
1000
0100
0000
0010
1000
,
0100
0000
0001
0010
0100
1000
0010
0000
,
1001
0000
0110
0000
1010
0000
0100
0002
,
0000
1003
0020
0000
0130
0000
0101
0000
,
1001
0000
0010
0100
0001
0000
0010
0100
,
0001
0000
0001
0010
1000
0010
0001
0100
,
1000
0100
0001
0100
1000
0100
0001
0010
,
1000
0010
0001
0010
1000
0010
0001
0100
,
0001
0010
0100
1000
0010
0100
0001
0010
,
0001
1000
0010
0100
0001
0010
0100
1000
,
0010
0001
0010
1000
0100
1000
0010
0001
,
0010
1000
0100
0010
0001
1000
0010
0002
,
0000
0000
0003
0000
;

//---------------dance-double - ----------------
#NOTES:
     dance-double:
     :
     Beginner:
     1:
     :
00000000
00000000
00000000
00000000
,
00000000
00000000
00000000
00000000
,
00000000
00000000
00000000
00000000
,
00000000
00000000
00000000
00000000
,
00000000
00000000
00000000
00000000
,
10000000
00000000
00000000
00000000
,
01000000
00000000
00000000
00000000
,
00010000
00000000
00000000
00000000
,
00001000
00000000
00000000
00000000
,
00000100
00000000
00000001
00000000
,
00000100
00000000
00000010
00000000
,
00001000
00001000
00001000
00000000
,
00000100
00000100
00000100
00000000
,
00010000
00010000
00010000
00000000
,
00001000
00001000
00001000
00000000
,
00010000
00000000
00000000
00000000
,
00001000
00000000
01000000
00000000
,
00100000
00000000
10000000
00000000
,
00010000
00000000
00100000
00000000
,
01000000
00000000
00000000
00000000
,
10000000
00000000
01000000
00000000
,
00010000
00000000
00001000
00000000
,
00000100
00000000
00000010
00000000
,
00001000
00000000
00000010
00000000
,
00000100
00000000
00000001
00000000
,
00000010
00000000
00001000
00000000
,
00010000
00000000
01000000
00000000
,
20000000
00000000
00000000
30000000
,
10000000
00000000
00010000
00000000
,
01000000
00000000
00000000
00000000
,
00001000
00000000
00000000
00010000
,
00010000
00000000
00000000
00000000
,
00000100
00000000
00000000
00001000
,
00001000
00000000
00000000
00000000
,
00000010
00000000
00000000
00000100
,
00000200
00000000
00000000
00000300
,
00000100
00000000
00000001
00000001
,
00000001
00000000
00000001
00000000
,
00000001
00000000
00001000
00000000
,
00000100
00000000
00000100
00000000
,
00000100
00000000
00010000
00000000
,
00001000
00000000
00001000
00000000
,
00001000
00000000
00100000
00000000
,
00010000
00000000
01000000
00000000
,
00100000
00000000
10000000
00000000
,
10010000
00000000
00100000
00000000
,
01000000
00000000
00010000
00000000
,
00011000
00000000
00010000
00000000
,
00001000
00000000
00000100
00000000
,
00000110
00000000
00000001
00000000
,
00001000
00000000
00000001
00000000
,
00001001
00000000
00000100
00000000
,
00010000
00000000
00001000
00000000
,
00011000
00000000
00010000
00000000
,
00001000
00000000
00010000
00000000
,
00011000
00000000
00000000
00000000
,
00010000
00000000
00010000
00000000
,
00010000
00000000
00000000
00000000
,
01000000
00000000
01000000
00000000
,
01000000
00000000
00000000
00000000
,
00100000
00000000
00100000
00000000
,
00100000
00000000
00000000
00000000
,
10000000
00000000
10000000
00000000
,
10000000
00000000
00000000
00000000
,
00010000
00000000
00010000
00000000
,
00010000
00000000
01000000
00000000
,
01000000
00000000
00000000
00000000
,
10010000
00000000
00000000
00000000
;

//---------------dance-double - ----------------
#NOTES:
     dance-double:
     :
     Easy:
     3:
     :
00000000
00000000
00000000
00000000
,
00000000
00000000
00000000
00000000
,
00000000
00000000
00000000
00000000
,
00000000
00000000
00000000
00000000
,
00000000
00000000
00000000
00000000
,
00000001
00000000
00000001
00000000
,
00001000
00000000
00001000
00000000
,
00000100
00000000
00000100
00000000
,
00010000
00000000
00010000
00000000
,
00011000
00000000
00001000
00000000
,
00010000
00000000
00001000
00000000
,
00010000
00010000
01000000
01000000
,
10000000
10000000
01000000
01000000
,
00200000
00300000
00020000
00030000
,
01000000
00100000
01000000
00100000
,
00010000
00000000
00001000
00000000
,
00010000
00001000
00010000
00000000
,
00000200
00000300
00002000
00003000
,
00000002
00000003
00000020
00000030
,
00000100
00000000
00001000
00000000
,
00000010
00000100
00001000
00000000
,
00020000
00030000
00002000
00003000
,
00010000
00010000
00010000
00000000
,
02000000
03000000
20000000
30000000
,
00200000
00300000
00020000
00030000
,
00100000
00000000
10000000
00000000
,
00010000
10000000
00010000
10000000
,
20020000
00000000
00000000
00000000
,
30030000
00000000
00100000
00000000
,
00011000
00000000
00000100
00000000
,
00000010
00000000
00000100
00000000
,
00010000
00000000
00001000
00000000
,
01000000
00000000
00100000
00000000
,
01000000
00000000
00010000
00000000
,
00100000
00000000
00001000
00000000
,
00010000
00000000
00000100
00000000
,
00001000
00001000
00001000
00000000
,
00000010
00000000
00000100
00000000
,
00000010
00000100
00000010
00000000
,
00000001
00000000
00000100
00000000
,
00001000
00010000
00001000
00000000
,
00010000
00000000
01000000
00000000
,
00100000
01000000
00100000
00000000
,
10010000
00000000
01100000
00000000
,
01100000
00000000
10010000
00000000
,
02000000
03000000
20020000
30030000
,
00200000
00300000
00022000
00033000
,
00000100
00001000
00000100
00010000
,
00000100
00001000
00000010
00000100
,
00000220
00000330
00000002
00000003
,
00000220
00000330
00002000
00003000
,
00010000
00100000
10000000
00100000
,
00010000
00100000
10000000
00010000
,
10010000
00000000
01100000
00000000
,
01100000
00000000
10010000
00000000
,
00100000
01000000
00100000
00000000
,
00010000
00001000
00010000
00000000
,
00000100
00000010
00000001
00000000
,
00001000
00000010
00000100
00000000
,
00000001
00000010
00000001
00000000
,
00001000
00000100
00001000
00000000
,
00000100
00010000
00001000
00000000
,
01000000
00001000
00010000
00000000
,
00100000
00010000
00100000
00000000
,
01000000
10000000
01000000
00000000
,
10000000
00100000
01000000
00000000
,
00010000
00100000
01000000
00000000
,
10010000
00000000
00000000
00000000
;

//---------------dance-double - ----------------
#NOTES:
     dance-double:
     :
     Medium:
     6:
     :
00000000
00000000
00000000
00000000
,
00000000
00000000
00000000
00000000
,
00000000
00000000
00000000
00000000
,
00000000
00000000
00000000
00000000
,
00000000
00000000
00000000
00000000
,
00010000
00000000
00100000
02000000
00000000
00000000
03000000
00000000
,
00010000
00000000
00001000
00000200
00000000
00000000
00000300
00000000
,
00000001
00000000
00001000
00000200
00000000
00000000
00000300
00000000
,
00010000
00001000
00010000
00001000
,
00200000
00310000
01000000
10000000
,
02000000
03010000
00100000
01000000
,
11000000
01010000
00010000
00001000
,
00001100
00000101
00000001
00001000
,
00000100
00000100
00010000
00010000
,
00001000
01000000
00001000
00010000
,
00000100
00000000
00000000
00010000
00001000
00000000
01000000
00000000
,
00010000
00000000
00000000
10000000
01000000
00000000
00100000
00000000
,
00010000
01000000
10000000
01000000
,
00010000
00100000
00001000
00010000
,
00000100
00001000
00000010
00000100
,
00000001
00000010
00000100
00010000
,
00001000
00001000
01000000
01000000
,
00010000
10000000
00010000
00000000
10000000
00000000
00000000
00000000
,
01000000
01000000
00100000
00100000
,
00001000
00010000
00001000
00000000
00010000
00000000
00001000
00000000
,
00000100
00000000
00000010
00000000
00000100
00000001
00000100
00000000
,
00000010
00001000
00000010
00000000
00001000
00000100
00001000
00000000
,
00000100
00000000
00000000
00010100
00000000
00000000
00010000
00000000
,
00001000
00010000
00001000
01000000
,
00100000
00000000
01000000
00200000
00000000
00000000
10300000
00000000
,
01000000
00000000
00100000
02000000
00000000
00000000
03010000
00000000
,
00001000
00000000
00010000
00002000
00000000
00000000
00003100
00000000
,
00000010
00000000
00000100
00000010
00000100
00000000
00000001
00000000
,
00001000
00000000
00000100
00000020
00000000
00000000
00001030
00000000
,
00010000
00000000
00001000
00020000
00000000
00000000
00031000
00000000
,
01000000
00000000
00000000
01010000
00000000
00000000
00100000
00000000
,
00000000
10100000
00000000
00000000
20000000
00000000
30020000
00000000
,
10030000
00000000
01000000
00200000
00000000
00000000
00310000
00000000
,
01000000
00000000
00001000
00020000
00000000
00000000
00030100
00000000
,
00001000
00000000
00000001
00000020
00000000
00000000
00000130
00000000
,
00001000
00000000
00000010
00000100
00000010
00000000
00000001
00000000
,
00000100
00000000
00001000
00020000
00000000
00000000
01030000
00000000
,
10000000
00000000
00100000
02000000
00000000
00000000
03001000
00000000
,
00010000
00000000
00000000
00010100
00000000
00000000
00000100
00000000
,
00000000
00000110
00000000
00000000
00000002
00000000
00002003
00000000
,
00003001
00000000
00000000
00000100
00000000
00000000
00001000
00000000
00000100
00000000
00000000
00000001
00000000
00000000
00000010
00000000
,
00001000
00000000
00000000
00010000
00000000
00000000
01000000
00000000
00010000
00000000
00000000
00001000
00000000
00000000
00010000
00000000
,
00011000
00000000
00000000
01000000
00000000
00000000
00100000
00000000
10100000
00000000
00000000
01000000
00000000
00000000
00100000
00000000
,
00110000
00000000
00000000
01000000
00000000
00000000
01010000
00000000
00000000
00001000
00000000
00000000
00011000
00000000
00010000
00000000
,
00000100
00000000
00000000
00001000
00000000
00000000
00000010
00000000
00000001
00000000
00000000
00000010
00000000
00000000
00001000
00000000
,
00000100
00000000
00000000
00000010
00000000
00000000
00000100
00000000
00010000
00000000
00000000
00001000
00000000
00000000
01000000
00000000
,
01010000
00000000
00000000
00100000
00000000
00000000
10000000
00000000
11000000
00000000
00000000
00100000
00000000
00000000
00010000
00000000
,
00011000
00000000
00000000
00001100
00000000
00000000
00000110
00000000
00000000
00000011
00000000
00000000
00001000
00000000
00000001
00000000
,
00001000
00000010
00000001
00000010
,
00000100
00000000
00001000
00000000
00010000
00001000
00010000
00000000
,
00002000
00000000
00103000
00010000
,
01000000
00000000
10000000
00000000
01000000
00010000
00100000
00000000
,
01000000
00010000
00001000
00000100
,
00000001
00000000
00000010
00000000
00001000
00000010
00000001
00000000
,
00002000
00000000
00003010
00000100
,
00000001
00000000
00000100
00000000
00001000
00010000
00001000
00000000
,
00010000
00100000
10000000
01000000
,
00100000
00010000
00100000
00000000
01010000
00000000
00000000
00000000
,
00001000
00010000
00001000
00000100
,
00000001
00000010
00000001
00000000
00000101
00000000
00000000
00000000
,
00000100
00001000
00010000
01000000
,
10000000
00100000
00010000
00000000
00001000
00000000
00000100
00000000
,
00000110
00000000
00000000
00000000
;

//---------------dance-double - ----------------
#NOTES:
     dance-double:
     :
     Hard:
     9:
     :
00000000
00000000
00000000
00000000
,
00000000
00000000
00000000
00000000
,
00000000
00000000
00000000
00000000
,
00000000
00000000
00000000
00000000
,
00000000
00000000
00000000
00000000
,
10100000
00000000
00010000
02000000
00000000
03000000
00001000
00000000
,
00101000
00000000
00010000
00000200
00000000
00000300
00000010
00000000
,
00000011
00000000
00001000
00000200
00000000
00000300
00010000
00000000
,
00011000
00000100
00010000
00001000
00000100
00001000
00010000
01000000
,
00020000
00000100
00000001
00030010
,
00002000
01000000
10000000
00103000
,
00020000
00100000
10000000
00130000
,
00002000
00000100
00000001
00003100
,
00000210
00001300
00210000
10300000
,
20010000
31000000
01020000
00031000
,
00001100
00000000
00000010
00001000
00000100
00000000
00000010
00010000
,
00000100
00000000
00000001
00000100
00001000
00010000
00100000
10000000
,
02000000
00000000
03020000
00000000
02030000
00000000
13000000
20000000
,
00000000
30010000
00020000
00000000
02030000
00000000
13000000
00000000
,
01010000
00000000
00100000
00010000
01000000
00000000
00100000
00001000
,
01000000
00000000
10000000
01000000
00010000
00001000
00000010
00000001
,
00000110
00001100
00000101
00000011
,
00001001
00001100
00002002
00003003
,
00011000
00101000
01100000
11000000
,
20100000
31000000
00120000
01030000
,
11000000
01010000
00011000
00001100
,
00000010
00000001
00001000
00000001
00001000
00000000
00000001
00000000
00001000
00000000
00000001
00000000
00000100
00000000
00002000
00000000
,
00010000
00000000
00000000
00020000
00003000
00000000
00001000
00000000
,
00032000
00010000
00023000
00031000
,
00022000
00000000
00033000
00100000
20000000
00000000
30000000
01000000
,
00020000
00000000
00030000
00001000
00000020
00000000
00000031
00000000
,
00002002
00000000
00003003
00000100
00002000
00000000
00003000
00010000
,
02000000
00000000
03000000
10000000
00020000
00000000
01030000
00000000
,
10020000
00000000
00130000
00010000
02000000
00000000
03001000
00010000
,
00000020
00000000
00001030
00000001
00000010
00001000
00000010
00000001
,
00001001
00000000
00000000
00000110
00000000
00000000
00011000
00000000
,
00000000
01100000
00000000
00000000
10010000
00000000
01100000
00000000
,
10000000
02000000
00010000
00000000
13000000
01000000
00020000
00000000
,
00031000
00000200
00000001
00000000
00001300
00000100
00000002
00000000
,
00000013
00002000
00010000
00000000
00003010
00001000
00020000
00000000
,
00031000
00020000
01000000
00000000
00031000
00010000
02000000
00000000
,
13000000
00020000
01000000
00000000
10030000
00010000
02000000
00000000
,
03001000
00020000
00000100
00000000
00031000
00010000
00000200
00000000
,
00000320
00000000
00000031
00002000
00003000
00001000
00020000
00030000
,
00010000
20000000
30000000
10000000
00010000
01000000
00001000
00010000
,
00000200
00000000
00000300
00000001
00000200
00000000
00000300
00001000
00000200
00000000
00000300
00000001
00000200
00000000
00010300
00000000
,
02100000
00000000
03000000
10000000
02000000
00000000
03000000
00010000
02000000
00000000
03000000
10000000
02000000
00000000
03010000
00000000
,
00012000
00000000
00003000
00000100
00000002
00000000
00000003
00000010
00002000
00000000
00003000
00010000
00200000
00000000
10300000
00000000
,
10010000
00000000
00000000
10100000
00000000
00000000
01010000
00000000
00000000
00101000
00000000
00000000
00010100
00000000
00001010
00000000
,
00000101
00000010
00000001
00000100
00001000
00000100
00000010
00001001
,
00001100
00010000
00001000
01000000
00100000
00010000
00100000
10010000
,
00110000
10000000
01000000
00010000
00001000
00000010
00000001
00000010
,
00010100
00000000
00000000
00010010
00000000
00000000
01001000
00000000
00000000
00101000
00000000
00000000
00010100
00000000
00010010
00000000
,
00001002
00000000
00000100
00000000
00001003
00000100
00010000
00001000
,
00000000
00001000
01000000
00010000
10000000
00000000
01000000
00010000
,
00100000
00000000
01000000
10000000
00010000
00000000
01100000
00000000
,
00100000
00000000
01000000
00010000
10000000
00100000
01000000
00000000
,
10020000
00000000
00100000
00000000
10030000
00100000
01000000
00010000
,
00000000
00010000
00100000
00001000
00010000
00000010
00000100
00000000
,
00000110
00000000
00000010
00001000
00000100
00000000
00001001
00000000
,
00000110
00000000
00000010
00000001
00000100
00000000
00001001
00000000
,
00000001
00000100
00001000
00000100
00000001
00000100
00001000
00010000
,
00100000
00010000
00001000
00010000
00100000
00000000
00000000
00100000
,
10000000
01000000
00010000
01000000
10000000
01000000
00010000
00001000
,
00000010
00000100
00010000
00001000
00100000
01000000
00010000
00001000
,
00000010
00000001
00000100
00001000
00000100
00000010
00010000
00001000
,
00100000
01000000
10000000
01000000
00010000
00001000
00000100
00000002
,
00000000
00000000
00000003
00000000
;
