#TITLE:bit mania;
#ARTIST:AKIRA YAMAOKA;
#BANNER:bit mania.png;
#BACKGROUND:bit mania-bg.png;
#CDTITLE:./CDTITLES/beatmaniaIIDX.png;
#MUSIC:bit mania.ogg;
#SAMPLESTART:4.862;
#SAMPLELENGTH:15;
#BPMS:0=148;

//---------------dance-single - ----------------
#NOTES:
     dance-single:
     :
     Beginner:
     1:
     :
0000
0000
0000
0000
,
0000
0000
0000
0000
,
0000
0000
0000
0000
,
1001
0000
0000
0000
,
0100
0000
0100
0000
,
0100
0000
0000
0000
,
0010
0000
0010
0000
,
0010
0000
0000
0000
,
1000
0000
1000
0000
,
1000
0000
0000
0000
,
0001
0000
0001
0000
,
0001
0000
0000
0000
,
1000
0000
0000
0000
,
0001
0000
0000
0000
,
1000
0000
0000
0000
,
1001
0000
0000
0000
,
0100
0000
0000
0000
,
0010
0000
0000
0000
,
0110
0000
0000
0000
,
0100
0000
0100
0000
,
0100
0000
0000
0000
,
0001
0000
0001
0000
,
0001
0000
0000
0000
,
1000
0000
1000
0000
,
1000
0000
0000
0000
,
0010
0000
0010
0000
,
0010
0000
0000
0000
,
1000
0000
0000
0000
,
0001
0000
0000
0000
,
1000
0000
0000
0001
,
0001
0000
0000
0000
,
0100
0100
0100
0000
,
0010
0000
0000
0000
,
0010
0010
0010
0000
,
0100
0000
0000
0000
,
1000
1000
1000
0000
,
0001
0000
0000
0000
,
0001
0001
0001
0000
,
1000
0000
0000
0000
,
0001
0000
1000
0000
,
0001
0000
0000
0000
,
0100
0000
0010
0000
,
0100
0000
0000
0000
,
1000
0000
0000
0000
,
0001
0000
0000
0000
,
1000
0000
0000
0000
,
1001
0000
0000
0000
,
0100
0000
0100
0000
,
0100
0000
0000
0000
,
0010
0000
0010
0000
,
0010
0000
0000
0000
,
1000
0000
1000
0000
,
1000
0000
0000
0000
,
0001
0000
0001
0000
,
0001
0000
1000
0000
,
1001
0000
0000
0000
;

//---------------dance-single - ----------------
#NOTES:
     dance-single:
     :
     Easy:
     3:
     :
0000
0000
0000
0000
,
0000
0000
0000
0000
,
0000
0000
0000
0000
,
1000
0000
1000
0000
,
1000
0001
1000
0000
,
0001
0000
0001
0000
,
0001
1000
0001
0000
,
0100
0000
0100
0000
,
0100
0001
0100
0000
,
0010
0000
0010
0000
,
0010
1000
0010
0000
,
1001
0000
0000
1000
,
0010
0100
0010
0100
,
0001
0000
0000
1000
,
0200
0000
0300
0100
,
0020
0000
0030
0001
,
0100
0010
0100
0010
,
2000
0000
0000
3000
,
0002
0000
0000
0003
,
0100
0000
0010
0000
,
1000
0000
1000
0100
,
1000
0000
0010
0000
,
0100
0000
0100
0001
,
0100
0000
0010
0000
,
1000
0000
1000
0100
,
1000
0000
0001
0000
,
1000
0000
0001
0100
,
0001
0000
0000
1000
,
0100
0000
0000
0001
,
0100
0000
0000
1000
,
1001
0000
0000
0000
,
0001
0100
0001
0100
,
0010
0000
0010
0000
,
1000
0100
1000
0100
,
0001
0000
0001
0000
,
0100
0010
0100
0010
,
1000
0000
1000
0000
,
0001
0100
0001
0100
,
0010
0000
0010
0000
,
1000
1000
0001
0000
,
0100
0100
0001
0000
,
1000
1000
0010
0000
,
0100
0100
0010
0000
,
1000
0000
0001
0000
,
1000
0000
0010
0000
,
1000
0000
0100
0000
,
0110
0000
0000
0000
,
1000
0000
1000
0000
,
1000
0001
1000
0000
,
0001
0000
0001
0000
,
0001
1000
0001
0000
,
0100
0000
0100
0000
,
0100
0001
0100
0000
,
0010
0000
0010
0000
,
0010
1000
0010
0000
,
1001
0000
0000
0000
;

//---------------dance-single - ----------------
#NOTES:
     dance-single:
     :
     Medium:
     5:
     :
0000
0000
0000
0000
,
0000
0000
0000
0000
,
0000
0000
0000
0000
,
1100
0000
0000
1000
0010
0000
0000
0100
,
0001
0010
0200
0300
,
0011
0000
0000
0001
0100
0000
0000
0010
,
1000
0100
0020
0030
,
0101
0000
0000
0001
0010
0000
0000
0100
,
1000
0001
0200
0300
,
1010
0000
0000
1000
0100
0000
0000
0010
,
0001
1000
0020
0030
,
0200
0000
0000
0300
,
0001
0010
0001
0000
1000
0000
1000
0000
,
0010
1000
0200
0000
0000
0000
0310
0000
,
0011
0101
1010
1100
,
0200
0000
0000
0300
,
1000
0010
1000
0000
0001
0000
0001
0000
,
0020
0000
0000
0000
0000
0000
0000
0130
,
0000
0000
1100
0101
,
1000
0010
0001
0000
0010
0000
1010
0000
,
1002
0000
0103
0000
,
0001
0010
1000
0000
0010
0000
0011
0000
,
2001
0000
3100
0000
,
1000
0100
0001
0000
0100
0000
0110
0000
,
0012
0000
1003
0000
,
0001
0100
1000
0000
0100
0000
0110
0000
,
2010
0000
3001
0000
,
0100
0000
0010
1010
,
1000
0000
0001
0011
,
0010
0000
0100
0110
,
0020
0000
0031
1001
,
0000
0000
1000
1000
0001
0000
0021
0000
,
0000
0031
0000
0010
0100
0000
0000
0000
,
0000
1000
0001
1000
,
0000
0101
0000
0001
0010
0000
0000
0000
,
0000
0000
0001
0001
1000
0000
1020
0000
,
0000
1030
0000
0010
0100
0000
0000
0000
,
0000
0001
1000
0001
,
0000
1100
0000
1000
0010
0000
0000
0000
,
0000
0000
1000
1000
0100
0000
0120
0000
,
0000
0130
0000
0010
0001
0000
0000
0000
,
0000
1000
0010
0100
,
0000
0101
0000
0001
1000
0000
0000
0000
,
0000
1010
0000
0101
,
0000
0011
0000
1100
,
0000
0110
0000
1001
,
0220
0000
0330
1001
,
0010
0000
0000
0100
1000
0000
0000
0001
,
0100
0001
0100
0001
2000
0000
3000
0000
,
0010
0000
0000
0100
0001
0000
0000
1000
,
0100
1000
0100
1000
0002
0000
0003
0000
,
0100
0000
0000
0010
1000
0000
0000
0001
,
0010
0001
0010
0001
2000
0000
3000
0000
,
0100
0000
0000
0010
0001
0000
0000
1000
,
0010
1000
0010
1000
0002
0000
0003
0000
,
1001
0000
0000
0000
;

//---------------dance-single - ----------------
#NOTES:
     dance-single:
     :
     Hard:
     8:
     :
0000
0000
0000
0000
,
0000
0000
0000
0000
,
0000
0000
0000
0000
,
1001
0000
0100
1000
0001
0000
0010
0001
,
0200
0320
0130
1010
,
1001
0000
0100
0001
0100
0000
0001
1000
,
0020
2030
3010
0101
,
0010
1000
0100
1000
0010
0100
0001
0010
,
0002
0203
0301
0110
,
0100
0001
0010
0100
0010
0001
0100
1000
,
0200
0320
0130
1010
,
0100
0000
1001
0000
0100
0001
0010
0000
,
0100
0010
0100
0000
0010
1000
0100
0000
,
0010
0001
0100
1000
0100
0001
0010
1000
,
0020
0000
0032
0000
0103
0000
0010
0110
,
0010
0000
1001
0000
0100
1000
0010
0000
,
0100
0010
0100
0000
0010
0001
0100
0000
,
0010
1000
0100
0001
0100
1000
0010
0001
,
0020
0000
0000
0000
2030
0000
0000
0000
3001
0100
0001
0000
0001
0100
0001
0000
,
0100
0000
0010
0000
1000
0001
1000
0000
,
0100
0000
0010
0000
0001
1000
0001
0100
,
0001
0000
0010
0000
0100
1000
0100
0000
,
0100
0010
0100
0000
1000
0001
1000
0100
,
1000
0000
0010
0000
0100
0001
0100
0000
,
0100
0010
0100
0000
0001
1000
0001
0100
,
0001
0000
0010
0000
0100
1000
0100
0000
,
0100
0010
0100
1000
0100
0010
0100
0001
,
0100
0000
1000
1001
0000
0100
2100
0000
,
3100
0000
0010
0011
0000
0001
2001
0000
,
3010
0000
0100
0110
0000
0001
0021
0000
,
1030
0000
0010
1001
,
0010
0100
1000
0001
1000
0100
0010
0001
,
0010
0100
0010
0001
0010
0100
1000
0010
,
1000
0100
1000
0010
1000
0010
0100
0001
,
1000
0010
0100
0001
1000
0100
1000
0001
,
0010
0001
0100
0001
0010
0001
0100
0010
,
1000
0100
0010
0100
1000
0100
0010
0100
,
1000
0010
0100
0001
1000
0010
0100
0001
,
1001
0101
0000
0101
1001
0000
1100
0000
,
0010
0100
0001
0010
0100
1000
0100
0010
,
0100
0001
0100
1000
0100
0010
0001
0100
,
0010
1000
0001
0100
0010
1000
0010
0100
,
0010
1000
0010
0001
0010
0100
0001
1000
,
0010
0020
1000
2030
0001
3002
1000
2003
,
0100
3200
1000
2300
0001
3002
0010
0023
,
1000
2030
0010
3020
0001
0032
0100
0103
,
0020
0000
0000
0000
0000
0000
0000
0000
0000
0000
0000
0000
0000
0000
0000
0000
0030
0000
0000
0000
0000
0000
0000
0000
0000
0000
0000
0000
0000
0000
0000
0000
1000
0000
0000
0000
0000
0000
0000
0000
0001
0000
0000
0000
0000
0000
0000
0000
1000
0000
0000
0000
0000
0100
0000
0000
0000
0000
0000
0010
0000
0000
0000
0000
,
0001
0000
1000
0001
0100
0000
0010
0110
,
0100
0010
0100
1001
,
0011
0000
0100
0001
1000
0000
1000
1010
,
0010
1000
0010
0110
,
0101
0000
0100
0001
1000
0000
0001
0011
,
0010
0001
0010
1001
,
0110
0000
0001
1000
0010
0000
1000
1001
,
0001
1000
0001
0110
,
1001
0000
0000
0000
;

//---------------dance-double - ----------------
#NOTES:
     dance-double:
     :
     Beginner:
     1:
     :
00000000
00000000
00000000
00000000
,
00000000
00000000
00000000
00000000
,
00000000
00000000
00000000
00000000
,
01000000
00000000
00000000
00000000
,
00010000
00000000
00010000
00000000
,
00010000
00000000
00000000
00000000
,
00001000
00000000
00001000
00000000
,
00001000
00000000
00000000
00000000
,
00000100
00000000
00000100
00000000
,
00000100
00000000
00000000
00000000
,
00000001
00000000
00000001
00000000
,
00000001
00000000
00000000
00000000
,
00001000
00000000
00000000
00000000
,
00010000
00000000
00000000
00000000
,
10000000
00000000
00000000
00000000
,
01100000
00000000
00000000
00000000
,
00010000
00000000
00000000
00000000
,
00001000
00000000
00000000
00000000
,
00001001
00000000
00000000
00000000
,
00000100
00000000
00000100
00000000
,
00000100
00000000
00000000
00000000
,
00001000
00000000
00001000
00000000
,
00001000
00000000
00000000
00000000
,
00010000
00000000
00010000
00000000
,
00010000
00000000
00000000
00000000
,
01000000
00000000
01000000
00000000
,
01000000
00000000
00000000
00000000
,
10000000
00000000
00000000
00000000
,
00010000
00000000
00000000
00000000
,
00001000
00000000
00000000
00010000
,
00010000
00000000
00000000
00000000
,
00001000
00001000
00001000
00000000
,
00001000
00000000
00000000
00000000
,
00000001
00000001
00000001
00000000
,
00000001
00000000
00000000
00000000
,
00001000
00001000
00001000
00000000
,
00001000
00000000
00000000
00000000
,
00010000
00010000
00010000
00000000
,
00010000
00000000
00000000
00000000
,
01000000
00000000
01000000
00000000
,
10000000
00000000
00000000
00000000
,
00100000
00000000
00100000
00000000
,
10000000
00000000
00000000
00000000
,
00010000
00000000
00000000
00000000
,
00001000
00000000
00000000
00000000
,
00000010
00000000
00000000
00000000
,
00001001
00000000
00000000
00000000
,
00000010
00000000
00000010
00000000
,
00000010
00000000
00000000
00000000
,
00001000
00000000
00001000
00000000
,
00001000
00000000
00000000
00000000
,
00010000
00000000
00010000
00000000
,
00010000
00000000
00000000
00000000
,
01000000
00000000
01000000
00000000
,
01000000
00000000
00010000
00000000
,
00011000
00000000
00000000
00000000
;

//---------------dance-double - ----------------
#NOTES:
     dance-double:
     :
     Easy:
     4:
     :
00000000
00000000
00000000
00000000
,
00000000
00000000
00000000
00000000
,
00000000
00000000
00000000
00000000
,
00000010
00000000
00000001
00000000
,
00000001
00000100
00000001
00000100
,
00001000
00000000
00010000
00000000
,
00010000
01000000
00010000
01000000
,
10000000
00000000
00100000
00000000
,
00100000
00010000
00100000
00010000
,
00001000
00000000
00000010
00000000
,
00000010
00000001
00000010
00000001
,
00000100
00000000
00000000
00010000
,
00001000
00010000
00001000
00000000
,
01000000
00000000
00000000
00010000
,
00001000
00010000
00001000
00000100
,
00000001
00000000
00000000
00001000
,
00010000
00001000
00010000
00000000
,
01000000
00000000
00000000
00000000
,
10000000
01000000
00100000
00010000
,
01000000
00000000
00001000
00010000
,
00001000
00000000
00000100
00000000
,
00000001
00000100
00001000
00000100
,
00001000
00000000
00010000
00000000
,
01000000
00010000
00001000
00010000
,
00001000
00000000
00000100
00000000
,
00000001
00000010
00000001
00000010
,
00001000
00000000
00010000
00000000
,
00002000
00000000
00003000
00010000
,
00020000
00000000
00030000
01000000
,
02000000
00000000
03000000
10000000
,
20000000
00000000
30010000
00000000
,
10000000
01000000
00010000
00001000
,
00000100
00000001
00000010
00000000
,
00000001
00000100
00000001
00001000
,
00000001
00000100
00000001
00000000
,
00000001
00000100
00001000
00010000
,
01000000
10000000
00100000
00000000
,
10000000
01000000
10000000
00100000
,
20000000
30000000
00020000
00030000
,
01000000
00010000
00100000
00010000
,
00100000
00001000
00010000
00000000
,
00000100
00001000
00000001
00001000
,
00000001
00000100
00000010
00000000
,
00002000
00003000
00000002
00000003
,
00000200
00000300
00002000
00003000
,
00020000
00030000
00002000
00003000
,
00022000
00000000
00000000
00033000
,
00001000
00000000
00000100
00000000
,
00000100
00000001
00000100
00000001
,
00000010
00000000
00001000
00000000
,
00001000
00010000
00001000
00010000
,
00100000
00000000
10000000
00000000
,
10000000
01000000
10000000
01000000
,
00010000
00000000
00001000
00000000
,
00001000
00000100
00001000
00000100
,
00000001
00000000
00000000
00000000
;

//---------------dance-double - ----------------
#NOTES:
     dance-double:
     :
     Medium:
     5:
     :
00000000
00000000
00000000
00000000
,
00000000
00000000
00000000
00000000
,
00000000
00000000
00000000
00000000
,
00001000
00000000
00000000
00000100
00001000
00000000
00000000
00010000
,
00001000
00000100
00001001
00000000
,
00000001
00000000
00000000
00000010
00001000
00000000
00000000
00010000
,
00001000
00010000
00011000
00000000
,
00010000
00000000
00000000
01000000
10000000
00000000
00000000
00100000
,
10000000
01000000
00100000
01100000
,
01000000
00000000
00000000
00010000
00001000
00000000
00000000
00010000
,
01000000
00010000
00001000
00011000
,
00001000
00000100
00000001
00000100
,
00001000
00010000
01000000
00010000
,
00001000
00000010
00000001
00000010
,
00000002
00000203
00002300
00023000
,
00031000
00010000
01000000
10000000
,
01000000
00010000
00001000
00000100
,
00000001
00000010
00001000
00000010
,
00000001
00000100
00001000
00010000
,
00011000
00000000
00010000
01000000
,
00010000
00000000
01000000
00000000
10000000
00100000
10000000
00100000
,
01000000
00010000
01000000
00010000
,
00100000
00000000
00001000
00000000
00010000
00001000
00010000
00001000
,
00000100
00000001
00000100
00000001
,
00000010
00000000
00000100
00000000
00001000
00000001
00001000
00000001
,
00000100
00001000
00000100
00001000
,
00010000
00000000
00001000
00000000
00010000
01000000
00010000
01000000
,
10000000
00000000
00010000
01000000
00000000
00000000
10100000
00000000
,
00000000
00000000
01000000
00010000
00000000
00000000
00011000
00000000
,
00000000
00000000
00000100
00000001
00000000
00000000
00000110
00000000
,
00000101
00000000
00002000
00013000
,
00001000
00000100
00000010
00001001
,
00000000
00000100
00000000
00000100
00000010
00000000
00000000
00000000
,
00000100
00001000
00010000
00011000
,
00000000
00010000
00000000
00010000
01000000
00000000
00000000
00000000
,
10000000
01000000
00100000
10010000
,
00000000
01000000
00000000
01000000
00100000
00000000
00000000
00000000
,
01000000
00010000
00001000
00011000
,
00000000
00001000
00000000
00001000
00000100
00000000
00000000
00000000
,
00000001
00000100
00001000
00010000
,
00001000
00000100
00000000
00001000
00010000
00000000
01000000
00000000
,
10000000
00100000
00010000
00100000
,
10000000
01000000
00000000
00010000
01000000
00000000
00010000
00000000
,
00001000
00000100
00000100
00000001
,
00000001
00000100
00000100
00001000
,
00011000
00000000
01001000
00000000
,
01010000
00000000
00000000
00000000
,
10000000
00000000
00000000
01000000
00010000
00000000
00000000
00001000
,
00000100
00000001
00000100
00000110
,
00000001
00000000
00000000
00000100
00001000
00000000
00000000
00010000
,
01000000
10000000
01000000
10010000
,
01000000
00000000
00000000
00010000
00001000
00000000
00000000
00000100
,
00000010
00001000
00000100
00000110
,
00000010
00000000
00000000
00000001
00000100
00000000
00000000
00001000
,
00010000
01000000
10000000
00100000
,
01100000
00000000
00000000
00000000
;

//---------------dance-double - ----------------
#NOTES:
     dance-double:
     :
     Hard:
     8:
     :
00000000
00000000
00000000
00000000
,
00000000
00000000
00000000
00000000
,
00000000
00000000
00000000
00000000
,
00001000
00000100
00000001
00000010
00001000
00010000
00100000
10000000
,
01000000
00010000
00001000
00011000
,
00010000
01000000
10000000
00100000
00010000
00001000
00000010
00000001
,
00000100
00001000
00010000
00011000
,
01000000
00000000
00100000
10000000
01000000
00100000
00010000
01000000
,
00001000
00010000
00001000
00000100
00000010
00000000
00010000
00000000
,
00000100
00000000
00000010
00000001
00000100
00000010
00001000
00000100
,
00010000
00001000
00100000
00010000
01000000
00000000
00001000
00000000
,
00000100
00000000
00000001
00000000
00000100
00000010
00010000
00001000
,
01000000
00000000
00100000
00000000
10000000
00010000
01000000
00001000
,
00010000
00000000
00010000
00000000
00000010
00001000
00000100
00001000
,
00001001
00001010
00010010
00011000
,
00001000
00000000
01000000
00000000
00010000
00100000
01000000
10000000
,
00010000
00000000
00100000
00000000
00001000
00010000
00000100
00001000
,
00000001
00000000
00000100
00000000
00001000
00100000
00010000
10000000
,
01000000
00010000
00001000
00000100
00000001
00000100
00001000
00010000
,
01000000
10000000
00100000
00010000
,
00001000
00000000
00000010
00000000
00000001
00000100
00001000
00010000
,
01000000
01000000
10000000
00000000
01000000
00000000
00010000
00000000
,
00001000
00000000
00000100
00000000
00000001
00000010
00001000
00010000
,
00100000
00100000
10000000
00000000
00100000
00000000
00010000
00000000
,
00001000
00000000
00000010
00000000
00000001
00000100
00001000
00010000
,
01000000
01000000
10000000
00000000
00100000
01000000
00010000
00100000
,
00001000
00010000
00000100
00001000
00000010
00000100
00000001
00000010
,
00000001
00000000
00000100
00001000
00000000
00010000
01000000
00000000
,
00000000
00000000
10000000
01000000
00000000
00010000
00001000
00000000
,
00000000
00000000
00000001
00001000
00000000
00010000
00001000
00000000
,
00020000
00000000
00001000
01030000
,
10000000
01000000
00100000
00001000
00000010
00000001
00000100
00001000
,
00010000
01000000
10000000
01000000
00010000
00001000
00010000
00100000
,
10000000
01000000
00100000
00010000
01000000
00100000
10000000
00010000
,
00100000
00001000
00010000
00001000
00000010
00000001
00000100
00000010
,
00001000
00000100
00000001
00000100
00010000
00001000
00100000
00010000
,
01000000
10000000
01000000
00100000
10000000
00100000
00010000
00001000
,
00000010
00000100
00000001
00000100
00010000
00001000
00010000
01000000
,
10000000
00010000
00000000
01000000
00100000
00000000
10010000
00000000
,
10000000
00100000
00010000
00001000
00000010
00000100
00010000
00001000
,
01000000
00010000
01000000
00100000
10000000
00100000
00010000
00001000
,
00000010
00000100
00010000
00001000
00000100
00000001
00001000
00000010
,
00000100
00001000
00010000
00001000
00010000
00100000
10000000
00010000
,
10000000
00100000
01000000
00010000
00100000
00001000
00010000
00000100
,
00001000
00000010
00000100
00000001
00000010
00000100
00010000
00001000
,
00100000
00001000
01000000
00001000
00100000
00001000
01000000
00100000
,
20020000
00000000
00000000
30030000
,
01000000
00000000
00001000
00010000
00001000
00000000
00000010
00000001
,
00000100
00001000
00010000
01000000
10000000
00000000
00100000
00000000
,
01000000
00000000
00001000
00010000
00001000
00000000
00100000
00010000
,
10000000
01000000
00010000
00001000
00000100
00000000
00001000
00000000
,
00100000
00000000
00001000
00010000
00001000
00000000
00000010
00000001
,
00000100
00001000
00010000
01000000
10000000
00000000
00100000
00000000
,
01000000
00000000
00001000
00010000
00001000
00000000
00100000
00010000
,
10000000
01000000
00010000
00001000
00000100
00000000
00001000
00000000
,
00100000
00000000
00000000
00000000
;
