#TITLE:ZETSUBOUTEKIDA!;
#ARTIST:nekoJIRA;
#BANNER:ZETSUBOUTEKIDA!.png;
#BACKGROUND:ZETSUBOUTEKIDA!-bg.png;
#CDTITLE:./CDTITLES/Dance Dance Revolution ULTRAMIX4.png;
#MUSIC:ZETSUBOUTEKIDA!.ogg;
#SAMPLESTART:21.529;
#SAMPLELENGTH:15;
#DISPLAYBPM:145;
#BPMS:0=144.8,4=145;

//---------------dance-single - ----------------
#NOTES:
     dance-single:
     :
     Beginner:
     1:
     :
0000
0000
0000
0000
,
0000
0000
0000
0000
,
0000
0000
0000
0000
,
0000
0000
0000
0000
,
0000
0000
0000
0000
,
1000
0000
0000
0000
,
0100
0000
0000
0000
,
0010
0000
0000
0000
,
0001
0000
0000
0000
,
1000
0000
1000
0000
,
1000
0000
0000
0000
,
0001
0000
0001
0000
,
0001
0000
0000
0000
,
0010
0000
0000
0000
,
0100
0000
0000
0000
,
0010
0000
0000
0000
,
0100
0000
0000
0000
,
1000
1000
0000
0000
,
0001
0001
0000
0000
,
1000
1000
0000
0000
,
0001
0001
0000
0000
,
0010
0000
0000
0000
,
0100
0000
0000
0000
,
1000
0000
0000
0000
,
0001
0000
0000
0000
,
0100
0000
0000
0000
,
0010
0000
0000
0000
,
1000
0000
0000
0000
,
0001
0000
0000
0000
,
2000
0000
0000
3000
,
1000
0000
0000
0000
,
0002
0000
0000
0003
,
0001
0000
0000
0000
,
0020
0000
0000
0030
,
0010
0000
0000
0000
,
0200
0000
0000
0300
,
0100
0000
0000
0000
,
1000
1000
0000
0000
,
0001
0001
0000
0000
,
1000
1000
0000
0000
,
0001
0001
0000
0000
,
0010
0010
0000
0000
,
0100
0100
0000
0000
,
0010
0010
0000
0000
,
0100
0100
0000
0000
,
0010
0000
0000
0000
,
0100
0000
0000
0000
,
1000
0000
0000
0000
,
0001
0000
0000
0000
,
1000
1000
0000
0000
,
0010
0010
0000
0000
,
0100
0100
0000
0000
,
0001
0001
0000
0000
,
1000
0000
0000
0000
,
0100
0000
0000
0000
,
0010
0000
0000
0000
,
0001
0000
0000
0000
,
0010
0010
0000
0000
,
0100
0100
0000
0000
,
1000
1000
0000
0000
,
0001
0001
0000
0000
,
1001
0000
0000
0000
;

//---------------dance-single - ----------------
#NOTES:
     dance-single:
     :
     Easy:
     3:
     :
0000
0000
0000
0000
,
0000
0000
0000
0000
,
0000
0000
0000
0000
,
0000
0000
0000
0000
,
0000
0000
0000
0000
,
1000
0100
1000
0000
,
0001
0100
0001
0000
,
1000
0100
1000
0000
,
0001
0100
0001
0000
,
0010
1000
0100
0000
,
0010
1000
0100
0000
,
0010
0001
0100
0000
,
0010
0001
0100
0000
,
1000
0000
1000
0000
,
0010
0010
0100
0100
,
0001
0000
0001
0000
,
0010
0010
0100
0100
,
1000
0000
0001
0000
,
1000
0100
0010
0010
,
0001
0000
1000
0000
,
0001
0100
0010
0010
,
1000
0000
0100
0000
,
0010
0000
0100
0000
,
1000
0000
0100
0000
,
0010
0000
0100
0000
,
0001
0000
0100
0000
,
0010
0000
0100
0000
,
0001
0000
0100
0000
,
0010
0000
0100
0000
,
1001
0000
0000
0000
,
0110
0000
0000
0000
,
1000
0000
0100
0000
,
0001
0000
0010
0000
,
1000
0100
0010
0001
,
0100
0000
0100
0000
,
0001
0100
0010
1000
,
0100
0000
0100
0000
,
1000
1000
0001
0001
,
0010
0000
0100
0000
,
1000
1000
0001
0001
,
0010
0000
0100
0000
,
0010
0001
0100
1000
,
0010
0000
0010
0000
,
0010
1000
0100
0001
,
1001
0000
0000
0000
,
1000
0000
0100
0000
,
0010
0010
0001
0001
,
0100
0000
0010
0000
,
1000
1000
0100
0100
,
0010
0000
0001
0000
,
0100
0100
0010
0010
,
1000
0000
0100
0000
,
0010
0010
0001
0001
,
0010
0000
0001
0000
,
0100
0100
1000
1000
,
0010
0000
1000
0000
,
0100
0100
0001
0001
,
0010
0000
0100
0000
,
0010
0010
0100
0100
,
1000
0000
0001
0000
,
1000
1000
0001
0001
,
0100
0000
0000
0000
;

//---------------dance-single - ----------------
#NOTES:
     dance-single:
     :
     Medium:
     5:
     :
0000
0000
0000
0000
,
0000
0000
0000
0000
,
0000
0000
0000
0000
,
0000
0000
0000
0000
,
0000
0000
0000
0000
,
0010
0001
0010
0100
,
1000
0010
0100
0010
,
1000
0100
0010
0001
,
1000
0010
0100
0100
,
0010
1000
0010
0100
,
0001
0010
0100
0010
,
0001
0100
0010
1000
,
0001
0010
0100
0100
,
1000
0001
1000
0001
,
1000
0100
0001
0000
1000
0100
0001
0000
,
1000
0010
1000
0010
,
1000
0100
0010
0000
1000
0100
0010
0000
,
0001
1000
0001
1000
,
0001
0100
1000
0000
0001
0100
1000
0000
,
0001
0010
0001
0010
,
0001
0100
0010
0000
0001
0100
0010
0000
,
0000
1000
0000
0100
0000
0010
0000
0100
,
0000
0001
0000
0100
0000
0010
0000
0100
,
0000
1000
0000
0010
0000
0100
0000
0010
,
0000
0001
0000
0010
0000
0100
0000
0010
,
0000
1000
0000
0010
0000
0001
0000
0100
,
0000
1000
0000
0010
0000
0001
0000
0100
,
0000
0001
0000
0010
0000
1000
0000
0100
,
0001
0001
0001
0000
1000
1000
1000
0000
,
2000
3100
0010
1001
,
0002
0103
0010
1001
,
0200
0310
1000
0110
,
0200
0310
0001
0110
,
2000
0100
3002
0010
,
2003
0100
3002
0010
,
2003
0100
3020
1000
,
0230
0010
0301
1001
,
1000
0000
0001
0000
0100
0100
0100
0000
,
0001
0010
0100
1000
,
0001
0000
1000
0000
0100
0100
0100
0000
,
1000
0010
0100
0001
,
1000
0000
0100
0000
0010
0010
0010
0000
,
0001
0010
0100
1000
,
0001
0000
0100
0000
0010
0010
0010
0000
,
1000
0010
0100
0001
,
1000
0001
1000
0001
,
1000
0100
0001
0000
1000
0100
0001
0000
,
1000
0010
1000
0010
,
1000
0100
0010
0000
1000
0100
0010
0000
,
0001
1000
0001
1000
,
0001
0100
1000
0000
0001
0100
1000
0000
,
0001
0010
0001
0010
,
0001
0100
0010
0000
0001
0100
0010
0000
,
0000
1000
0000
0100
0000
0010
0000
0100
,
0000
0001
0000
0100
0000
0010
0000
0100
,
0000
1000
0000
0010
0000
0100
0000
0010
,
0000
0001
0000
0010
0000
0100
0000
0010
,
0000
1000
0000
0010
0000
0001
0000
0100
,
0000
1000
0000
0010
0000
0001
0000
0100
,
0000
0001
0000
0010
0000
1000
0000
0100
,
0001
0001
0001
0000
1000
1000
1000
0000
,
0110
0000
0000
0000
;

//---------------dance-single - ----------------
#NOTES:
     dance-single:
     :
     Hard:
     8:
     :
0000
0000
0000
0000
,
0000
0000
0000
0000
,
0000
0000
0000
0000
,
0000
0000
0000
0000
,
0000
0000
0000
0000
,
0001
0100
0001
0100
,
0010
1000
0100
0000
0010
0001
0100
0000
,
1000
0100
1000
0100
,
0010
0001
0100
0000
0010
1000
0100
0000
,
0001
1000
0010
1000
,
0001
0010
1000
0000
1000
0010
0001
0000
,
1000
0001
0010
0001
,
1000
0010
0001
0000
0001
0010
1000
0100
,
0010
0010
0010
0010
,
0001
0000
1000
0000
0001
0000
0000
1000
0000
0000
0100
0000
0010
0000
0001
0000
,
0100
0100
0100
0100
,
0010
0000
1000
0000
0010
0000
0000
0100
0000
0000
0001
0000
0010
0000
0100
0000
,
1000
1000
1000
1000
,
0001
0000
0100
0000
0001
0000
0000
1000
0000
0000
0010
0000
0100
0000
0001
0000
,
0010
0010
0010
0010
,
0100
0000
1000
0000
0100
0000
0000
0010
0000
0000
0001
0000
1000
0000
0010
0000
,
0100
0000
0000
0001
0010
0000
0000
0010
0100
0000
0000
0100
1000
0000
0000
1000
,
0010
0000
0000
0010
0100
0000
0000
0100
0010
0000
0000
0010
1000
0000
0000
1000
,
0001
0000
0000
0001
0100
0000
0000
0100
0010
0000
0000
0010
1000
0000
0000
1000
,
0100
0000
0000
0100
0010
0000
0000
0010
0001
0000
0000
0001
0100
0000
0010
0000
,
0100
0100
0100
0100
,
0001
0000
0001
0000
0010
0000
0000
0100
0000
0000
1000
0000
0010
0000
0100
0000
,
0001
0001
0001
0001
,
1000
0000
1000
0000
0010
0000
0000
0100
0000
0000
0001
0000
0010
0000
0100
0000
,
1000
0001
0010
0100
,
0020
1000
0100
0031
,
0100
0010
1000
0001
,
0200
0000
1000
0000
0010
0000
0301
0010
,
0100
1000
0010
0100
,
0002
0000
0010
0000
1000
0000
0103
0010
,
0100
0001
0010
0100
,
2000
0010
0001
3100
,
0000
0000
0010
0001
0000
0010
0001
0000
0000
0000
0100
0010
0000
0100
0010
0000
,
0000
0000
1000
0100
0000
1000
0100
0000
0010
0000
0001
0000
0100
0000
0010
0000
,
0000
0000
1000
0001
0000
1000
0001
0000
0000
0000
0010
0100
0000
0010
0100
0000
,
0000
0000
1000
0001
0000
1000
0001
0000
0100
0000
0010
0000
1000
0000
0100
0000
,
0000
0000
0010
0001
0000
0001
1000
0000
0000
0000
0100
0010
0000
0010
0001
0000
,
0000
0000
0100
0001
0000
0001
1000
0000
0010
0000
1000
0000
0100
0000
0010
0000
,
0000
0000
0001
1000
0000
1000
0010
0000
0000
0000
0100
0001
0000
0001
0010
0000
,
2002
0000
0000
3003
,
0010
0110
0010
0110
,
0001
0000
1000
0000
0001
0000
0000
1000
0000
0000
0100
0000
0010
0000
0001
0000
,
0100
0110
0100
0110
,
0010
0000
1000
0000
0010
0000
0000
0100
0000
0000
0001
0000
0010
0000
0100
0000
,
1000
1001
1000
1001
,
0001
0000
0100
0000
0001
0000
0000
1000
0000
0000
0010
0000
0100
0000
0001
0000
,
0010
0110
0010
0110
,
0100
0000
1000
0000
0100
0000
0000
0010
0000
0000
0001
0000
1000
0000
0010
0000
,
0100
0000
0000
0001
0010
0000
0000
0010
0100
0000
0000
0100
1000
0000
0000
1000
,
0010
0000
0000
0010
0100
0000
0000
0100
0010
0000
0000
0010
1000
0000
0000
1000
,
0001
0000
0000
0001
0100
0000
0000
0100
0010
0000
0000
0010
1000
0000
0000
1000
,
0100
0000
0000
0100
0010
0000
0000
0010
0001
0000
0000
0001
0100
0000
0010
0000
,
0100
0101
0100
0110
,
0001
0000
0001
0000
0010
0000
0000
0100
0000
0000
1000
0000
0010
0000
0100
0000
,
0001
1001
0001
0101
,
1000
0000
1000
0000
0010
0000
0000
0100
0000
0000
0001
0000
0010
0000
0100
0000
,
1000
0000
0000
0000
;

//---------------dance-double - ----------------
#NOTES:
     dance-double:
     :
     Beginner:
     1:
     :
00000000
00000000
00000000
00000000
,
00000000
00000000
00000000
00000000
,
00000000
00000000
00000000
00000000
,
00000000
00000000
00000000
00000000
,
00000000
00000000
00000000
00000000
,
00100000
00000000
00000000
00000000
,
01000000
00000000
00000000
00000000
,
00100000
00000000
00000000
00000000
,
01000000
00000000
00000000
00000000
,
00001000
00000000
00001000
00000000
,
00001000
00000000
00000000
00000000
,
00010000
00000000
00010000
00000000
,
00010000
00000000
00000000
00000000
,
00000100
00000000
00000000
00000000
,
00000100
00000000
00000000
00000000
,
00000010
00000000
00000000
00000000
,
00000010
00000000
00000000
00000000
,
00000001
00000001
00000000
00000000
,
00001000
00001000
00000000
00000000
,
00000001
00000001
00000000
00000000
,
00001000
00001000
00000000
00000000
,
00000100
00000000
00000000
00000000
,
00000100
00000000
00000000
00000000
,
00010000
00000000
00000000
00000000
,
00010000
00000000
00000000
00000000
,
00001000
00000000
00000000
00000000
,
00001000
00000000
00000000
00000000
,
00010000
00000000
00000000
00000000
,
00010000
00000000
00000000
00000000
,
00200000
00000000
00000000
00300000
,
00100000
00000000
00000000
00000000
,
02000000
00000000
00000000
03000000
,
01000000
00000000
00000000
00000000
,
00200000
00000000
00000000
00300000
,
00100000
00000000
00000000
00000000
,
02000000
00000000
00000000
03000000
,
01000000
00000000
00000000
00000000
,
00010000
00010000
00000000
00000000
,
10000000
10000000
00000000
00000000
,
01000000
01000000
00000000
00000000
,
00010000
00010000
00000000
00000000
,
00001000
00001000
00000000
00000000
,
00010000
00010000
00000000
00000000
,
00001000
00001000
00000000
00000000
,
00010000
00010000
00000000
00000000
,
00000010
00000000
00000000
00000000
,
00000100
00000000
00000000
00000000
,
00000001
00000000
00000000
00000000
,
00001000
00000000
00000000
00000000
,
00000001
00000001
00000000
00000000
,
00000100
00000100
00000000
00000000
,
00001000
00001000
00000000
00000000
,
00010000
00010000
00000000
00000000
,
00001000
00000000
00000000
00000000
,
00100000
00000000
00000000
00000000
,
00010000
00000000
00000000
00000000
,
00100000
00000000
00000000
00000000
,
00010000
00010000
00000000
00000000
,
10000000
10000000
00000000
00000000
,
01000000
01000000
00000000
00000000
,
00100000
00100000
00000000
00000000
,
10010000
00000000
00000000
00000000
;

//---------------dance-double - ----------------
#NOTES:
     dance-double:
     :
     Easy:
     4:
     :
00000000
00000000
00000000
00000000
,
00000000
00000000
00000000
00000000
,
00000000
00000000
00000000
00000000
,
00000000
00000000
00000000
00000000
,
00000000
00000000
00000000
00000000
,
00000001
00000100
00000010
00000000
,
00010000
00001000
00010000
00000000
,
00001000
00010000
00001000
00000000
,
00100000
01000000
10000000
00000000
,
00100000
00010000
00001000
00000000
,
00000010
00001000
00010000
00000000
,
01000000
00010000
00001000
00000000
,
00000100
00001000
00010000
00000000
,
00200000
00000000
00300000
00000000
,
10000000
00010000
10000000
00010000
,
02000000
00000000
03000000
00000000
,
00001000
00010000
00001000
00010000
,
00000200
00000000
00000300
00000000
,
00010000
00001000
00010000
00001000
,
00000020
00000000
00000030
00000000
,
00000001
00001000
00000001
00001000
,
00000001
00000000
00000100
00000000
,
00001000
00000000
00011000
00000000
,
00010000
00000000
01000000
00000000
,
10000000
00000000
10010000
00000000
,
10000000
00000000
01000000
00000000
,
00010000
00000000
00011000
00000000
,
00001000
00000000
00000100
00000000
,
00000001
00000000
00001001
00000000
,
00000110
00000000
00000000
00000000
,
00001001
00000000
00000000
00000000
,
00000001
00000000
00000001
00000000
,
00000100
00000000
00000100
00000000
,
00001000
00010000
00001000
00010000
,
01000000
00000000
01000000
00000000
,
10000000
01000000
00100000
00010000
,
01000000
00000000
01000000
00000000
,
00001000
00010000
00001000
00010000
,
00000100
00000000
00000100
00000000
,
00001000
00000100
00000010
00000001
,
00000100
00000000
00000100
00000000
,
00000001
00000010
00001000
00010000
,
00001000
00000000
00010000
00000000
,
00001000
00010000
00100000
10000000
,
10010000
00000000
00000000
00000000
,
02000000
00000000
03000000
00000000
,
00010000
00010000
00001000
00001000
,
00000200
00000000
00000300
00000000
,
00000001
00000001
00001000
00001000
,
00000020
00000000
00000030
00000000
,
00010000
00010000
00001000
00001000
,
00200000
00000000
00300000
00000000
,
00010000
00010000
10000000
10000000
,
00100000
00000000
00100000
00000000
,
10000000
01000000
10000000
01000000
,
00010000
00000000
00010000
00000000
,
00001000
00000010
00001000
00000010
,
00000001
00000000
00000001
00000000
,
00000100
00001000
00000100
00001000
,
00010000
00000000
00010000
00000000
,
00100000
10000000
00100000
10000000
,
01000000
00000000
00000000
00000000
;

//---------------dance-double - ----------------
#NOTES:
     dance-double:
     :
     Medium:
     5:
     :
00000000
00000000
00000000
00000000
,
00000000
00000000
00000000
00000000
,
00000000
00000000
00000000
00000000
,
00000000
00000000
00000000
00000000
,
00000000
00000000
00000000
00000000
,
00000001
00001000
00000001
00001000
,
00000100
00001000
00010000
01000000
,
10000000
00010000
10000000
00010000
,
00100000
00001000
00010000
00010000
,
00100000
10000000
01000000
00010000
,
00001000
00000010
00000001
00000100
,
00001000
00010000
00100000
10000000
,
01000000
00010000
00001000
00001000
,
00020000
00030100
00000200
00000310
,
00000001
00000100
00000002
00000000
00001000
00001000
00001003
00000000
,
00000020
00001030
00002000
00013000
,
00100000
10000000
00200000
00000000
10000000
10000000
10300000
00000000
,
02000000
13000000
20000000
30100000
,
00010000
00001000
00020000
00000000
01000000
01000000
01030000
00000000
,
20000000
30100000
00200000
00310000
,
00001000
00010000
00002000
00000000
00000010
00000010
00003010
00000000
,
00000000
00000001
00000000
00000010
00000000
00000100
00000000
00000001
,
00000000
00000100
00000000
00001000
00000000
00000010
00000000
00010000
,
00000000
00001000
00000000
00100000
00000000
01000000
00000000
10000000
,
00000000
00100000
00000000
01000000
00000000
10000000
00000000
01000000
,
00000000
00010000
00000000
00100000
00000000
00001000
00000000
01000000
,
00000000
00010000
00000000
00100000
00000000
00001000
00000000
00010000
,
00000000
00000010
00000000
00000100
00000000
00000001
00000000
00000100
,
00001000
00001000
00001000
00000000
00010000
00010000
00010000
00000000
,
01000000
10000000
00100000
10010000
,
00000000
00001000
00010000
00011000
,
00000100
00010000
00001000
00011000
,
00000100
00000001
00000010
00001001
,
00000100
00010000
00000010
00010010
,
00010000
00001000
00100000
00101000
,
00001000
00010000
00001000
01001000
,
01000000
00100000
00010000
00011000
,
00001000
00000100
00000001
00000010
,
00000100
00010000
00001000
00011000
,
00010000
00001000
01000000
00100000
,
10000000
01000000
00010000
00011000
,
00001000
00000100
00000001
00000100
,
00000010
00000001
00000100
00000110
,
00000010
00001000
00000100
00010000
,
00022000
00000000
00000000
00033000
,
00020000
00030010
00000020
00000130
,
00000001
00000010
00000002
00000000
00001000
00001000
00001003
00000000
,
00000200
00001300
00002000
00013000
,
01000000
10000000
02000000
00000000
10000000
10000000
13000000
00000000
,
00200000
10300000
20000000
31000000
,
00010000
00001000
00020000
00000000
00100000
00100000
00130000
00000000
,
20000000
31000000
02000000
03010000
,
00001000
00010000
00002000
00000000
00000100
00000100
00003100
00000000
,
00000000
00000001
00000000
00000100
00000000
00000010
00000000
00000001
,
00000000
00000010
00000000
00001000
00000000
00000100
00000000
00010000
,
00000000
00001000
00000000
01000000
00000000
00100000
00000000
10000000
,
00000000
01000000
00000000
00100000
00000000
10000000
00000000
00100000
,
00000000
00010000
00000000
01000000
00000000
00001000
00000000
00100000
,
00000000
00010000
00000000
01000000
00000000
00001000
00000000
00010000
,
00000000
00000100
00000000
00000010
00000000
00000001
00000000
00000010
,
00001000
00001000
00001000
00000000
00010000
00010000
00010000
00000000
,
10010000
00000000
00000000
00000000
;

//---------------dance-double - ----------------
#NOTES:
     dance-double:
     :
     Hard:
     8:
     :
00000000
00000000
00000000
00000000
,
00000000
00000000
00000000
00000000
,
00000000
00000000
00000000
00000000
,
00000000
00000000
00000000
00000000
,
00000000
00000000
00000000
00000000
,
00000001
00000100
00000001
00000100
,
00000001
00000010
00001000
00000000
00000001
00000100
00001000
00000000
,
00000010
00010000
00000010
00010000
,
00001000
00010000
01000000
00000000
00010000
00001000
00000100
00000000
,
00001000
00100000
00001000
00100000
,
00010000
00100000
10000000
00000000
00010000
01000000
10000000
00000000
,
00100000
01000000
00100000
01000000
,
00100000
10000000
01000000
00000000
00100000
00010000
01000000
10000000
,
01000000
01000000
01000000
01000000
,
00010000
00000000
10000000
00000000
01000000
00000000
00000000
10000000
00000000
00000000
00100000
00000000
00010000
00000000
00001000
00000000
,
01000000
01000000
01000000
01000000
,
00100000
00000000
00010000
00000000
00001000
00000000
00000000
00100000
00000000
00000000
00001000
00000000
00010000
00000000
00000010
00000000
,
00000100
00000100
00000100
00000100
,
00000001
00000000
00000010
00000000
00001000
00000000
00000000
00010000
00000000
00000000
00000100
00000000
00000010
00000000
00000001
00000000
,
00001000
00001000
00001000
00001000
,
00000100
00000000
00010000
00000000
00001000
00000000
00000000
00010000
00000000
00000000
01000000
00000000
10000000
00000000
00100000
00000000
,
00010000
00000000
00000000
00010000
00001000
00000000
00000000
00001000
01000000
00000000
00000000
00000000
10010000
00000000
00000000
00000000
,
00100000
00000000
00000000
00100000
10000000
00000000
00000000
10000000
01000000
00000000
00000000
00000000
00101000
00000000
00000000
00000000
,
00010000
00000000
00000000
00010000
01000000
00000000
00000000
01000000
00001000
00000000
00000000
00000000
00010100
00000000
00000000
00000000
,
00000010
00000000
00000000
00000010
00000001
00000000
00000000
00000001
00000100
00000000
00000000
00000000
00010010
00000000
00010000
00000000
,
00001000
00001000
00001000
00001000
,
00010000
00000000
01000000
00000000
10000000
00000000
00000000
00100000
00000000
00000000
01000000
00000000
00001000
00000000
01000000
00000000
,
00010000
00010000
00010000
00010000
,
10000000
00000000
01000000
00000000
00100000
00000000
00000000
00001000
00000000
00000000
00010000
00000000
01000000
00000000
10000000
00000000
,
00010000
00100000
01000000
10000000
,
00020000
01000000
00001000
01030000
,
00001000
00000100
00000001
00000010
,
00002000
00000000
00010000
00000000
00000100
00000000
00013000
00001000
,
00000100
00000001
00000010
00000100
,
00020000
00000000
00001000
00000000
00100000
00000000
00031000
00010000
,
00100000
10000000
01000000
00010000
,
00002000
00000010
00010000
00003010
,
00000001
00000100
00000001
00000010
00000100
00010000
00001000
00000100
,
00000010
00010000
00001000
00100000
01000000
10000000
01000000
00000000
,
00100000
00010000
01000000
10000000
01000000
00010000
00100000
10000000
,
00100000
00001000
00010000
00001000
01000000
00001000
00010000
00000000
,
00000010
00010000
00001000
00010000
00000100
00000010
00000001
00000010
,
00000100
00010000
00001000
01000000
00100000
00010000
00001000
00000000
,
00010000
01000000
00100000
00010000
10000000
00100000
10000000
00010000
,
20020000
00000000
00000000
30030000
,
00100000
00100000
00100000
00100000
,
00010000
00000000
10000000
00000000
00100000
00000000
00000000
10000000
00000000
00000000
01000000
00000000
00010000
00000000
00001000
00000000
,
00100000
00100000
00100000
00100000
,
01000000
00000000
00010000
00000000
00001000
00000000
00000000
01000000
00000000
00000000
00001000
00000000
00010000
00000000
00000100
00000000
,
00000010
00000010
00000010
00000010
,
00000001
00000000
00000100
00000000
00001000
00000000
00000000
00010000
00000000
00000000
00000010
00000000
00000100
00000000
00000001
00000000
,
00001000
00001000
00001000
00001000
,
00000010
00000000
00010000
00000000
00001000
00000000
00000000
00010000
00000000
00000000
00100000
00000000
10000000
00000000
01000000
00000000
,
00010000
00000000
00000000
00010000
00001000
00000000
00000000
00001000
00100000
00000000
00000000
00000000
10010000
00000000
00000000
00000000
,
01000000
00000000
00000000
01000000
10000000
00000000
00000000
10000000
00100000
00000000
00000000
00000000
01001000
00000000
00000000
00000000
,
00010000
00000000
00000000
00010000
00100000
00000000
00000000
00100000
00001000
00000000
00000000
00000000
00010010
00000000
00000000
00000000
,
00000100
00000000
00000000
00000100
00000001
00000000
00000000
00000001
00000010
00000000
00000000
00000000
00010100
00000000
00010000
00000000
,
00001000
00001000
00001000
00001000
,
00010000
00000000
00100000
00000000
10000000
00000000
00000000
01000000
00000000
00000000
00100000
00000000
00001000
00000000
00100000
00000000
,
00010000
00010000
00010000
00010000
,
10000000
00000000
00100000
00000000
01000000
00000000
00000000
00001000
00000000
00000000
00010000
00000000
00100000
00000000
10000000
00000000
,
01000000
00000000
00000000
00000000
;
