#TITLE:Yours To Command;
#ARTIST:Rupesh Cartel;
#BANNER:Yours To Command.png;
#BACKGROUND:Yours To Command-bg.png;
#CDTITLE:./CDTITLES/Dance Dance Revolution ULTRAMIX4.png;
#MUSIC:Yours To Command.ogg;
#SAMPLESTART:11.667;
#SAMPLELENGTH:15;
#BPMS:0=103,20=206,148=103,180=206;

//---------------dance-single - ----------------
#NOTES:
     dance-single:
     :
     Beginner:
     2:
     :
0000
0000
0000
0000
,
0000
0000
0000
0000
,
0000
0000
0000
0000
,
0000
0000
0000
0000
,
1000
0000
0001
0001
,
1000
0000
0000
0000
,
0010
0000
0000
0000
,
0100
0000
0000
0000
,
0001
0000
0000
0000
,
1000
0000
0000
0000
,
1000
0000
0000
0000
,
0010
0000
0000
0000
,
1000
0000
0000
0000
,
0001
0000
0000
0000
,
0100
0000
0000
0000
,
0010
0000
0000
0000
,
1000
0000
0000
0000
,
0100
0000
0000
0000
,
0010
0000
0000
0000
,
0001
0000
0000
0000
,
0001
0000
0001
0000
,
0002
0000
0000
0003
,
0000
0000
0000
0000
,
1000
0000
0000
0000
,
0100
0000
0000
0000
,
0010
0000
0010
0000
,
0010
0000
0020
0000
,
0000
0000
0000
0030
,
0000
0000
0000
0000
,
0001
0000
0000
0000
,
0001
0000
0000
0000
,
0010
0000
0010
0000
,
0010
0000
0020
0000
,
0000
0000
0000
0030
,
0000
0000
0000
0000
,
0100
0000
0000
0000
,
0100
0000
0000
0000
,
1000
0000
1000
0000
,
0001
0001
0001
0000
,
0010
0000
0010
0000
,
0001
0001
0001
0000
,
0001
0000
1000
0000
,
0100
0100
0100
0000
,
1000
0000
0010
0000
,
0100
0100
0100
0000
,
0100
0000
0000
0000
,
0010
0000
0000
0000
,
0100
0000
0000
0000
,
0001
0000
0000
0000
,
1000
0000
1000
0000
,
1000
0000
2000
0000
,
0000
0000
0000
3000
,
0000
0000
0000
0000
,
0010
0000
0000
0000
,
0100
0000
0000
0000
,
0001
0000
0000
0000
,
0001
0000
0000
0000
,
0100
0000
0100
0000
,
0100
0000
0200
0000
,
0000
0000
0000
0300
,
0000
0000
0000
0000
,
0010
0000
0000
0000
,
0010
0000
0000
0000
,
1000
0000
1000
0000
,
1000
0000
2000
0000
,
0000
0000
0000
3000
,
0000
0000
1000
0000
,
0001
0000
0001
0000
,
0001
0000
0002
0000
,
0000
0000
0000
0000
,
0000
0000
0003
0000
;

//---------------dance-single - ----------------
#NOTES:
     dance-single:
     :
     Easy:
     3:
     :
0000
0000
0000
0000
,
0000
0000
0000
0000
,
0000
0000
0000
0000
,
0000
0000
0000
0000
,
1000
0001
0001
0001
,
1000
0000
1000
0000
,
0010
0000
0100
0000
,
0001
0000
0100
0000
,
0001
0000
0001
0000
,
1000
0000
1000
0000
,
0001
0000
0010
0000
,
0001
0000
1000
0000
,
0100
0000
0010
0000
,
0100
0000
0100
0000
,
1000
0000
0010
0000
,
0100
0000
0100
0000
,
0100
0000
0001
0000
,
1000
0000
0100
0100
,
0100
0000
1000
0000
,
0001
0001
0001
0000
,
0100
0000
0010
0000
,
0100
0000
0001
0000
,
1000
0000
0010
0000
,
0000
1000
0000
0010
,
0000
0100
0000
0010
,
0100
0000
0001
0000
,
1000
0000
0100
0020
,
0000
0000
0000
0000
,
0000
0000
0030
0000
,
0000
1000
0000
0001
,
0000
0100
0000
0010
,
1000
0000
0001
0000
,
0100
0000
0001
2000
,
0000
0000
0000
0000
,
3000
0000
0000
0000
,
1000
0000
0100
0000
,
0010
0001
0010
0000
,
0001
1000
0010
0000
,
1000
0100
0100
0000
,
1000
0010
0100
0000
,
0100
0001
1000
0000
,
0001
1000
0010
0000
,
1000
0010
1000
0001
,
0100
0001
0001
0000
,
1000
0010
0100
0000
,
0001
1000
0001
1000
,
0000
0001
0000
0001
,
0000
0010
0000
0100
,
0000
1000
0000
0010
,
0010
0000
0100
0000
,
0001
0000
1000
0020
,
0000
0000
0000
0000
,
0030
0000
0000
0000
,
0000
1000
0000
0001
,
0000
0100
0000
0001
,
0000
0010
0000
0100
,
0000
1000
1000
1000
,
0001
0000
0100
0000
,
0010
0000
1000
0200
,
0000
0000
0000
0000
,
0300
0000
0000
0000
,
0010
0000
0001
0000
,
0000
1000
0000
0010
,
0100
0000
0010
0000
,
0001
0000
1000
0020
,
0000
0000
0000
0000
,
0030
0000
0000
0000
,
0000
0100
0000
0001
,
0000
1000
0001
2000
,
0000
0000
0000
0000
,
0000
0000
3000
0000
;

//---------------dance-single - ----------------
#NOTES:
     dance-single:
     :
     Medium:
     5:
     :
0000
0000
0000
0000
,
0000
0000
0000
0000
,
0000
0000
0000
0000
,
0000
0000
0000
0000
,
0010
0000
0100
0000
0010
0010
0010
0010
,
1000
0100
1000
0010
,
0200
0000
0302
0000
,
1003
0001
1000
0000
,
1100
0000
0101
0000
,
0001
1000
0010
0100
,
0002
0000
1003
0000
,
1001
0000
0011
0000
,
1000
0020
1000
0130
,
1000
0100
0010
0001
,
0020
0000
0230
0000
,
1300
0001
1000
0000
,
1001
0000
0110
0000
,
0001
0100
0010
1000
,
0100
1000
0001
0100
,
0010
1000
0001
0010
,
0002
0000
2000
3003
,
0220
0000
0000
0000
,
0330
0000
0000
0000
,
1000
1000
0100
0020
,
0000
0001
0000
0031
,
0011
0000
0001
0000
,
0100
0000
0010
2000
,
0000
0000
0000
3000
,
0010
0000
0010
0000
1000
0001
1000
0000
,
0001
0100
0010
0100
,
0001
1000
0100
0000
,
1100
0000
0010
0000
,
0001
0000
2000
0020
,
0000
0000
0000
0000
,
0000
0000
0000
3030
,
0100
0100
0100
0001
,
0000
1000
0000
0000
,
1001
1000
1000
0001
,
0202
0000
0000
0303
,
0101
0001
0001
0010
,
0220
0000
0000
0330
,
0110
0010
0100
0000
0100
0000
1000
0000
,
2200
0000
0000
3300
,
1100
1000
0100
0000
0100
0000
0010
0000
,
0020
0000
0000
0031
,
0001
0010
0001
0000
1000
0100
1000
0000
,
0100
0100
0010
0010
,
0001
0001
0100
0020
,
0000
1000
0000
1030
,
1010
0000
0100
0000
,
0001
0000
1000
0200
,
0000
0000
0000
0300
,
0010
0000
0010
0000
0001
1000
0100
0000
,
0010
0000
0010
0000
0100
1000
0001
0000
,
0100
0100
0010
0000
,
0100
0100
0010
2000
,
0000
0001
0000
3001
,
1001
0000
0001
0000
,
0100
0000
0010
2000
,
0000
0000
0000
3000
,
0001
0100
0010
1000
,
0001
0100
0010
1000
,
0010
1000
0010
0000
,
0110
0000
0100
0000
,
0010
0000
1000
0002
,
0000
0000
0000
0000
,
0000
0000
0003
0000
,
1001
0000
0100
0000
,
0010
0000
0100
0002
,
0000
0000
0000
0000
,
0000
0000
0003
0000
;

//---------------dance-single - ----------------
#NOTES:
     dance-single:
     :
     Hard:
     8:
     :
0000
0000
0000
0000
,
0000
0000
0000
0000
,
0000
0000
0000
0000
,
0000
0000
0000
0000
,
1000
0000
0001
0000
0100
0100
0010
1000
,
1000
0100
0010
0001
1000
0100
0001
0100
,
1000
0000
0001
0000
0100
0010
0100
0000
,
0010
0100
0010
0000
1010
0000
0101
0000
,
0001
1000
0010
1000
,
0100
0000
0000
0000
0010
0001
0100
0000
,
0001
0010
0100
0000
1000
0000
0010
0000
,
1000
0000
0001
1000
0000
0000
0100
0000
,
0010
0001
1000
0010
,
1000
0100
0010
0100
0010
0001
1000
0010
,
1000
0000
0011
0000
1000
0001
1000
0000
,
0001
1000
0001
0000
1001
0000
1001
0000
,
0100
0010
1000
0100
,
0010
0000
0000
0000
0001
1000
0001
0000
,
1000
0001
1000
0000
0001
0000
0100
0010
,
0000
1000
0010
1000
,
0002
0000
0203
0000
,
0320
0000
0000
0000
,
1000
0100
1000
0130
,
0010
1000
0100
1000
0001
0100
0010
0000
,
1000
0100
0010
0001
,
1100
0011
1000
0001
,
1000
0001
1100
0022
,
0000
0000
0000
0000
,
0000
0000
0033
0000
,
0001
0010
0001
0100
0001
0010
0001
1000
,
0100
1000
0100
0010
0100
1000
0001
0000
,
0101
1010
0001
1000
,
0001
1000
0101
2020
,
0000
0000
0000
0000
,
0000
0000
0000
3030
,
1000
0000
0100
0000
0010
0000
0100
0100
,
0000
0010
0000
0001
,
0002
0000
1003
0000
0100
0010
0001
2000
,
0000
0000
0000
3000
,
0100
0000
1000
0000
0001
0000
0000
0100
0001
0000
1000
0000
0000
0000
0002
0000
,
0000
0000
0000
0003
,
1000
0100
1000
0010
0100
0001
1000
0002
,
0000
0000
0000
0003
,
1000
0001
0100
0010
1000
0100
1000
0020
,
0000
0000
0000
0030
,
1000
0100
0010
0001
0010
0100
0010
0001
,
1000
0001
0100
0010
1000
0001
1000
0000
,
0001
1000
0100
0000
1000
0001
0100
0000
,
0001
0010
0100
0000
0001
0010
0100
0000
,
1100
0011
1000
0001
,
1000
0001
1100
0022
,
0000
0000
0000
0000
,
0000
0000
0033
0000
,
0001
0100
0010
1000
0001
0100
0010
1000
,
0001
1000
0100
1000
0100
0010
0001
0000
,
1000
0010
1000
0000
0001
0010
0001
0000
,
0010
1000
0100
0000
0010
0001
0100
0000
,
0101
1010
0001
1000
,
0001
1000
0101
2020
,
0000
0000
0000
0000
,
0000
0000
3030
0000
,
1000
0100
0010
0000
1000
0100
0010
0000
,
1000
0100
0010
0000
1000
0100
0010
0000
,
1100
0011
1000
0001
,
1000
0001
1100
0022
,
0000
0000
0000
0000
0000
0033
0000
0000
,
0001
0100
0010
0000
0001
0100
0010
0000
,
0101
1010
0001
1000
,
0001
1000
0101
2020
,
0000
0000
0000
0000
,
0000
0000
3030
0000
;

//---------------dance-double - ----------------
#NOTES:
     dance-double:
     :
     Beginner:
     2:
     :
00000000
00000000
00000000
00000000
,
00000000
00000000
00000000
00000000
,
00000000
00000000
00000000
00000000
,
00000000
00000000
00000000
00000000
,
00000010
00000000
00010000
00010000
,
00001000
00000000
00000000
00000000
,
00100000
00000000
00000000
00000000
,
01000000
00000000
00000000
00000000
,
00100000
00000000
00000000
00000000
,
10000000
00000000
00000000
00000000
,
00010000
00000000
00000000
00000000
,
01000000
00000000
00000000
00000000
,
00001000
00000000
00000000
00000000
,
00010000
00000000
00000000
00000000
,
00000010
00000000
00000000
00000000
,
00001000
00000000
00000000
00000000
,
00000001
00000000
00000000
00000000
,
00000100
00000000
00000000
00000000
,
00000010
00000000
00000000
00000000
,
00010000
00000000
00000000
00000000
,
00001000
00000000
00010000
00000000
,
00020000
00000000
00000000
00030000
,
00000000
00000000
00000000
00000000
,
00001000
00000000
00000000
00000000
,
01000000
00000000
00000000
00000000
,
00100000
00000000
00100000
00000000
,
00100000
00000000
00200000
00000000
,
00000000
00000000
00000000
00300000
,
00000000
00000000
00000000
00000000
,
10000000
00000000
00000000
00000000
,
00100000
00000000
00000000
00000000
,
01000000
00000000
01000000
00000000
,
01000000
00000000
02000000
00000000
,
00000000
00000000
00000000
03000000
,
00000000
00000000
00000000
00000000
,
00001000
00000000
00000000
00000000
,
00010000
00000000
00000000
00000000
,
00000100
00000000
00000010
00000000
,
00000001
00000001
00000001
00000000
,
00000100
00000000
00000010
00000000
,
00010000
00010000
00010000
00000000
,
00001000
00000000
01000000
00000000
,
00100000
00100000
00100000
00000000
,
10000000
00000000
00010000
00000000
,
01000000
01000000
01000000
00000000
,
00001000
00000000
00000000
00000000
,
00010000
00000000
00000000
00000000
,
00000010
00000000
00000000
00000000
,
00001000
00000000
00000000
00000000
,
00000100
00000000
00000100
00000000
,
00000100
00000000
00000200
00000000
,
00000000
00000000
00000000
00000300
,
00000000
00000000
00000000
00000000
,
00000010
00000000
00000000
00000000
,
00000001
00000000
00000000
00000000
,
00001000
00000000
00000000
00000000
,
00000100
00000000
00000000
00000000
,
00010000
00000000
00010000
00000000
,
00010000
00000000
00020000
00000000
,
00000000
00000000
00000000
00030000
,
00000000
00000000
00000000
00000000
,
00001000
00000000
00000000
00000000
,
00100000
00000000
00000000
00000000
,
00010000
00000000
00010000
00000000
,
00010000
00000000
00020000
00000000
,
00000000
00000000
00000000
00030000
,
00000000
00000000
10000000
00000000
,
00100000
00000000
00100000
00000000
,
00100000
00000000
00200000
00000000
,
00000000
00000000
00000000
00000000
,
00000000
00000000
00300000
00000000
;

//---------------dance-double - ----------------
#NOTES:
     dance-double:
     :
     Easy:
     4:
     :
00000000
00000000
00000000
00000000
,
00000000
00000000
00000000
00000000
,
00000000
00000000
00000000
00000000
,
00000000
00000000
00000000
00000000
,
00100000
00000000
01000000
01100000
,
01000000
00000000
00001000
00000000
,
00010000
00000000
00000010
00000000
,
00000200
00000000
00000000
00000000
,
00000310
00000000
00001000
00000000
,
00001001
00000000
00000100
00000000
,
00010000
00000000
00001000
00000000
,
01000000
00000000
00100000
00000000
,
02100000
00000000
00000000
00000000
,
03100000
00100000
10000000
00000000
,
01000000
00000000
00010000
00000000
,
00002000
00000000
00003000
00000000
,
00000020
00000000
00000030
00000000
,
00000001
00000001
00001000
00000000
,
00000010
00000010
00000100
00000000
,
00001000
00000000
00010000
00000000
,
00100000
00000000
10000000
00000000
,
20020000
00000000
00000000
30030000
,
00000000
00000000
00000000
00000000
,
20000000
00000000
30020000
00000000
,
10030000
01000000
00100000
00000000
,
00001000
00000000
00010000
00000000
,
00000100
00000000
00002000
00000000
,
00000000
00000000
00000000
00003000
,
00000000
00000000
00000000
00000000
,
00000100
00000100
00001000
00000000
,
00000010
00000010
00000001
00000000
,
00000010
00000000
00000100
00000000
,
00010000
00000000
02000000
00000000
,
00000000
00000000
00000000
03000000
,
00000000
00000000
00000000
00000000
,
00200000
00000000
00000000
00000000
,
00000000
00000000
10300000
00000000
,
10010000
10000000
00000000
00020000
,
00000000
00000000
00000000
00030000
00000000
00000000
00000000
00000000
,
00010000
01000000
00000000
00002000
,
00000000
00000000
00000000
00003000
00000000
00000000
00000000
00000000
,
00011000
00000100
00001000
00000020
,
00000000
00000000
00000000
00000030
00000000
00000000
00000000
00000000
,
00000010
00000100
00000002
00000000
,
00000000
00000000
00000000
00000003
00000000
00000000
00001001
00000000
,
00001000
00001000
00000100
00000000
,
00010000
00000000
00001000
00000000
,
01000000
00000000
00010000
00000000
,
10000000
10000000
10000000
00000000
,
10010000
00000000
10000000
00000000
,
01000000
00000000
00200000
00000000
,
00000000
00000000
00000000
00300000
,
00000000
00000000
00000000
00000000
,
00001000
00001000
00010000
00000000
,
00000100
00000000
00000010
00000000
,
00000001
00000000
00000010
00000000
,
00000100
00000100
00000100
00000000
,
00000110
00000000
00010000
00000000
,
00001000
00000000
00200000
00000000
,
00000000
00000000
00000000
00300000
,
00000000
00000000
00000000
00000000
,
00010000
00000000
10000000
00000000
,
00010000
00000000
00100000
00000000
,
00011000
00000000
00001000
00000000
,
00010000
00000000
00000200
00000000
,
00000000
00000000
00000000
00000300
,
00000000
00000000
00000000
00000000
,
00000110
00000000
00000001
00000000
,
00000010
00000000
00000200
00000000
,
00000000
00000000
00000000
00000000
,
00000000
00000000
00000300
00000000
;

//---------------dance-double - ----------------
#NOTES:
     dance-double:
     :
     Medium:
     6:
     :
00000000
00000000
00000000
00000000
,
00000000
00000000
00000000
00000000
,
00000000
00000000
00000000
00000000
,
00000000
00000000
00000000
00000000
,
00000001
00000000
00001000
00000000
00000100
00000000
00001000
00000010
,
00000100
00001000
00010000
00200000
,
00000000
01000000
01300000
00000000
,
00010000
10000000
01000000
00200000
,
00000000
00301000
00000000
00020000
,
00030010
00000000
00000100
00000100
,
00000001
00000100
00001000
00000000
,
00010000
00100000
10000000
00000000
,
10000000
01000000
00100000
00010000
,
00001000
00000100
00000010
00000001
,
00000100
00000100
00000010
00000000
,
00010000
00010000
00001000
00000000
,
00011000
00000000
00110000
00000000
,
00010000
00010000
10000000
01000000
,
00200000
00000000
00301000
00010000
,
00000200
00000000
00001300
00000010
,
00000110
00000000
00000101
00000000
,
00000001
00001000
00000100
00010000
,
00001000
00100000
00010000
00100000
,
00020000
00000000
20030000
00000000
,
31000000
00100000
00001000
00000000
,
00011000
00000000
00001100
00000000
,
00000020
00000000
00000001
00000032
,
00000000
00000000
00000000
00000003
,
00000000
00000000
00000000
00000000
,
00000001
00000100
00000010
00001000
,
00010000
01000000
00100000
00000000
,
01100000
00000000
10100000
00000000
,
20000000
00000000
01000000
32000000
,
00000000
00000000
00000000
00000000
,
00000000
00000000
03000000
00000000
,
00100000
00010000
00100000
00002000
,
00000000
00013000
00000000
00000100
,
00001000
00000001
00000100
00000010
,
00002020
00000000
00000000
00003030
00000000
00000000
00000000
00000000
,
00000100
00010000
00001000
00100000
,
00220000
00000000
00000000
00330000
00000000
00000000
00000000
00000000
,
01010000
01000000
00100000
00000000
10000000
00000000
00010000
00000000
,
00220000
00000000
00000000
00330000
00000000
00000000
00000000
00000000
,
00110000
00100000
00001000
00000000
00010000
00000000
00000100
00000000
,
00000220
00000000
00000000
00000330
00000000
00000000
00000000
00000000
,
00000010
00000001
00000100
00000020
,
00000000
00010030
00001000
00200000
,
00000000
00310000
01000000
10000000
,
01000000
00010000
00100000
00001000
,
00011000
00000000
00010000
00000000
,
00000200
00000000
00001000
00002300
,
00000000
00000000
00000000
00003000
,
00000000
00000000
00000000
00000000
,
00000100
00000010
00000001
00001000
,
00000010
00010000
00100000
10000000
,
02000000
00000000
13000000
01000000
,
10000000
00100000
00010000
00000000
,
01100000
00000000
00011000
00000000
,
00020000
00000000
00000100
00030200
,
00000000
00000000
00000000
00000300
,
00000000
00000000
00000000
00000000
,
00000010
00000001
00000100
00001000
,
00010000
00001000
00010000
00100000
,
01100000
00000000
01001000
00000000
,
00020000
00000000
00000010
00030020
,
00000000
00000000
00000000
00000030
,
00000000
00000000
00000000
00000000
,
00001010
00000000
00000110
00000000
,
00000002
00000000
00001000
00002000
,
00000000
00000000
00000000
00000000
,
00000000
00000000
00003003
00000000
;

//---------------dance-double - ----------------
#NOTES:
     dance-double:
     :
     Hard:
     8:
     :
00000000
00000000
00000000
00000000
,
00000000
00000000
00000000
00000000
,
00000000
00000000
00000000
00000000
,
00000000
00000000
00000000
00000000
,
10000000
00000000
00010000
00000000
00100000
00100000
00001000
00010000
,
00001000
00010000
00000100
00000000
00001000
00000100
00000010
00000000
,
00000001
00000100
00001000
00000000
00000100
00010000
01000000
00000000
,
00100000
10000000
01000000
00100000
,
00001000
00010000
00000010
00000100
,
00000001
00000010
00000100
00000000
00000010
00000100
00001000
00000000
,
00000010
00010000
00001000
00000000
01000000
00010000
10000000
00000000
,
01010000
00001000
00011000
00010000
,
00010010
00000010
00000110
00000100
,
00001001
00000000
00000001
00000100
00001000
00010000
00100000
00000000
,
01000000
00100000
10000000
00000000
00010000
10000000
01000000
00000000
,
10000000
01000000
00010000
00001000
,
00000010
00000001
00001010
00000101
,
00002001
00000010
00000001
00003010
,
00001000
00000100
00010000
00000000
00001000
00100000
00010000
00000000
,
00110000
00000000
10100000
00000000
10000000
01000000
00100000
00000000
,
00020000
00000000
00032000
00000000
,
00003200
00000000
00000000
00000000
,
00000010
00000010
00000010
00000310
,
00000011
00000000
00001100
00000000
,
00011000
00001000
00110000
00000000
,
10010000
00100000
00101000
00001000
,
00011000
00000100
00011000
00220000
,
00000000
00000000
00000000
00330000
,
00000000
00000000
00000000
00000000
,
10000000
01000000
00010000
00000000
00001000
00000010
00000002
00000000
,
00000100
00000100
00000100
00000103
,
00000101
00001000
00001100
00010000
,
00011000
00100000
00011000
00002020
,
00000000
00000000
00000000
00003030
,
00000000
00000000
00000000
00000000
,
00001000
00000000
00000001
00000000
00001000
00000000
00000001
00000200
,
00000000
00000020
00000000
00000330
,
00000001
00000100
00000010
00000000
00000000
00001010
00000000
00202000
,
00000000
00000000
00000000
00303000
,
00010000
01000000
00100000
00000000
00000000
01100000
00000000
20200000
,
00000000
00000000
00000000
30300000
,
10000000
00010000
01000000
00001000
00010000
00000010
00001000
00000002
,
00000000
00000000
00000000
00000003
,
00000001
00000100
00000010
00010000
00001000
00010000
00000100
00000010
,
00000000
00000000
00000000
00000000
00000001
00001000
00000100
00000010
,
00000001
00000100
00001000
00000000
00010000
01000000
10000000
00000000
,
00100000
10000000
01000000
00000000
00100000
00010000
01000000
00000000
,
01010000
00000000
00011000
00000000
,
00001100
00001000
00000011
00000000
,
00000001
00000100
00001000
00010000
,
00000010
00000100
00000001
00002020
,
00000000
00000000
00000000
00003030
,
00000000
00000000
00000000
00000000
,
00000001
00000010
00000100
00001000
00000010
00010000
00001000
00000000
,
00010000
00001000
00100000
01000000
10000000
00010000
01000000
00000000
,
01010000
00000000
00011000
00000000
,
00001100
00001000
00000110
00000000
,
00000001
00000100
00001000
00010000
,
00001000
00000100
00000010
00002002
,
00000000
00000000
00000000
00003003
,
00000000
00000000
00000000
00000000
,
00000100
00000100
00010000
00000000
00001000
00001000
00100000
00000000
,
00010000
00010000
10000000
00000000
00100000
00100000
01000000
00000000
,
10000000
11000000
00010000
00110000
,
00011000
00010000
00001010
00000022
,
00000000
00000000
00000000
00000033
,
00000000
00000000
00000000
00000000
,
00000001
00000011
00001000
00001010
,
00011000
00001000
00110000
20200000
,
00000000
00000000
00000000
00000000
,
00000000
00000000
30300000
00000000
;
