#TITLE:Thrill Chaser;
#ARTIST:DIRTYHERTZ;
#BANNER:Thrill Chaser.png;
#BACKGROUND:Thrill Chaser-bg.png;
#CDTITLE:./CDTITLES/Dance Dance Revolution ULTRAMIX4.png;
#MUSIC:Thrill Chaser.ogg;
#SAMPLESTART:29.168;
#SAMPLELENGTH:15;
#DISPLAYBPM:140;
#BPMS:0=140,4=139.942,20=139.265,28=140.9,36=139.175,48=139.806,64=143.426,68=138.996,84=139.942,100=139.535,116=139.4,132=139.942,148=139.535,156=140.078,164=139.806,180=139.535,196=139.806,228=139.896,240=140.334;

//---------------dance-single - ----------------
#NOTES:
     dance-single:
     :
     Beginner:
     1:
     :
0000
0000
0000
0000
,
0000
0000
0000
0000
,
0000
0000
0000
0000
,
0000
0000
0000
0000
,
0000
0000
0000
0000
,
1001
0000
0000
0000
,
0001
0000
0000
0000
,
1000
0000
0000
0000
,
0001
0000
0000
0000
,
1001
0000
0000
0000
,
0100
0000
0000
0000
,
0100
0000
0000
0000
,
0010
0000
0000
0000
,
1001
0000
0000
0000
,
1000
0000
0000
0000
,
0001
0000
0000
0000
,
1000
0000
0000
0000
,
0100
0000
0100
0000
,
0100
0000
0000
0000
,
0010
0000
0010
0000
,
0010
0000
0000
0000
,
0100
0000
0100
0000
,
0100
0000
0000
0000
,
0010
0000
0010
0000
,
0010
0000
0000
0000
,
1000
0000
0001
0000
,
1000
0000
0000
0000
,
1000
0000
0001
0000
,
1000
0000
0000
0000
,
0100
0000
0100
0000
,
0100
0000
0000
0000
,
0010
0000
0010
0000
,
0010
0000
0000
0000
,
1001
0000
0000
0000
,
0100
0000
0000
0000
,
1001
0000
0000
0000
,
0100
0000
0000
0000
,
0001
0000
0000
0000
,
1000
0000
0000
0000
,
0010
0000
0000
0000
,
0100
0000
0000
0000
,
0001
0000
0001
0000
,
1000
0000
1000
0000
,
0001
0000
0001
0000
,
1000
0000
1000
0000
,
0010
0000
0000
0000
,
0100
0000
0000
0000
,
0010
0000
0000
0000
,
1001
0000
0000
0000
,
1000
0000
0100
0000
,
0100
0000
0000
0000
,
0001
0000
0100
0000
,
0100
0000
0000
0000
,
1000
0000
0001
0000
,
0001
0000
0000
0000
,
0001
0000
1000
0000
,
1000
0000
0000
0000
,
1001
0000
0000
0000
,
0000
0000
0000
0000
,
0110
0000
0000
0000
;

//---------------dance-single - ----------------
#NOTES:
     dance-single:
     :
     Easy:
     3:
     :
0000
0000
0000
0000
,
0000
0000
0000
0000
,
0000
0000
0000
0000
,
0000
0000
0000
0000
,
0000
0000
0000
0000
,
0100
0000
0100
0000
,
0010
0000
0010
0000
,
0001
0000
0001
0000
,
1000
0000
1000
0000
,
1002
0000
0000
0003
,
2000
0000
0000
3000
,
0002
0000
0000
0003
,
0200
0000
0000
0300
,
0020
0000
0000
0030
,
0200
0000
0000
0300
,
0020
0000
0000
0030
,
2000
0000
0000
3000
,
0001
0100
0001
0000
,
1000
0100
1000
0000
,
0010
1000
0010
0000
,
0001
0010
0001
0000
,
1000
0000
1000
0000
,
0001
0000
0001
0000
,
0100
0000
0100
0000
,
0010
0000
0010
0000
,
1000
0000
0100
0000
,
0001
0000
0001
0000
,
0100
0000
0100
0000
,
1000
0000
1000
0000
,
0001
0001
0001
0000
,
0100
0000
0100
0000
,
1000
1000
1000
0000
,
0001
0000
0001
0000
,
0010
0000
0100
0000
,
0010
0000
0010
0000
,
0000
1000
1000
0000
,
0001
0000
0001
0000
,
1000
0000
0100
0000
,
1000
0000
0001
0000
,
0100
0000
0001
0000
,
0010
0010
0100
0100
,
0110
0000
1000
0000
,
0110
0000
0001
0000
,
0110
0000
0010
0000
,
1001
0000
1000
0000
,
0001
0100
0001
0100
,
1001
0000
0100
0000
,
1000
0100
1000
0100
,
1001
0000
0010
0000
,
0110
0000
1000
0000
,
0100
0000
0001
0000
,
0100
0000
1000
0000
,
0010
0000
0100
0000
,
0001
0000
1000
0000
,
0001
0000
1000
0000
,
0100
0000
0010
0000
,
0100
0100
0010
0010
,
0110
0000
0010
0000
,
0001
0000
0100
0000
,
0010
0000
1000
0000
,
1001
0000
0000
0000
;

//---------------dance-single - ----------------
#NOTES:
     dance-single:
     :
     Medium:
     6:
     :
0000
0000
0000
0000
,
0000
0000
0000
0000
,
0000
0000
0000
0000
,
0000
0000
0000
0000
,
0000
0000
0000
0000
,
1000
0000
0010
0000
0100
0000
1000
0001
,
1000
0000
0010
0000
0100
0000
0001
1000
,
0001
0000
0100
0000
1000
0000
0001
0010
,
0001
0000
1000
0010
1000
0000
0001
0100
,
0002
0000
0000
0000
0000
0003
0001
0010
,
0002
0000
0000
0000
0000
0003
1000
0100
,
2000
0000
0000
0000
0000
3000
0010
1000
,
0020
0000
0000
0000
0000
0030
0001
0010
,
0002
0000
0100
0000
0010
0003
0001
0000
,
2000
0000
0100
0000
0010
3000
1000
0100
,
0020
0000
0100
0000
0001
0030
0100
1000
,
0100
0010
0100
0000
0100
0010
0100
0000
,
0020
0000
1030
0000
0100
1000
0100
1000
,
0001
0000
0001
0000
0010
0100
0010
0000
,
0020
0000
0031
0000
0100
0001
0100
0001
,
1000
0000
1000
0000
0100
1000
0100
1000
,
0010
0000
0001
0000
0110
0000
0001
0100
,
1000
0000
0100
0000
0001
0000
1000
0010
,
0001
0000
0010
0000
1010
0000
0100
0001
,
0010
0000
0100
0000
1100
0000
0001
0100
,
0020
0000
0000
0000
1030
0000
0000
0000
1100
0000
0000
1000
0000
0000
0000
0000
,
0200
0000
0000
0000
0310
0000
0000
0000
0001
0000
0000
0010
0000
0000
0000
0000
,
0200
0000
0000
0000
0310
0000
0000
0000
1000
0000
0000
0100
0000
0000
0000
0000
,
0002
0000
0000
0000
1003
0000
0000
0000
1000
0000
0000
0001
0000
0000
0000
0000
,
1000
0001
0010
0000
1000
0001
0010
0000
,
0001
1000
0010
0100
0010
1000
0001
0000
,
0001
1000
0100
0000
0001
1000
0100
0000
,
0001
1000
0010
0100
0010
1000
0001
0000
,
0200
0000
0301
0000
0010
0001
0010
0001
,
1000
0000
1000
0000
0100
0010
0100
0000
,
0200
0000
1300
0000
0010
1000
0010
1000
,
0001
0000
0001
0000
0010
0001
0010
0001
,
0100
0000
1000
0000
0110
0000
1000
0010
,
0001
0000
0010
0000
1000
0000
0001
0100
,
1000
0000
0100
0000
0101
0000
0010
1000
,
0100
0000
0010
0000
0011
0000
1000
0010
,
0200
0000
0000
0000
0301
0000
0000
0000
0011
0000
0000
0001
0000
0000
0000
0000
,
0020
0000
0000
0000
0130
0000
0000
0000
1000
0000
0000
0100
0000
0000
0000
0000
,
0020
0000
0000
0000
0130
0000
0000
0000
0001
0000
0000
0010
0000
0000
0000
0000
,
2000
0000
0000
0000
3001
0000
0000
0000
0001
0000
0000
1000
0000
0000
0000
0000
,
0001
1000
0100
0000
0001
1000
0100
0000
,
1000
0001
0100
0010
0100
0001
1000
0000
,
1000
0001
0010
0000
1000
0001
0010
0000
,
1000
0001
0100
0010
0100
0001
1000
0000
,
1001
0000
0100
0000
0100
0010
0100
0010
,
1000
0000
1000
0001
0010
0100
1000
0000
,
1001
0000
0100
0000
0100
0010
0100
0010
,
0001
0000
0001
1000
0010
0100
0001
0000
,
0110
0000
1000
0000
0001
1000
0001
1000
,
0001
0000
0010
0100
0001
1000
0100
0000
,
0110
0000
0001
0000
1000
0001
1000
0001
,
1000
0000
0100
0010
1000
0001
0010
0000
,
1001
0000
0000
0000
0110
0000
0000
0010
,
0100
0110
1001
0001
,
1001
0000
1000
0000
0110
0000
0000
0001
,
0220
0000
0000
0000
0000
0330
0000
0000
;

//---------------dance-single - ----------------
#NOTES:
     dance-single:
     :
     Hard:
     8:
     :
0000
0000
0000
0000
,
0000
0000
0000
0000
,
0000
0000
0000
0000
,
0000
0000
0000
0000
,
0000
0000
0000
0000
,
0002
0000
0000
0000
0103
0000
0000
0000
0010
0000
0000
0010
0000
0000
1000
0000
,
0002
0000
0103
0000
0010
0000
1000
0001
,
2000
0000
0000
0000
3100
0000
0000
0000
0010
0000
0000
0010
0000
0000
0001
0000
,
2000
0000
3010
0100
0010
0000
0001
1000
,
1002
0000
0000
0000
0000
0003
1001
0110
,
2000
0000
0000
0000
0000
3000
0110
1001
,
0200
0000
0000
0000
0000
0300
0110
1001
,
0020
0000
0000
0000
0000
0030
1001
0110
,
2000
0000
0010
0000
0100
3000
0010
1100
,
0002
0000
0010
0000
0100
0003
0010
0101
,
2000
0000
0100
0000
0001
3000
0010
1100
,
0001
1000
0001
1000
0001
1000
0001
1010
,
0200
0000
0000
0000
0301
0000
0000
0000
0011
0000
0000
1001
0000
0000
0100
0000
,
1000
0010
1000
0000
0001
0010
0001
0000
,
2100
0000
3010
0000
1010
0000
0100
0001
,
0010
0000
0100
0001
0100
0010
0001
0100
,
0020
0000
0000
0000
1030
0000
0000
0000
1100
0000
0000
1001
0000
0000
0010
0000
,
0001
0100
0001
0000
1000
0100
1000
0000
,
0012
0000
0103
0000
0101
0000
0010
1000
,
0100
0000
0010
1000
0010
0100
1000
0010
,
0200
0000
0000
0000
0301
0000
0000
0000
0011
0000
0000
1001
0000
0000
0100
0000
,
2000
0000
0000
0000
3010
0000
0000
0000
0101
0000
0000
1001
0000
0000
0010
0000
,
2000
0000
0000
0000
3100
0000
0000
0000
0011
0000
0000
0110
0000
0000
0100
0000
,
2000
0000
0000
0000
3001
0000
0000
0000
0101
0000
0000
0110
0000
0000
0010
0000
,
1010
1000
0100
0010
1000
0010
0100
1000
,
1001
0001
0100
0010
0001
0010
0100
0001
,
1100
1000
0010
0100
0101
0010
1000
0100
,
1100
0001
1000
0010
0110
0001
1000
0100
,
0210
0000
0000
0000
1300
0000
0000
0000
1100
0000
0000
1001
0000
0000
0010
0000
,
0001
0100
0010
0000
1000
0100
0010
0000
,
0012
0000
0103
0000
0101
0000
0010
1000
,
0100
0001
0010
1000
0010
0100
1000
0010
,
0200
0000
0000
0000
0301
0000
0000
0000
0011
0000
0000
1001
0000
0000
0100
0000
,
1000
0010
0100
0000
0001
0010
0100
0000
,
2100
0000
3010
0000
1010
0000
0100
0001
,
0010
1000
0100
0001
0100
0010
0001
0100
,
0020
0000
0000
0000
1030
0000
0000
0000
1100
0000
0000
1001
0000
0000
0010
0000
,
0002
0000
0000
0000
0103
0000
0000
0000
1010
0000
0000
1001
0000
0000
0100
0000
,
0002
0000
0000
0000
0013
0000
0000
0000
1100
0000
0000
0110
0000
0000
0010
0000
,
0002
0000
0000
0000
1003
0000
0000
0000
1010
0000
0000
0110
0000
0000
0100
0000
,
0101
0001
0010
0100
0001
0100
0010
0001
,
1001
1000
0010
0100
1000
0100
0010
1000
,
0011
0001
0100
0010
1010
0100
0001
0010
,
0011
1000
0001
0100
0110
1000
0001
0010
,
0210
0000
1300
0000
0010
1000
0100
0010
,
0001
0100
0001
1000
0100
0010
0001
0000
,
2001
0000
3010
0000
0100
0001
0010
0100
,
1000
0010
1000
0001
0010
0100
1000
0000
,
1002
0000
0103
0001
0010
0100
0010
0001
,
2001
0000
3010
1000
0100
0010
0100
1000
,
1002
0000
0103
1000
0100
0001
0010
1000
,
1020
0000
0031
0100
1000
0100
0001
1000
,
2002
0000
0000
0000
3000
0000
0000
0000
0100
0000
0000
0100
0003
0000
0100
0000
,
0010
1000
0100
0000
0010
0001
0100
0000
,
2001
0000
0000
0000
3100
0000
0000
0000
0110
0000
0000
0011
0000
0000
1001
0000
,
0220
0000
0330
0000
;

//---------------dance-double - ----------------
#NOTES:
     dance-double:
     :
     Beginner:
     1:
     :
00000000
00000000
00000000
00000000
,
00000000
00000000
00000000
00000000
,
00000000
00000000
00000000
00000000
,
00000000
00000000
00000000
00000000
,
00000000
00000000
00000000
00000000
,
00001001
00000000
00000000
00000000
,
00000010
00000000
00000000
00000000
,
00000100
00000000
00000000
00000000
,
00000010
00000000
00000000
00000000
,
00001001
00000000
00000000
00000000
,
00000100
00000000
00000000
00000000
,
00000100
00000000
00000000
00000000
,
00001000
00000000
00000000
00000000
,
00011000
00000000
00000000
00000000
,
00010000
00000000
00000000
00000000
,
00001000
00000000
00000000
00000000
,
00010000
00000000
00000000
00000000
,
00100000
00000000
00100000
00000000
,
00100000
00000000
00000000
00000000
,
01000000
00000000
01000000
00000000
,
01000000
00000000
00000000
00000000
,
00001000
00000000
00001000
00000000
,
00001000
00000000
00000000
00000000
,
00010000
00000000
00010000
00000000
,
00010000
00000000
00000000
00000000
,
00000010
00000000
00000100
00000000
,
00000010
00000000
00000000
00000000
,
00000010
00000000
00000100
00000000
,
00000010
00000000
00000000
00000000
,
00001000
00000000
00001000
00000000
,
00001000
00000000
00000000
00000000
,
00000001
00000000
00000001
00000000
,
00000001
00000000
00000000
00000000
,
00001001
00000000
00000000
00000000
,
00000100
00000000
00000000
00000000
,
00001001
00000000
00000000
00000000
,
00000100
00000000
00000000
00000000
,
00000001
00000000
00000000
00000000
,
00001000
00000000
00000000
00000000
,
00000100
00000000
00000000
00000000
,
00010000
00000000
00000000
00000000
,
00001000
00000000
00001000
00000000
,
00010000
00000000
00010000
00000000
,
00001000
00000000
00001000
00000000
,
00010000
00000000
00010000
00000000
,
00100000
00000000
00000000
00000000
,
01000000
00000000
00000000
00000000
,
00100000
00000000
00000000
00000000
,
10010000
00000000
00000000
00000000
,
10000000
00000000
01000000
00000000
,
01000000
00000000
00000000
00000000
,
00010000
00000000
01000000
00000000
,
01000000
00000000
00000000
00000000
,
10000000
00000000
01000000
00000000
,
01000000
00000000
00000000
00000000
,
00010000
00000000
00001000
00000000
,
00001000
00000000
00000000
00000000
,
00011000
00000000
00000000
00000000
,
00000000
00000000
00000000
00000000
,
00011000
00000000
00000000
00000000
;

//---------------dance-double - ----------------
#NOTES:
     dance-double:
     :
     Easy:
     3:
     :
00000000
00000000
00000000
00000000
,
00000000
00000000
00000000
00000000
,
00000000
00000000
00000000
00000000
,
00000000
00000000
00000000
00000000
,
00000000
00000000
00000000
00000000
,
10000000
00000000
10000000
00000000
,
01000000
00000000
01000000
00000000
,
00010000
00000000
00010000
00000000
,
00001000
00000000
00001000
00000000
,
00021000
00000000
00000000
00030000
,
00000020
00000000
00000000
00000030
,
00002000
00000000
00000000
00003000
,
00000200
00000000
00000000
00000300
,
00000020
00000000
00000000
00000030
,
00000002
00000000
00000000
00000003
,
00000200
00000000
00000000
00000300
,
00002000
00000000
00000000
00003000
,
00010000
00001000
00010000
00000000
,
00010000
00001000
00010000
00000000
,
00100000
00010000
00100000
00000000
,
00010000
00100000
00010000
00000000
,
10000000
00000000
10000000
00000000
,
01000000
00000000
01000000
00000000
,
00010000
00000000
00010000
00000000
,
00001000
00000000
00001000
00000000
,
00010000
00000000
00001000
00000000
,
00010000
00000000
00010000
00000000
,
00000100
00000000
00000100
00000000
,
00000010
00000000
00000010
00000000
,
00000001
00000001
00000001
00000000
,
00000100
00000000
00000100
00000000
,
00001000
00001000
00001000
00000000
,
00010000
00000000
00010000
00000000
,
00100000
00000000
01000000
00000000
,
00100000
00000000
00100000
00000000
,
10000000
10000000
10000000
00000000
,
00010000
00000000
00010000
00000000
,
01000000
00000000
00001000
00000000
,
00010000
00000000
00001000
00000000
,
00010000
00000000
00000010
00000000
,
00000100
00000100
00000010
00000010
,
00000110
00000000
00001000
00000000
,
00001001
00000000
00000001
00000000
,
00000110
00000000
00001000
00000000
,
00001001
00000000
00000100
00000000
,
00010000
00001000
00010000
00001000
,
00011000
00000000
00010000
00000000
,
00100000
00010000
00100000
00010000
,
10010000
00000000
10000000
00000000
,
10010000
00000000
10000000
00000000
,
01000000
00000000
00010000
00000000
,
00001000
00000000
00010000
00000000
,
00001000
00000000
00000100
00000000
,
00000010
00000000
00000100
00000000
,
00000010
00000000
00001000
00000000
,
00000001
00000000
00000100
00000000
,
00001000
00001000
00010000
00010000
,
00011000
00000000
00100000
00000000
,
00010000
00000000
01000000
00000000
,
00100000
00000000
10000000
00000000
,
10010000
00000000
00000000
00000000
;

//---------------dance-double - ----------------
#NOTES:
     dance-double:
     :
     Medium:
     6:
     :
00000000
00000000
00000000
00000000
,
00000000
00000000
00000000
00000000
,
00000000
00000000
00000000
00000000
,
00000000
00000000
00000000
00000000
,
00000000
00000000
00000000
00000000
,
00000001
00000000
00001000
00000000
00000100
00000000
00000001
00000100
,
00000001
00000000
00001000
00000000
00000100
00000000
00010000
00001000
,
00010000
00000000
00100000
00000000
01000000
00000000
00100000
01000000
,
00100000
00000000
10000000
00100000
10000000
00000000
00010000
01000000
,
00020000
00000000
00000000
00000000
00000000
00030000
00010000
00100000
,
00002000
00000000
00000000
00000000
00000000
00003000
00001000
00010000
,
00000200
00000000
00000000
00000000
00000000
00000300
00000100
00000010
,
00000002
00000000
00000000
00000000
00000000
00000003
00001000
00000001
,
00000200
00000010
00000010
00000310
,
00001000
00000000
00000100
00000000
00010000
00000000
00001000
00010000
,
00002000
00000000
00100000
00000000
00103000
00000000
00010000
01000000
,
00100000
01000000
00100000
00000000
01000000
00100000
01000000
00000000
,
00200000
00000000
10300000
00000000
01000000
10000000
01000000
10000000
,
00010000
00000000
00010000
00000000
00100000
00010000
00100000
00000000
,
02000000
00000000
03010000
00000000
00001000
00010000
00001000
00010000
,
00001000
00000000
00000100
00000000
00000010
00000100
00000010
00000100
,
00000010
00000000
00001000
00000000
00001001
00000000
00000001
00000100
,
00001000
00000000
00010000
00000000
00001000
00000000
00100000
00010000
,
00100000
00000000
00010000
00000000
10010000
00000000
01000000
00010000
,
00100000
00000000
01000000
00000000
11000000
00000000
00010000
01000000
,
00200000
00000000
00000000
00000000
10300000
00000000
00000000
00000000
01000000
00000000
00000000
00010000
00000000
00000000
00000000
00000000
,
00002000
00000000
00000000
00000000
00013000
00000000
00000000
00000000
00001000
00000000
00000000
00000100
00000000
00000000
00000000
00000000
,
00000002
00000000
00000000
00000000
00001003
00000000
00000000
00000000
00000100
00000000
00000000
00000010
00000000
00000000
00000000
00000000
,
00000002
00000000
00000000
00000000
00000103
00000000
00000000
00000000
00001000
00000000
00000000
00010000
00000000
00000000
00000000
00000000
,
00001000
00100000
00010000
00000000
00001000
00100000
00010000
00000000
,
00100000
00010000
01000000
00100000
01000000
00010000
01000000
00000000
,
00001000
01000000
00010000
00000000
00001000
01000000
00010000
00000000
,
00001000
00010000
00000100
00001000
00000010
00010000
00001000
00000000
,
02000000
00000000
03010000
00000000
00100000
10000000
00100000
10000000
,
00010000
00000000
00010000
00000000
01000000
00010000
01000000
00000000
,
00200000
00000000
00310000
00000000
00001000
00010000
00001000
00010000
,
00001000
00000000
00000010
00000000
00000100
00000010
00000100
00000010
,
00000100
00000000
00001000
00000000
00001001
00000000
00000001
00000010
,
00001000
00000000
00010000
00000000
00001000
00000000
01000000
00010000
,
01000000
00000000
00010000
00000000
10010000
00000000
00100000
00010000
,
01000000
00000000
00100000
00000000
10100000
00000000
00010000
00100000
,
02000000
00000000
00000000
00000000
13000000
00000000
00000000
00000000
00100000
00000000
00000000
00010000
00000000
00000000
00000000
00000000
,
00002000
00000000
00000000
00000000
00013000
00000000
00000000
00000000
00001000
00000000
00000000
00000010
00000000
00000000
00000000
00000000
,
00000002
00000000
00000000
00000000
00001003
00000000
00000000
00000000
00000010
00000000
00000000
00000100
00000000
00000000
00000000
00000000
,
00000002
00000000
00000000
00000000
00000013
00000000
00000000
00000000
00001000
00000000
00000000
00010000
00000000
00000000
00000000
00000000
,
00001000
01000000
00010000
00000000
00001000
01000000
00010000
00000000
,
01000000
00010000
00100000
01000000
00100000
00010000
10000000
00000000
,
00001000
00100000
00010000
00000000
00001000
00100000
00010000
00000000
,
00001000
00010000
00000010
00001000
00000100
00000010
00000001
00000000
,
00001001
00000000
00000010
00000000
00001000
00000001
00001000
00000001
,
00000100
00000000
00001000
00010000
00000010
00001000
00000100
00000000
,
00011000
00000000
00100000
00000000
00010000
01000000
00010000
01000000
,
00010000
00000000
00100000
10000000
00100000
01000000
00010000
00000000
,
01100000
00000000
10000000
00000000
01000000
10000000
01000000
10000000
,
01000000
00000000
00100000
00001000
00010000
00001000
00010000
00000000
,
00011000
00000000
00000100
00000000
00001000
00000100
00001000
00000100
,
00001000
00000000
00000100
00000010
00000001
00000100
00000010
00000000
,
00001001
00000000
00000000
00000000
00000110
00000000
00000000
00000100
,
00001000
00011000
00011000
00100000
,
01100000
00000000
10000000
00000000
01100000
00000000
00000000
00010000
,
02200000
00000000
00000000
00000000
00000000
03300000
00000000
00000000
;

//---------------dance-double - ----------------
#NOTES:
     dance-double:
     :
     Hard:
     8:
     :
00000000
00000000
00000000
00000000
,
00000000
00000000
00000000
00000000
,
00000000
00000000
00000000
00000000
,
00000000
00000000
00000000
00000000
,
00000000
00000000
00000000
00000000
,
20000000
00000000
00000000
00000000
31000000
00000000
00000000
00000000
00010000
00000000
00000000
01000000
00000000
00000000
10000000
00000000
,
00020000
00000000
01030000
00000000
00100000
00000000
00010000
00001000
,
00020000
00000000
00000000
00000000
00030100
00000000
00000000
00000000
00000001
00000000
00000000
00000100
00000000
00000000
00001000
00000000
,
00000020
00000000
00000130
00000001
00001000
00000000
00001000
00000001
,
00002002
00000000
00000000
00000000
00003003
00000000
00010000
00001000
,
00022000
00000000
00000000
00000000
00033000
00000000
10000000
00010000
,
20020000
00000000
00000000
00000000
30030000
00000000
00001000
00010000
,
00022000
00000000
00000000
00000000
00033000
00000000
00000001
00001000
,
00000201
00000000
00000010
00000000
00001300
00000000
00000100
00001000
,
00012000
00000000
00100000
00000000
01003000
00000000
00001000
01000000
,
02010000
00000000
00100000
00000000
13000000
00000000
01000000
00010000
,
01010000
00001000
00100000
00001000
00010000
00000100
00001000
00000001
,
00000200
00000000
00000000
00000000
00001300
00000000
00000000
00000000
00000110
00000000
00000000
00000101
00000000
00000000
00001000
00000000
,
00000100
00001000
00000010
00000000
00010000
00001000
00100000
00000000
,
02000000
00000000
03010000
00000000
01100000
00000000
01000000
10000000
,
00010000
00000000
01000000
00010000
10000000
00100000
00010000
00001000
,
00000200
00000000
00000000
00000000
00000301
00000000
00000000
00000000
00000011
00000000
00000000
00000110
00000000
00000000
00001000
00000000
,
00000010
00001000
00000100
00000000
00010000
00001000
01000000
00000000
,
00200000
00000000
00310000
00000000
01100000
00000000
00100000
10000000
,
00010000
00000000
00100000
00010000
10000000
01000000
00010000
00001000
,
00000020
00000000
00000000
00000000
00000031
00000000
00000000
00000000
00000101
00000000
00000000
00001001
00000000
00000000
00000010
00000000
,
00002000
00000000
00000000
00000000
00003100
00000000
00000000
00000000
00001100
00000000
00000000
00010100
00000000
00000000
00001000
00000000
,
00200000
00000000
00000000
00000000
00310000
00000000
00000000
00000000
00110000
00000000
00000000
10010000
00000000
00000000
01000000
00000000
,
20000000
00000000
00000000
00000000
30010000
00000000
00000000
00000000
01010000
00000000
00000000
10010000
00000000
00000000
00100000
00000000
,
10100000
10000000
01000000
00100000
10000000
00010000
01000000
00100000
,
00110000
00010000
01000000
00001000
00010000
00000100
00001000
00000010
,
00000110
00000100
00000001
00000010
00001000
00000010
00000100
00001000
,
00001010
00000010
00000100
00001000
00011000
00010000
01000000
00100000
,
02000000
00000000
00000000
00000000
03010000
00000000
00000000
00000000
01100000
00000000
00000000
11000000
00000000
00000000
00010000
00000000
,
01000000
00010000
00100000
00000000
00001000
00010000
00000010
00000000
,
00000200
00000000
00001300
00000000
00000110
00000000
00000100
00000001
,
00001000
00000000
00000100
00001000
00000001
00000010
00001000
00010000
,
02000000
00000000
00000000
00000000
13000000
00000000
00000000
00000000
10100000
00000000
00000000
01100000
00000000
00000000
00010000
00000000
,
00100000
00010000
01000000
00000000
00001000
00010000
00000100
00000000
,
00000020
00000000
00001030
00000000
00000110
00000000
00000010
00000001
,
00001000
00000000
00000010
00001000
00000001
00000100
00001000
00010000
,
00200000
00000000
00000000
00000000
10300000
00000000
00000000
00000000
11000000
00000000
00000000
10010000
00000000
00000000
00100000
00000000
,
00020000
00000000
00000000
00000000
01030000
00000000
00000000
00000000
01010000
00000000
00000000
01001000
00000000
00000000
00010000
00000000
,
00000020
00000000
00000000
00000000
00001030
00000000
00000000
00000000
00001010
00000000
00000000
00001001
00000000
00000000
00000100
00000000
,
00000002
00000000
00000000
00000000
00001003
00000000
00000000
00000000
00001100
00000000
00000000
00001001
00000000
00000000
00000010
00000000
,
00000011
00000001
00000100
00000010
00000001
00001000
00000100
00000010
,
00001010
00001000
00000100
00010000
00001000
01000000
00010000
00100000
,
01100000
01000000
10000000
00100000
00010000
00100000
01000000
00010000
,
00110000
00100000
01000000
00010000
00011000
00001000
00000100
00000010
,
00000210
00000000
00000301
00000000
00000010
00000001
00000100
00000010
,
00001000
00000100
00010000
00001000
01000000
00100000
10000000
00000000
,
20100000
00000000
30010000
00000000
01000000
10000000
00100000
01000000
,
00010000
00100000
00001000
00010000
00000010
00000100
00000001
00000000
,
00002001
00000000
00003100
00001000
00000010
00000001
00000010
00001000
,
00001002
00000000
00000013
00001000
00010000
00000100
00010000
00001000
,
00021000
00000000
00130000
01000000
00010000
01000000
00100000
10000000
,
12000000
00000000
03010000
01000000
10000000
01000000
00010000
00001000
,
00022000
00000000
00000000
00000000
00003000
00000000
00000000
00000000
00000100
00000000
00000000
00000100
00030000
00000000
00000100
00000000
,
00001000
00000010
00000100
00000000
00000001
00000010
00000100
00000000
,
00001002
00000000
00000000
00000000
00000103
00000000
00000000
00000000
00000011
00000000
00000000
00001100
00000000
00000000
00010100
00000000
,
00022000
00000000
00033000
00000000
;
