#TITLE:These Words (I Love You, I Love You);
#ARTIST:Natasha Bedingfield;
#BANNER:These Words (I Love You, I Love You).png;
#BACKGROUND:These Words (I Love You, I Love You)-bg.png;
#CDTITLE:./CDTITLES/Dance Dance Revolution ULTRAMIX4.png;
#MUSIC:These Words (I Love You, I Love You).ogg;
#SAMPLESTART:6.208;
#SAMPLELENGTH:15;
#DISPLAYBPM:96;
#BPMS:0=97;
#BGCHANGES:2=These Words (I Love You=1=0=0=1,172=These Words (I Love You=1=0=0=1,172=These Words (I Love You, I Love You)-bg.png=1=0=0=1;

//---------------dance-single - ----------------
#NOTES:
     dance-single:
     :
     Beginner:
     1:
     :
0000
0000
0000
0000
,
0000
0000
0000
0000
,
0000
0000
0000
0000
,
0100
0000
0100
0000
,
0001
0000
0001
0000
,
1000
0000
1000
0000
,
0001
0000
0001
0000
,
0000
0010
0010
0000
,
0010
0000
1000
0000
,
1000
0000
0001
0000
,
0001
0000
0100
0000
,
0000
0001
0001
0000
,
1000
0000
1000
0000
,
0001
0000
0000
0100
,
0100
0000
0000
0010
,
0010
0000
1000
0000
,
1000
0000
0001
0000
,
1000
0000
0000
0100
,
0100
0000
0000
0000
,
0010
0000
1000
0000
,
0001
0000
0010
0000
,
0000
0001
0001
0000
,
1000
0000
0001
0000
,
0100
0000
0010
0000
,
0100
0000
0001
0000
,
0000
1000
1000
0000
,
0001
0000
0100
0000
,
0010
0000
0100
0000
,
0001
0000
1000
0000
,
0000
0010
0010
0000
,
0100
0000
0010
0000
,
1000
0000
0001
0000
,
1000
0000
0100
0000
,
0000
1000
1000
0000
,
0002
0000
0000
0003
,
0001
0000
1000
0000
,
0100
0000
0001
0000
,
0000
0100
0100
0000
,
0010
0000
0001
0000
,
1000
0000
0001
0000
,
0100
0000
0010
0000
,
0000
1000
1000
0000
,
0001
0000
0001
0001
,
1001
0000
0000
0000
;

//---------------dance-single - ----------------
#NOTES:
     dance-single:
     :
     Easy:
     3:
     :
0000
0000
0000
0000
,
0000
0000
0000
0000
,
0000
0000
0000
0000
,
0110
0000
0001
0100
,
1000
0100
0001
0000
,
0001
0010
0001
0100
,
0001
1000
0001
0000
,
0000
0001
1000
0000
,
1000
0001
1001
0000
,
0010
0100
0010
0100
,
1000
0001
1000
0000
,
0000
0100
0010
0001
,
1000
0010
1000
0100
,
2000
3000
0001
0001
,
0002
0003
1000
1000
,
1000
0000
0200
0300
,
0020
0030
0200
0300
,
0020
0030
0100
0100
,
0100
0000
0001
0000
,
1000
0100
0001
0100
,
1000
0100
0020
0000
,
0030
0001
1001
0110
,
2002
0000
0000
3003
,
0001
0100
1000
0100
,
0001
0100
0020
0000
,
0030
1000
1001
0110
,
2002
3003
0220
0330
,
0001
0010
0100
1000
,
0100
0001
0100
0000
,
0000
0100
0010
0100
,
0001
1000
0001
0000
,
1000
0100
1000
0010
,
1000
0001
1000
0000
,
0000
0010
0001
1000
,
2002
0000
0000
3003
,
1000
0100
0010
0001
,
0100
0010
0200
0000
,
0300
0100
0110
1001
,
0220
0000
0000
0330
,
0001
0010
0100
1000
,
0010
0100
0020
0000
,
0030
1000
1001
0110
,
2002
0000
0000
0000
0000
0000
0000
3003
0000
0000
0000
0000
0000
0000
0000
0000
1000
0000
0000
0000
0000
0000
0000
0000
0001
0000
0000
0000
0000
0000
0000
0000
,
1001
0000
0000
0000
;

//---------------dance-single - ----------------
#NOTES:
     dance-single:
     :
     Medium:
     5:
     :
0000
0000
0000
0000
,
0000
0000
0000
0000
,
0000
0000
0000
0000
,
1000
0000
0100
0000
0010
0001
0100
0000
,
0101
1001
1100
0000
,
0001
0000
0100
0000
0010
1000
0100
0000
,
1000
0000
0001
0000
0100
0000
0000
0000
0010
0000
0000
1000
0000
0000
1001
0000
,
0000
0000
0100
0000
0001
1000
0010
0000
,
1100
1001
0202
0303
,
0100
0000
0010
0000
1000
0100
0001
0000
,
0100
0000
0010
0000
0001
0000
0000
0000
0010
0000
0000
0100
0000
0000
0110
0000
,
0000
0000
0001
0000
0010
0100
1000
0000
,
0010
0000
0100
0000
1000
0000
0100
0001
,
0010
0000
0100
0000
1000
0000
0010
0100
,
0001
0000
1000
0000
0100
0000
0001
0100
,
1000
0000
0000
0001
0101
0000
0000
1000
,
1100
0000
0000
0001
1001
0000
0000
0000
,
0010
0000
0100
0000
0010
0000
1000
0001
,
0100
0010
2002
3003
,
0100
0000
1000
0000
0010
1000
0100
0000
,
0010
0000
0001
0000
0100
0000
0000
0000
0001
0000
0000
1000
0000
0000
1001
0000
,
0000
0001
1000
0100
,
0001
0100
1000
0100
0001
0100
1000
0000
,
0010
0000
1000
0000
0001
0100
0010
0000
,
0100
0000
0010
0000
1000
0000
0000
0000
0010
0000
0000
0100
0000
0000
0110
0000
,
0000
0000
1000
0000
0001
0100
0010
0000
,
1000
0100
1000
0000
0001
0100
0001
0000
,
1000
0000
0001
0000
1000
0001
0100
0000
,
0001
0000
0010
0000
0100
0000
0000
0000
1000
0000
0000
0100
0000
0000
1100
0000
,
0000
0010
0100
0001
,
1000
0000
0001
0010
1000
0010
0001
0000
,
0100
0000
0010
0000
1000
0010
0100
0000
,
0010
0000
0100
0000
0001
0000
0000
0000
0010
0000
0000
0100
0000
0000
0110
0000
,
0000
0000
1000
0000
0001
1000
0001
0000
,
0220
0000
0000
0330
,
1000
0000
0001
0000
0010
1000
0100
0000
,
0010
0000
0001
0000
0100
0000
0000
0000
0001
0000
0000
1000
0000
0000
1001
0000
,
0000
0000
0010
0000
0100
0010
1000
0000
,
0001
0100
1000
0100
0001
0100
1000
0000
,
0100
0000
0010
0000
1000
0001
0100
0000
,
0100
0000
0001
0000
0010
0000
0000
0000
0001
0000
0000
1000
0000
0000
1001
0000
,
0000
0000
0100
0000
0010
0001
0100
0000
,
0110
0000
0010
1000
0100
0010
0001
0100
,
0110
0000
0000
0000
;

//---------------dance-single - ----------------
#NOTES:
     dance-single:
     :
     Hard:
     7:
     :
0000
0000
0000
0000
,
0000
0000
0000
0000
,
0000
0000
0000
0000
,
0010
1000
0100
0000
0010
0001
0100
0000
,
1000
0001
0100
0000
0100
0000
0000
0000
,
0001
0010
0100
1000
0001
0010
0001
1000
,
0100
0000
1000
0000
0010
0000
0100
0000
0001
0000
1000
0100
0000
0001
0100
0000
,
0000
0001
1000
0100
0010
0001
1000
0100
,
1000
0000
0001
0100
0001
0000
1000
0001
1000
0000
0100
0000
0100
0000
0000
0000
,
1000
0001
1000
0100
1000
0001
1000
0010
,
1000
0000
0001
0000
1000
0000
0100
0000
0010
0000
0001
0010
0000
0001
0010
0000
,
0000
0100
1000
0001
0100
0010
1000
0100
,
0010
0000
0001
0000
1000
0000
0100
0000
0010
0000
0000
0010
0000
0000
0001
0000
,
1000
0000
0010
0000
0100
0000
1000
0000
0100
0000
0001
0100
0000
0000
0010
0000
,
0100
0000
0001
0000
0100
0000
1000
0000
0100
0000
0010
0100
0000
0000
0001
0000
,
1000
0000
0001
0000
1000
0000
0100
1000
0000
0000
0000
0000
0001
0000
0100
0001
,
0000
0000
0000
0000
0010
0000
1000
0010
0000
0000
0000
0100
0000
0000
0001
0000
,
0010
0000
0100
0000
1000
0000
0100
0000
1000
0000
0001
0100
0000
0000
0000
0000
,
1000
0100
1100
0000
0001
0100
0101
0000
,
0001
1000
0100
0010
0001
1000
0100
1000
,
0001
0000
0100
0000
0001
0000
1000
0000
0001
0000
1000
0100
0000
0001
0100
0000
,
0000
0001
0100
0001
1000
0001
0010
0001
,
1000
0100
1000
0100
1000
0100
0001
0100
0001
0100
0001
0000
0100
0000
0000
0000
,
1000
0001
0010
0100
1000
0001
1000
0100
,
1000
0000
0010
0000
0100
0000
0001
0000
1000
0000
0001
0100
0000
1000
0100
0000
,
0000
1000
0001
0010
0100
1000
0001
1000
,
0020
0030
0200
0300
,
1000
0100
0010
0001
1000
0010
1000
0001
,
0100
0000
0001
0000
0010
0000
0100
0000
1000
0000
0001
0100
0000
1000
0100
0000
,
0000
1000
0001
0010
0100
1000
0001
0100
,
0001
0000
1000
0100
1000
0000
0001
1000
0001
0000
0100
0000
0100
0000
0000
0000
,
0001
1000
0001
0100
0001
1000
0001
0010
,
0001
0000
1000
0000
0001
0000
0010
0000
0100
0000
1000
0100
0000
1000
0100
0000
,
0000
0010
0100
1000
0001
0100
0001
0000
,
2002
0000
0000
3003
,
0001
1000
0100
0010
0001
1000
0100
1000
,
0001
0000
0100
0000
0001
0000
1000
0000
0001
0000
1000
0100
0000
0001
0100
0000
,
0000
0001
0100
0001
1000
0001
0010
0001
,
1000
0100
1000
0000
1000
0100
0001
0000
0001
0100
0001
0000
0100
0000
0010
0000
,
1000
0001
1000
0100
1000
0001
1000
0010
,
1000
0000
0001
0000
1000
0000
0100
0000
0010
0000
0001
0010
0000
0001
0010
0000
,
0000
0001
0100
0010
1000
0100
1000
0010
,
0100
0001
0100
0010
1000
0100
0001
0010
,
0110
0000
0000
0000
;

//---------------dance-double - ----------------
#NOTES:
     dance-double:
     :
     Beginner:
     1:
     :
00000000
00000000
00000000
00000000
,
00000000
00000000
00000000
00000000
,
00000000
00000000
00000000
00000000
,
00010000
00000000
00000100
00000000
,
00001000
00000000
00000001
00000000
,
00000010
00000000
00000100
00000000
,
00010000
00000000
00010000
00000000
,
00000000
10000000
00000000
00000000
,
00010000
00000000
00011000
00000000
,
00001000
00000000
01000000
00000000
,
00100000
00000000
00100000
00000000
,
00000000
01000000
00000000
00001000
,
00000000
00001000
00000000
00000001
,
00000000
00000000
00000001
00000000
,
00000001
00000000
00000100
00000000
,
00000100
00000000
00001000
00000000
,
00010000
00000000
00001000
00000000
,
00010000
00000000
01000000
00000000
,
01000000
00000000
10000000
00000000
,
00100000
00000000
01000000
00000000
,
00001000
00000000
00000001
00000000
,
00000000
00001000
00000000
00000110
,
00000000
00000000
00000000
00000000
,
00000010
00000000
00000100
00000000
,
00010000
00000000
10000000
00000000
,
00000000
00010000
00000000
10010000
,
00000000
00000000
10010000
00000000
,
10000000
00000000
00010000
00000000
,
10000000
00000000
10000000
00000000
,
00000000
00010000
00000000
00000100
,
00000000
00010000
00000000
00000000
,
00000100
00000000
00000010
00000000
,
00000100
00000000
00000100
00000000
,
00000000
00001000
00000000
01000000
,
00000000
00000000
00000000
00000000
,
00100000
00000000
01000000
00000000
,
00001000
00000000
00000001
00000000
,
00000000
00001000
00000000
00000110
,
00000000
00000000
00000000
00000000
,
00000010
00000000
00000100
00000000
,
00010000
00000000
10000000
00000000
,
00000000
00010000
00000000
01100000
,
00000000
00000000
01000000
00000000
,
10010000
00000000
00000000
00000000
;

//---------------dance-double - ----------------
#NOTES:
     dance-double:
     :
     Easy:
     3:
     :
00000000
00000000
00000000
00000000
,
00000000
00000000
00000000
00000000
,
00000000
00000000
00000000
00000000
,
00010000
00001000
00000100
00000000
,
00001000
00000100
00000001
00000000
,
00000010
00000001
00000100
00001000
,
00010000
00001000
00010000
00000000
,
00000000
10000000
01000000
00000000
,
00010000
00001000
00011000
00000000
,
00001000
00010000
01000000
10000000
,
00100000
10000000
00100000
00000000
,
00000000
01000000
00010000
00001000
,
00010000
00001000
00000100
00000001
,
00000020
00000030
00000001
00000001
,
00000002
00000003
00000100
00000100
,
00000100
00000000
00002000
00003000
,
00020000
00030000
00002000
00003000
,
00020000
00030000
01000000
01000000
,
01000000
00000000
10000000
00000000
,
00100000
10000000
01000000
00010000
,
00001000
00000100
00000002
00000000
,
00000003
00001000
00001001
00000110
,
00002002
00000000
00000000
00003003
,
00000010
00000001
00000100
00001000
,
00010000
01000000
20000000
00000000
,
30000000
00010000
01100000
10010000
,
02200000
03300000
20020000
30030000
,
10000000
01000000
00010000
01000000
,
10000000
01000000
10000000
00000000
,
00000000
00010000
00001000
00000100
,
00001000
00010000
00001000
00000000
,
00000100
00000001
00000010
00000001
,
00000100
00000001
00000100
00000000
,
00000000
00001000
00010000
01000000
,
02200000
00000000
00000000
03300000
,
00100000
10000000
01000000
00010000
,
00001000
00000100
00000002
00000000
,
00000003
00001000
00001001
00000110
,
00002002
00000000
00000000
00003003
,
00000010
00000001
00000100
00001000
,
00010000
01000000
20000000
00000000
,
30000000
00010000
10010000
01100000
,
20020000
00000000
00000000
00000000
00000000
00000000
00000000
30030000
00000000
00000000
00000000
00000000
00000000
00000000
00000000
00000000
01000000
00000000
00000000
00000000
00000000
00000000
00000000
00000000
00100000
00000000
00000000
00000000
00000000
00000000
00000000
00000000
,
10010000
00000000
00000000
00000000
;

//---------------dance-double - ----------------
#NOTES:
     dance-double:
     :
     Medium:
     6:
     :
00000000
00000000
00000000
00000000
,
00000000
00000000
00000000
00000000
,
00000000
00000000
00000000
00000000
,
00000100
00000000
00000100
00000000
00000010
00001000
00000100
00000000
,
00001100
00010100
00011000
00000000
,
01000000
00000000
01000000
00000000
00100000
10000000
01000000
00000000
,
00010000
00000000
01000000
00000000
00100000
00000000
00000000
00000000
01000000
00000000
00000000
00010000
00000000
00000000
00001000
00000000
,
00000000
00000000
00000100
00000000
00000001
00000010
00001000
00000000
,
00010000
01000000
01100000
00000000
,
00010000
00000000
00001000
00000000
00000100
00000001
00000010
00000000
,
00001000
00000000
00000010
00000000
00000001
00000000
00000000
00000000
00000100
00000000
00000000
00001000
00000000
00000000
00010000
00000000
,
00000000
00000000
01000000
00000000
00100000
00010000
01000000
00000000
,
00100000
00000000
10000000
00000000
01000000
00000000
00010000
00001000
,
00000100
00000000
00000001
00000000
00000100
00000000
00001000
00010000
,
01000000
00000000
10000000
00000000
01000000
00000000
00010000
00001000
,
00000100
00000000
00000000
00001000
00011000
00000000
00000000
00010000
,
01010000
00000000
00000000
00010000
00011000
00000000
00000000
00000000
,
00001000
00000000
00000100
00000000
00000001
00000000
00000010
00000001
,
00000100
00000010
00002002
00003003
,
00000100
00000000
00000100
00000000
00000010
00001000
00000100
00000000
,
00000010
00000000
00000001
00000000
00000100
00000000
00000000
00000000
00001000
00000000
00000000
00010000
00000000
00000000
01000000
00000000
,
00000000
10000000
01000000
00100000
,
00010000
10000000
01000000
00010000
00001000
00010000
00001000
00000000
,
00000100
00000000
00000100
00000000
00000010
00001000
00000100
00000000
,
00000010
00000000
00000001
00000000
00000100
00000000
00000000
00000000
00000010
00000000
00000000
00000100
00000000
00000000
00001000
00000000
,
00000000
00000000
00010000
00000000
01000000
10000000
00100000
00000000
,
00100000
10000000
00010000
00000000
01000000
00010000
10000000
00000000
,
00010000
00000000
01000000
00000000
00100000
10000000
01000000
00000000
,
00100000
00000000
00010000
00000000
01000000
00000000
00000000
00000000
00100000
00000000
00000000
00010000
00000000
00000000
00001000
00000000
,
00000000
00000100
00000001
00000010
,
00000001
00000000
00000010
00000001
00000100
00001000
00010000
00000000
,
01000000
00000000
01000000
00000000
00100000
10000000
01000000
00000000
,
00010000
00000000
01000000
00000000
00100000
00000000
00000000
00000000
01000000
00000000
00000000
00010000
00000000
00000000
00001000
00000000
,
00000000
00000000
00010000
00000000
00001000
00010000
00001000
00000000
,
00022000
00000000
00000000
00033000
,
00000100
00000000
00000100
00000000
00000010
00000001
00000100
00000000
,
00001000
00000000
00000100
00000000
00000010
00000000
00000000
00000000
00000100
00000000
00000000
00001000
00000000
00000000
00010000
00000000
,
00000000
00000000
00001000
00000000
00010000
01000000
10000000
00000000
,
00010000
10000000
01000000
00010000
00001000
00010000
00001000
00000000
,
00000100
00000000
00000100
00000000
00000010
00001000
00000100
00000000
,
00000010
00000000
00000001
00000000
00000100
00000000
00000000
00000000
00001000
00000000
00000000
00010000
00000000
00000000
01000000
00000000
,
00000000
00000000
00010000
00000000
00001000
00010000
00001000
00000000
,
00011000
00000000
00001000
00100000
00010000
01000000
00100000
10000000
,
10010000
00000000
00000000
00000000
;

//---------------dance-double - ----------------
#NOTES:
     dance-double:
     :
     Hard:
     8:
     :
00000000
00000000
00000000
00000000
,
00000000
00000000
00000000
00000000
,
00000000
00000000
00000000
00000000
,
00000010
00000001
00000100
00000000
00001000
00010000
01000000
00000000
,
00010000
00001000
00000010
00000000
00001001
00000000
00000000
00000000
,
00000010
00000001
00000100
00001000
00010000
01000000
10000000
00100000
,
00010000
00000000
00001000
00000000
00000010
00000000
00000010
00000000
00000001
00000000
00000000
00001000
00000000
00000000
00000100
00000000
,
00000000
00010000
00001000
01000000
00100000
00010000
00001000
00000000
,
00100000
00000000
00010000
00000000
00001000
00000000
01000000
00000000
00100000
00000000
01000000
00100000
00000000
00000000
00000000
00000000
,
00100000
10000000
01000000
00010000
00001000
00000100
00000001
00000010
,
00001000
00000000
00010000
00000000
00100000
00000000
00100000
00000000
10000000
00000000
00000000
00010000
00000000
00000000
01000000
00000000
,
00000000
00001000
00010000
00000010
00000100
00001000
00010000
00000010
,
00000100
00000000
00000000
00000000
00000000
00000000
00001000
00000000
00010000
00000000
00000000
00000010
00000000
00000000
00000100
00000000
,
00000001
00000000
00000010
00000000
00000100
00000000
00001000
00000000
00000100
00000000
00010000
00001000
00000000
00000000
01000000
00000000
,
00010000
00000000
00100000
00000000
01000000
00000000
10000000
00000000
01000000
00000000
10000000
01000000
00000000
00000000
00100000
00000000
,
00010000
00000000
10000000
00000000
01000000
00000000
00010000
01000000
00000000
00000000
00000000
00000000
00010000
00000000
00001000
00010000
,
00000000
00000000
00000000
00000000
00001000
00000000
00000100
00001000
00000000
00000000
00000000
00000100
00000000
00000000
00000001
00000000
,
00000010
00000000
00000001
00000000
00001000
00000000
00000100
00000000
00000010
00000000
00000001
00000010
00000000
00000000
00000000
00000000
,
00000001
00000100
00000101
00000000
00000010
00000100
00000110
00000000
,
00000001
00000100
00001000
01000000
00100000
01000000
00010000
00100000
,
01000000
00000000
10000000
00000000
00100000
00000000
10000000
00000000
00010000
00000000
00000000
10000000
00000000
00000000
01000000
00000000
,
00000000
10000000
01000000
00010000
00001000
00010000
01000000
00010000
,
00001000
00010000
00001000
00000000
01000000
00010000
01000000
00000000
00001000
00010000
00001000
00000000
00000100
00000000
00000000
00000000
,
00000001
00000100
00001000
00000100
00000001
00001000
00000100
00010000
,
00001000
00000000
00100000
00000000
01000000
00000000
10000000
00000000
00010000
00000000
00000000
10000000
00000000
00000000
01000000
00000000
,
00000000
10000000
00010000
01000000
00100000
00010000
00001000
00010000
,
02000000
03000000
20000000
30000000
,
00100000
10000000
01000000
00010000
00001000
00000100
00000001
00000010
,
00001000
00000000
00010000
00000000
00100000
00000000
00100000
00000000
10000000
00000000
00000000
00010000
00000000
00000000
01000000
00000000
,
00000000
00001000
00010000
00000010
00000100
00001000
00010000
00000000
,
00000100
00000000
00001000
00000000
00010000
00000000
00000010
00000000
00000100
00000000
00000010
00000100
00000000
00000000
00000000
00000000
,
00000010
00000001
00000100
00001000
00010000
01000000
10000000
00100000
,
00010000
00000000
00001000
00000000
00000010
00000000
00000010
00000000
00000001
00000000
00000000
00001000
00000000
00000000
00000100
00000000
,
00000000
00010000
00001000
01000000
00100000
00010000
00001000
01000000
,
00200000
00000000
00000000
00300000
,
10000000
01000000
00010000
00000100
00000010
00000100
00001000
00000100
,
00000010
00000000
00000001
00000000
00000010
00000000
00000001
00000000
00001000
00000000
00000000
00000001
00000000
00000000
00000100
00000000
,
00000000
00000001
00000100
00001000
00010000
00001000
00000100
00001000
,
00010000
00001000
00010000
00000000
00000100
00001000
00000100
00000000
00010000
00001000
00010000
00000000
01000000
00000000
00000000
00000000
,
10000000
01000000
00010000
01000000
10000000
00010000
01000000
00001000
,
00010000
00000000
00000010
00000000
00000100
00000000
00000001
00000000
00001000
00000000
00000000
00000001
00000000
00000000
00000100
00000000
,
00000000
00000001
00000100
00001000
00010000
00001000
00010000
00000000
,
00011000
00000000
00001000
00100000
00001000
01000000
00100000
00010000
,
00001000
00000000
00000000
00000000
;
