#TITLE:There's a Rhythm;
#ARTIST:Dig Bear;
#BANNER:There's a Rhythm.png;
#BACKGROUND:There's a Rhythm-bg.png;
#CDTITLE:./CDTITLES/Dance Dance Revolution ULTRAMIX4.png;
#MUSIC:There's a Rhythm.ogg;
#SAMPLESTART:10.951;
#SAMPLELENGTH:15;
#BPMS:0=115;

//---------------dance-single - ----------------
#NOTES:
     dance-single:
     :
     Beginner:
     1:
     :
0000
0000
0000
0000
,
0000
0000
0000
0000
,
0000
0000
0000
0000
,
0000
0001
0000
0001
,
0000
0001
0000
0001
,
0000
0100
0100
0000
,
0000
0001
0001
0000
,
0000
1000
1000
0000
,
0000
0010
0000
0010
,
0000
0100
0100
0000
,
0000
0001
0001
0000
,
0000
0010
0010
0000
,
0000
0001
0000
1000
,
0000
0001
0000
1000
,
0000
0001
0000
0001
,
0000
0100
0000
0000
,
0000
0010
0000
0000
,
0000
1000
0000
0001
,
0000
1000
0000
1000
,
0000
0010
0000
0000
,
0000
0100
0000
0000
,
0000
0001
0000
0100
,
0000
0010
0000
0010
,
0000
0100
0000
0000
,
0000
1000
0000
0000
,
0000
1000
0000
0001
,
0000
0100
0000
0100
,
0000
0010
0000
0000
,
0000
0010
0000
0000
,
0000
0100
0100
0000
,
0000
0001
0001
0000
,
0000
0100
0100
0000
,
0000
0010
0010
0000
,
0000
1000
0000
1000
,
0000
0001
0000
0001
,
0000
0100
0000
0100
,
0000
0010
0010
0010
,
0000
0100
0000
0010
,
0000
1000
0000
1000
,
0000
0001
0000
0000
,
0000
0100
0000
0000
,
0000
0010
0000
0001
,
0000
1000
0000
1000
,
0000
0001
0000
0000
,
0000
1000
0000
0000
,
0000
0010
0000
0010
,
0000
0100
0000
0100
,
0000
0010
0000
0000
;

//---------------dance-single - ----------------
#NOTES:
     dance-single:
     :
     Easy:
     3:
     :
0000
0000
0000
0000
,
0000
0000
0000
0000
,
0000
0000
0000
0000
,
0000
1000
0000
0001
,
0000
1000
0000
0001
,
0000
0100
0001
0001
,
0000
1000
0000
0001
,
0000
0010
0100
0100
,
0000
1000
0000
0010
,
0000
0100
0001
0001
,
0000
1000
0100
0100
,
0000
0010
0001
0100
,
0000
0010
1000
0100
,
0000
2000
3001
0002
,
1003
0010
1000
0010
,
0000
0100
0000
0001
,
0000
0001
0000
1000
,
0000
0002
1003
2000
,
3001
0010
0001
0010
,
0000
0200
0000
0300
,
0000
0020
0000
0030
,
0000
0002
0013
0020
,
0130
1000
0100
0010
,
0000
0001
0000
0100
,
0000
0010
0000
0100
,
0000
0002
0103
0200
,
0310
1000
0001
0010
,
0000
0001
0000
1000
,
0000
0010
0000
1000
,
0000
0010
1000
1000
,
0000
1000
0001
0001
,
0000
0010
0100
0100
,
0000
0010
0010
0010
,
0000
0001
0010
0001
,
0000
1000
0010
1000
,
0000
0100
0000
0010
,
0000
0100
1000
0010
,
0000
0020
0130
0200
,
0301
1000
0100
0010
,
0000
0100
0000
0010
,
0000
0001
0000
0010
,
0000
0200
1300
2000
,
3010
0100
0001
0010
,
0000
0001
0000
1000
,
0000
0001
0000
0010
,
0000
0001
1000
0100
,
0000
0100
1000
0001
,
0000
1001
0000
0000
;

//---------------dance-single - ----------------
#NOTES:
     dance-single:
     :
     Medium:
     4:
     :
0000
0000
0000
0000
,
0000
0000
0000
0000
,
0000
0000
0000
0000
,
0000
1000
1000
0010
,
0000
0100
0100
0001
,
0000
1000
1000
0001
,
1000
0010
0010
0100
,
0010
1000
1000
0001
,
0010
0100
0100
1000
,
0000
0001
0001
1000
,
0010
0100
0100
0010
,
1000
0001
0001
0100
,
0001
0010
0100
1000
,
0000
1000
1000
0001
,
1000
0010
1000
0100
,
1000
0020
0000
0030
,
0000
0200
0000
0300
,
0000
0010
0010
0100
,
0010
1000
0010
0001
,
0010
2000
0000
3000
,
0000
0002
0000
0003
,
0000
0100
0100
0001
,
0100
0010
0100
1000
,
0100
0002
0000
0003
,
0000
0020
0000
0030
,
0000
0100
0100
1000
,
0100
0010
0100
1000
,
0001
0200
0000
0300
,
0000
0020
0000
0030
,
0000
2000
0001
3001
,
0000
0200
0001
0301
,
0000
0020
0001
0031
,
0000
1000
1000
0001
,
0000
0100
0100
0001
,
1000
0100
0100
1000
,
0010
0100
0100
0010
,
0001
0010
1000
0001
,
0000
0100
0100
0001
,
1000
0100
0100
0010
,
0001
0020
0000
0030
,
0000
0010
0100
0010
,
0000
0100
0100
1000
,
0001
0100
0100
0001
,
0010
0200
0000
0300
,
0000
1001
0000
1001
,
0000
1000
1000
0001
,
0100
0001
0001
0010
,
0100
0010
0000
0000
;

//---------------dance-single - ----------------
#NOTES:
     dance-single:
     :
     Hard:
     6:
     :
0000
0000
0000
0000
,
0000
0000
0000
0000
,
0000
0000
0000
0000
,
0000
1000
0010
0100
,
0010
1000
0001
0010
,
0001
0000
0100
0001
0010
0000
0100
0000
,
0010
0000
0001
0100
1000
0000
0100
0000
,
0010
0000
1000
0100
0010
0000
0001
0000
,
1000
0000
0001
0010
0100
1000
0010
0000
,
0000
1000
0100
1000
,
0010
0100
0001
0100
,
1000
0000
0100
0001
0010
0000
0100
0000
,
0010
0000
0001
0100
0010
1000
0100
0000
,
0000
0000
1000
0100
0010
0010
0001
0001
,
1000
1000
0100
0100
0010
0001
0100
0100
,
0010
0010
1000
0000
0001
0000
1000
0000
,
0001
0100
0001
0100
,
0001
0000
0010
0100
1000
1000
0010
0010
,
0100
0100
0001
0001
0100
0010
1000
1000
,
0001
0001
0100
0000
0010
0000
0001
0000
,
0010
1000
0100
0010
,
0010
0000
0001
0010
0100
0100
1000
1000
,
0001
0001
0010
0010
0100
1000
0010
0010
,
0100
0100
0001
0000
0100
0000
0010
0000
,
1000
0000
1010
0000
1001
0000
0001
0010
,
0000
0000
0100
1000
0010
0010
0100
0100
,
1000
1000
0010
0010
0100
0001
0010
0010
,
0100
0100
0020
0000
0001
0000
0031
0000
,
0100
0110
0011
1010
,
1001
0220
0000
0000
,
0330
2002
0000
0000
,
3000
0010
0010
0100
,
0010
1000
0100
0013
,
0000
0000
0100
1000
0010
0000
1100
0000
,
0101
0000
0010
0100
0001
0000
0011
0000
,
1010
0000
1000
0010
0100
0000
1001
0000
,
0110
0000
0010
1000
0001
0010
0100
0000
,
0000
0000
1000
0001
0100
0100
0010
0010
,
0100
0100
0001
0001
0100
0010
1000
1000
,
0001
0001
0100
0000
0010
0000
1000
0000
,
0001
1001
0101
1100
,
1000
0100
0010
0001
0100
0100
0010
0010
,
1000
1000
0001
0001
0010
0100
1000
0000
,
0010
0020
0000
0000
0031
0000
1000
0000
,
0010
0100
0010
1000
,
0100
0000
0010
0100
1000
1000
0001
0001
,
1000
1000
0001
0001
0010
0001
0100
0100
,
0010
0010
1000
0000
0000
0000
0000
0000
;

//---------------dance-double - ----------------
#NOTES:
     dance-double:
     :
     Beginner:
     1:
     :
00000000
00000000
00000000
00000000
,
00000000
00000000
00000000
00000000
,
00000000
00000000
00000000
00000000
,
00000000
00000010
00000000
00000100
,
00000000
00000010
00000000
00010000
,
00000000
00000100
00000100
00000000
,
00000000
00010000
00010000
00000000
,
00000000
00001000
00001000
00000000
,
00000000
01000000
00000000
00010000
,
00000000
10000000
10000000
00000000
,
00000000
01000000
01000000
00000000
,
00000000
00010000
00010000
00000000
,
00000000
00001000
00000000
00000010
,
00000000
00000001
00000000
00000100
,
00000000
00000001
00000000
00001000
,
00000000
00000010
00000000
00000000
,
00000000
00001000
00000000
00000000
,
00000000
00000100
00000000
00010000
,
00000000
00001000
00000000
00001000
,
00000000
00100000
00000000
00000000
,
00000000
00010000
00000000
00000000
,
00000000
10000000
00000000
00100000
,
00000000
01000000
00000000
01000000
,
00000000
00010000
00000000
00000000
,
00000000
00100000
00000000
00000000
,
00000000
00001000
00000000
00010000
,
00000000
00000100
00000000
00001000
,
00000000
00000010
00000000
00000000
,
00000000
00000010
00000000
00000000
,
00000000
00001000
00001000
00000000
,
00000000
00000100
00000100
00000000
,
00000000
00010000
00010000
00000000
,
00000000
00001000
00001000
00000000
,
00000000
00100000
00000000
00010000
,
00000000
01000000
00000000
00100000
,
00000000
10000000
00000000
00010000
,
00000000
01000000
01000000
01000000
,
00000000
00010000
00000000
01000000
,
00000000
00100000
00000000
00001000
,
00000000
00010000
00000000
00000000
,
00000000
00000100
00000000
00000000
,
00000000
00000010
00000000
00000001
,
00000000
00001000
00000000
00001000
,
00000000
00000010
00000000
00000000
,
00000000
00001000
00000000
00000000
,
00000000
00000001
00000000
00000001
,
00000000
00001000
00000000
00001000
,
00000000
00000100
00000000
00000000
;

//---------------dance-double - ----------------
#NOTES:
     dance-double:
     :
     Easy:
     3:
     :
00000000
00000000
00000000
00000000
,
00000000
00000000
00000000
00000000
,
00000000
00000000
00000000
00000000
,
00000000
00000010
00000000
00001000
,
00000000
00000100
00000000
00010000
,
00000000
00001000
00100000
00100000
,
00000000
00010000
00000000
01000000
,
00000000
00010000
10000000
10000000
,
00000000
01000000
00000000
00100000
,
00000000
00010000
00100000
00100000
,
00000000
00001000
00010000
00010000
,
00000000
00000100
00001000
00000010
,
00000000
00000100
00000001
00000010
,
00000000
00000002
00001003
00000200
,
00000310
00001000
00000100
00010000
,
00000000
00001000
00000000
00100000
,
00000000
00010000
00000000
01000000
,
00000000
00200000
10300000
20000000
,
31000000
00100000
01000000
00100000
,
00000000
00002000
00000000
00003000
,
00000000
00020000
00000000
00030000
,
00000000
00000200
00001300
00000002
,
00000103
00000010
00001000
00000010
,
00000000
00000100
00000000
00000001
,
00000000
00001000
00000000
00000010
,
00000000
00020000
00031000
02000000
,
03010000
10000000
00100000
10000000
,
00000000
00010000
00000000
00100000
,
00000000
00001000
00000000
00010000
,
00000000
00000100
00001000
00001000
,
00000000
00000010
00000001
00000001
,
00000000
00001000
00000010
00000010
,
00000000
00000100
00000100
00000100
,
00000000
00010000
00100000
00010000
,
00000000
10000000
00100000
10000000
,
00000000
00010000
00000000
10000000
,
00000000
01000000
10000000
00100000
,
00000000
02000000
03010000
00200000
,
00301000
00010000
00000100
00001000
,
00000000
00000010
00000000
00000100
,
00000000
00000001
00000000
00001000
,
00000000
00000020
00000130
00000002
,
00001003
00000100
00010000
00001000
,
00000000
00100000
00000000
00010000
,
00000000
01000000
00000000
00100000
,
00000000
10000000
00100000
01000000
,
00000000
00100000
01000000
00010000
,
00000000
01100000
00000000
00000000
;

//---------------dance-double - ----------------
#NOTES:
     dance-double:
     :
     Medium:
     5:
     :
00000000
00000000
00000000
00000000
,
00000000
00000000
00000000
00000000
,
00000000
00000000
00000000
00000000
,
00000000
00000010
00000010
00000100
,
00000000
00001000
00001000
00010000
,
00000000
00100000
00100000
10000000
,
01000000
00010000
00010000
01000000
,
00100000
00010000
00010000
00100000
,
00001000
00010000
00010000
00000100
,
00000000
00001000
00001000
00000010
,
00000100
00000001
00000001
00001000
,
00000100
00010000
00010000
00001000
,
00100000
00010000
01000000
00100000
,
00000000
01000000
01000000
00010000
,
00100000
00001000
00010000
00000010
,
00000100
00002000
00000000
00003000
,
00000000
00000200
00000000
00000300
,
00000000
00000001
00000001
00000010
,
00000100
00010000
00001000
00100000
,
00010000
02000000
00000000
03000000
,
00000000
00200000
00000000
00300000
,
00000000
10000000
10000000
00010000
,
01000000
00010000
00100000
01000000
,
10000000
00020000
00000000
00030000
,
00000000
02000000
00000000
03000000
,
00000000
00001000
00001000
00010000
,
00000010
00000100
00000001
00000100
,
00000010
00002000
00000000
00003000
,
00000000
00000200
00000000
00000300
,
00000000
00000020
00000100
00000130
,
00000000
00020000
00001000
00031000
,
00000000
02000000
00010000
03010000
,
00000000
10000000
10000000
00100000
,
00000000
10000000
10000000
00010000
,
00100000
00001000
00001000
00000100
,
00000010
00001000
00001000
00000001
,
00000100
00000010
00001000
00000100
,
00000000
00010000
00010000
00001000
,
00010000
00001000
00001000
01000000
,
00100000
20000000
00000000
30000000
,
00000000
00100000
01000000
00010000
,
00000000
10000000
10000000
01000000
,
00010000
00001000
00001000
00000100
,
00000001
00002000
00000000
00003000
,
00000000
00001001
00000000
00000110
,
00000000
00000001
00000001
00000100
,
00001000
00010000
00010000
00100000
,
10000000
00010000
00000000
00000000
;

//---------------dance-double - ----------------
#NOTES:
     dance-double:
     :
     Hard:
     7:
     :
00000000
00000000
00000000
00000000
,
00000000
00000000
00000000
00000000
,
00000000
00000000
00000000
00000000
,
00000000
00000010
00000100
00000001
,
00001000
00000100
00010000
00001000
,
00100000
00000000
00010000
01000000
00100000
00000000
10000000
00000000
,
00100000
00000000
01000000
00010000
00100000
00000000
10000000
00000000
,
01000000
00000000
00001000
00000100
00000001
00000000
00000100
00000000
,
00001000
00000000
00000010
00000100
00000001
00000010
00000100
00000000
,
00000000
00001000
00000010
00010000
,
00001000
00000100
00000001
00000010
,
00000100
00000000
00010000
00001000
01000000
00000000
00100000
00000000
,
10000000
00000000
01000000
00100000
00010000
00100000
01000000
00000000
,
00000000
00000000
10000000
01000000
00010000
01000000
00010000
00001000
,
00000010
00001000
00000010
00000001
00000100
00000010
00001000
00000100
,
00000010
00000001
00000010
00000000
00000100
00000000
00001000
00000000
,
00000010
00000100
00000010
00001000
,
00010000
00000000
00100000
10000000
01000000
00100000
01000000
10000000
,
00100000
01000000
00001000
00010000
00000100
00010000
00001000
00000100
,
00000010
00000001
00001000
00000000
00000100
00000000
00000010
00000000
,
00001000
00000010
00000001
00000100
,
00000010
00000000
00001000
00000001
00001000
00000100
00010000
00001000
,
00100000
00010000
01000000
00100000
10000000
01000000
00100000
00010000
,
10000000
01000000
00100000
00000000
01000000
00000000
10000000
00000000
,
00100000
00000000
01100000
00000000
01010000
00000000
00100000
10000000
,
00000000
00000000
01000000
10000000
00100000
00010000
00001000
00000100
,
00000010
00000001
00000010
00001000
00000100
00000010
00000001
00001000
,
00000010
00000100
00000010
00000000
00000100
00000000
00000001
00000000
,
00001000
00001100
00011000
00110000
,
11000000
10000000
00010000
00100000
,
00000000
01000000
10000000
00010000
,
00000000
00100000
00001000
00010000
,
00000100
00000010
00000100
00001000
,
00000000
00000000
00000010
00001000
00000001
00000000
00001001
00000000
,
00000011
00000000
00000001
00000010
00000100
00000000
00000110
00000000
,
00011000
00000000
00001000
00010000
01000000
00000000
01100000
00000000
,
10010000
00000000
10000000
00100000
01000000
00100000
00010000
00000000
,
00000000
00000000
00100000
10000000
01000000
00100000
00010000
00001000
,
00000100
00000010
00000001
00001000
00000010
00000100
00000001
00000100
,
00001000
01000000
10000000
00000000
01000000
00000000
00010000
00000000
,
00100000
11000000
00110000
10100000
,
00100000
01000000
00001000
00010000
00000100
00001000
00000100
00000010
,
00000001
00000100
00000010
00001000
00000100
00010000
00001000
00000000
,
00100000
00020000
00000000
00000000
10030000
00000000
00100000
00000000
,
10000000
01000000
00010000
01000000
,
00100000
00000000
00001000
00010000
00000100
00001000
00000010
00000100
,
00000001
00000010
00000100
00001000
00000100
00010000
00001000
00100000
,
00010000
00100000
01000000
00000000
00000000
00000000
00000000
00000000
;
