#TITLE:The Problem;
#ARTIST:Phunk Police;
#BANNER:The Problem.png;
#BACKGROUND:The Problem-bg.png;
#CDTITLE:./CDTITLES/Dance Dance Revolution ULTRAMIX4.png;
#MUSIC:The Problem.ogg;
#SAMPLESTART:25.881;
#SAMPLELENGTH:15;
#DISPLAYBPM:129;
#BPMS:0=129.96,4=130;

//---------------dance-single - ----------------
#NOTES:
     dance-single:
     :
     Beginner:
     1:
     :
0000
0000
0000
0000
,
0000
0000
0000
0000
,
0000
0000
0000
0000
,
0000
0000
0000
0000
,
0100
0000
0000
0000
,
0100
0000
0000
0000
,
0100
0000
0100
0000
,
0100
0000
0100
0000
,
0010
0000
0010
0000
,
0010
0000
0010
0000
,
0110
0000
0000
0000
,
0002
0000
0000
0003
,
0001
0000
0000
0000
,
2000
0000
0000
3000
,
1000
0000
1000
0000
,
1000
0000
0000
0000
,
0100
0000
0100
0000
,
0100
0000
0000
0000
,
0010
0000
0010
0000
,
0010
0000
0000
0000
,
0001
0000
0001
0000
,
0001
0000
0000
0000
,
1001
0000
0000
0000
,
0010
0000
0000
0000
,
1000
0000
0000
0000
,
0100
0000
0100
0100
,
0100
0000
0010
0000
,
0001
0000
0100
0000
,
0001
0000
0010
0000
,
0100
0000
1000
0000
,
1001
0000
0000
0000
,
0010
0000
0000
0000
,
1000
0000
0000
0000
,
0100
0000
0000
0000
,
0010
0000
0000
0000
,
0001
0000
0000
0000
,
0100
0000
0000
0000
,
0010
0000
0010
0010
,
0010
0000
1000
0000
,
0001
0000
1000
0000
,
0100
0000
0010
0000
,
0100
0000
1000
0000
,
0001
0000
0100
0000
,
0010
0000
0100
0000
,
0001
0000
1000
0000
,
0001
0000
0010
0000
,
0000
0100
0000
0100
,
0000
0010
0000
0010
,
0000
0100
0000
0100
,
0000
1000
0000
1000
,
0000
0001
0000
0001
,
0000
1000
0000
1000
,
0000
0001
0000
0001
,
0000
0100
0100
0100
;

//---------------dance-single - ----------------
#NOTES:
     dance-single:
     :
     Easy:
     3:
     :
0000
0000
0000
0000
,
0000
0000
0000
0000
,
0000
0000
0000
0000
,
0000
0000
0000
0000
,
1000
0000
0000
0000
,
0001
0000
0000
0000
,
1000
0000
0001
0000
,
1000
0000
0001
0000
,
0100
0000
0010
0000
,
0100
0000
0010
0000
,
2002
0000
3003
0000
,
0002
0000
0003
0000
,
0200
0000
0300
0000
,
2000
0000
3000
0000
,
0100
0000
0001
0000
,
0100
0001
0100
0001
,
0010
0000
0001
0000
,
0010
0001
0010
0001
,
1000
0000
0100
0000
,
1000
0100
1000
0100
,
0001
0000
0100
0000
,
0001
0100
0001
0100
,
0120
0000
0000
0030
,
0002
0000
0000
0003
,
2000
0000
0000
3000
,
0001
1000
0001
1000
,
0100
0000
0100
0000
,
0010
0100
0010
0001
,
0100
0000
0100
0000
,
0010
0100
0010
1000
,
2001
0000
0000
3000
,
0200
0000
0000
0300
,
0002
0000
0000
0003
,
0200
0000
0000
0300
,
0020
0000
0000
0030
,
0002
0000
0000
0003
,
2000
0000
0000
3000
,
0001
1000
0001
1000
,
1001
0000
0100
0000
,
0010
0010
0100
0100
,
1000
0000
0001
0000
,
0100
0100
0010
0010
,
1000
0000
0100
0000
,
0001
0001
0100
0100
,
0010
0000
0001
0000
,
1000
1000
0010
0010
,
0100
0000
0001
0100
,
0001
0000
1000
0100
,
1000
0000
0001
0010
,
0001
0000
1000
0010
,
2000
3000
0100
0010
,
0200
0300
1000
0001
,
2000
3000
0001
1000
,
0010
0100
0010
0200
,
0000
0000
0000
0300
;

//---------------dance-single - ----------------
#NOTES:
     dance-single:
     :
     Medium:
     5:
     :
0000
0000
0000
0000
,
0000
0000
0000
0000
,
0000
0000
0000
0000
,
0000
0000
0000
0000
,
2000
0000
0000
3000
,
0002
0000
0000
0003
,
1000
0000
0000
1000
0002
0000
0003
0000
,
0001
0000
0000
0001
2000
0000
3000
0000
,
0100
0000
0000
0100
0020
0000
0030
0000
,
0010
0000
0000
0010
0200
0000
0300
0000
,
2002
0000
0000
3003
,
1000
0010
0100
0001
,
0020
0000
0000
0030
,
0100
1000
0010
0100
,
0001
0100
0001
0100
,
0010
1000
0010
1000
,
0100
0010
0100
0010
,
0001
1000
0001
1000
,
0001
0000
0000
1000
0020
0000
0000
0100
,
0031
0000
0000
0001
0020
0000
0000
0100
,
1030
0000
0000
1000
0020
0000
0000
0100
,
0031
0000
0000
0001
0020
0000
0130
0000
,
1001
1000
1000
1000
,
0001
0001
0001
0001
,
0010
0010
0100
0100
,
1001
0110
1001
0110
,
1001
0100
0010
1000
,
0001
0000
0100
0000
0010
0000
1000
0001
,
1000
0100
0010
0001
,
1000
0000
0100
0000
0010
0000
0001
1000
,
0001
0000
0000
0001
0100
0000
0000
0100
,
0010
0000
0000
0010
1000
0000
0000
1000
,
0100
0000
0000
0100
0001
0000
0000
0001
,
0100
0000
0000
0100
1000
0000
0000
1000
,
0020
0000
0000
0130
0002
0000
0000
0013
,
0200
0000
0000
1300
0020
0000
0000
0130
,
0002
0000
0000
1003
0200
0000
0000
0301
,
0100
0000
1000
0000
0001
1000
0001
1000
,
0001
0100
0010
1000
,
0001
0000
0100
0000
0010
0000
1000
0001
,
1000
0100
0010
0001
,
1000
0000
0100
0000
0010
0000
0001
1000
,
0001
0100
1000
0100
,
0001
0000
1000
0000
0100
0000
0001
0100
,
1000
0010
0001
0010
,
1000
0000
0001
0000
0010
0000
1000
0010
,
0001
1000
0001
0100
,
0010
0000
1000
0000
0001
0000
0100
0010
,
1000
0010
0100
0001
,
1000
0000
0010
0000
0100
0000
0001
1000
,
0010
0001
0010
1000
,
0100
0000
0001
0000
0100
0000
1000
0010
,
0100
1000
0100
0001
,
0010
1000
0010
2002
,
0000
0000
0000
3003
;

//---------------dance-single - ----------------
#NOTES:
     dance-single:
     :
     Hard:
     8:
     :
0000
0000
0000
0000
,
0000
0000
0000
0000
,
0000
0000
0000
0000
,
0000
0000
0000
0000
,
1000
0000
0000
0000
,
0001
0000
0000
0000
,
1000
0000
0001
0000
,
1000
0000
0001
0000
,
1000
0001
1000
0001
,
1001
0000
0101
1100
,
1001
0100
0010
0100
1000
0100
0010
0100
,
1001
0000
1100
0101
,
1001
0100
0010
0100
0001
0100
0010
0100
,
1001
0000
0101
1100
,
1001
0010
1000
0100
1000
0010
1000
0100
,
1000
0001
0010
0001
0100
0001
0010
0001
,
0100
1000
0010
0000
1000
0100
0001
0000
,
1000
0100
0001
0000
0010
0001
0100
0000
,
1001
0100
0001
0010
0001
0100
0001
0010
,
0001
1000
0100
1000
0010
1000
0100
1000
,
0010
0001
0100
0000
0001
0010
1000
0000
,
0001
0010
1000
0000
0100
1000
0010
0000
,
2002
0000
0000
0003
,
0100
0001
0100
3001
,
0102
1000
0100
1003
,
0001
1000
0001
1000
0000
0100
0000
1000
0000
0001
0000
0100
0001
0100
0001
0100
,
0010
0100
0010
0100
,
0001
0010
1000
0100
,
0001
1000
0001
1000
,
0100
0001
0010
1000
,
0110
0002
0013
0001
,
0020
0130
1000
0200
,
1300
0001
0020
0031
,
0010
0200
1300
0100
,
2000
3020
2030
3020
,
0230
0302
0203
0302
,
0023
0230
2300
3002
,
1003
0000
0001
0000
0010
0100
0000
1000
0000
0001
0000
1000
0001
1000
0001
1000
,
0001
0000
0100
0000
0010
0000
1000
0000
0100
0000
0000
1000
0000
0010
0000
0000
,
0100
0000
0001
0000
0010
0000
0100
0000
1000
0100
0000
0010
0000
0001
0000
0000
,
0100
0000
0010
0000
1000
0000
0100
0000
0010
0000
0000
0100
0000
1000
0000
0000
,
0001
0000
0100
0000
0010
0000
1000
0000
0001
0100
0000
0010
0000
1000
0000
0000
,
0001
0000
0010
0000
0100
0000
1000
0000
0010
0000
0000
1000
0000
0100
0000
0000
,
0010
0000
0001
0000
0100
0000
0010
0000
1000
0010
0000
0100
0000
0001
0000
0000
,
0010
0000
0100
0000
1000
0000
0010
0000
0100
0000
0000
0010
0000
1000
0000
0000
,
0001
0000
0010
0000
0100
0000
1000
0000
0001
0010
0000
0100
0000
1000
0000
0000
,
0001
0000
1000
0000
0010
0000
0100
0000
0010
0000
1000
0100
0000
0010
0001
0000
,
0100
0000
0010
0000
1000
0000
0100
0000
1000
0001
0000
0010
0000
0100
0000
1000
,
0001
0000
1000
0000
0100
0000
0010
0000
0100
0000
1000
0010
0000
0100
0001
0000
,
0010
0000
0100
0000
1000
0000
0010
0000
1000
0001
0000
0100
0000
0010
0000
1000
,
0001
0000
0100
0000
0001
0000
1000
0001
1000
0000
0001
0010
0000
0001
0100
0000
,
0010
0000
1000
0000
0100
0000
0010
0001
1000
0001
0000
0010
0000
0100
0000
1000
,
0001
0000
1000
0000
0010
0100
0010
1000
0010
0000
1000
0001
0000
1000
0100
0000
,
0010
0001
1000
0010
0110
0000
2002
0000
,
0000
0000
0000
3003
;

//---------------dance-double - ----------------
#NOTES:
     dance-double:
     :
     Beginner:
     1:
     :
00000000
00000000
00000000
00000000
,
00000000
00000000
00000000
00000000
,
00000000
00000000
00000000
00000000
,
00000000
00000000
00000000
00000000
,
00000010
00000000
00000000
00000000
,
00000010
00000000
00000000
00000000
,
00000010
00000000
00000010
00000000
,
00000010
00000000
00000010
00000000
,
00000100
00000000
00000100
00000000
,
00000100
00000000
00000100
00000000
,
00000110
00000000
00000000
00000000
,
00000002
00000000
00000000
00000003
,
00000001
00000000
00000000
00000000
,
00002000
00000000
00000000
00003000
,
00001000
00000000
00001000
00000000
,
00001000
00000000
00000000
00000000
,
00000100
00000000
00000100
00000000
,
00000100
00000000
00000000
00000000
,
00010000
00000000
00010000
00000000
,
00010000
00000000
00000000
00000000
,
00001000
00000000
00001000
00000000
,
00001000
00000000
00000000
00000000
,
00011000
00000000
00000000
00000000
,
00010000
00000000
00000000
00000000
,
00100000
00000000
00000000
00000000
,
10000000
00000000
00010000
00010000
,
00010000
00000000
00100000
00000000
,
01000000
00000000
10000000
00000000
,
01000000
00000000
00010000
00000000
,
00001000
00000000
00010000
00000000
,
00011000
00000000
00000000
00000000
,
00001000
00000000
00000000
00000000
,
00000100
00000000
00000000
00000000
,
00000001
00000000
00000000
00000000
,
00001000
00000000
00000000
00000000
,
00000001
00000000
00000000
00000000
,
00000010
00000000
00000000
00000000
,
00000100
00000000
00000100
00000100
,
00000100
00000000
00001000
00000000
,
00000100
00000000
00010000
00000000
,
00001000
00000000
00100000
00000000
,
00010000
00000000
10000000
00000000
,
00010000
00000000
01000000
00000000
,
00100000
00000000
00010000
00000000
,
00001000
00000000
00010000
00000000
,
00001000
00000000
00000100
00000000
,
00000000
00000001
00000000
00000001
,
00000000
00001000
00000000
00001000
,
00000000
00000010
00000000
00000010
,
00000000
00010000
00000000
00010000
,
00000000
00001000
00000000
00001000
,
00000000
00100000
00000000
00100000
,
00000000
00010000
00000000
00010000
,
00000000
01000000
01000000
01000000
;

//---------------dance-double - ----------------
#NOTES:
     dance-double:
     :
     Easy:
     3:
     :
00000000
00000000
00000000
00000000
,
00000000
00000000
00000000
00000000
,
00000000
00000000
00000000
00000000
,
00000000
00000000
00000000
00000000
,
00010000
00000000
00000000
00000000
,
00001000
00000000
00000000
00000000
,
00010000
00000000
00001000
00000000
,
00010000
00000000
00001000
00000000
,
00100000
00000000
01000000
00000000
,
00100000
00000000
01000000
00000000
,
20020000
00000000
30030000
00000000
,
00200000
00000000
00300000
00000000
,
00002000
00000000
00003000
00000000
,
00020000
00000000
00030000
00000000
,
00001000
00000000
00000100
00000000
,
00001000
00000100
00001000
00000100
,
00000001
00000000
00001000
00000000
,
00000001
00001000
00000001
00001000
,
00000100
00000000
00000010
00000000
,
00000100
00000010
00000100
00000010
,
00001000
00000000
00010000
00000000
,
00010000
00001000
00010000
00001000
,
00021000
00000000
00000000
00030000
,
02000000
00000000
00000000
03000000
,
20000000
00000000
00000000
30000000
,
00010000
10000000
00010000
10000000
,
00100000
00000000
01000000
00000000
,
00010000
01000000
00001000
00010000
,
00001000
00000000
00010000
00000000
,
00000100
00001000
00000100
00000010
,
00000210
00000000
00000000
00000300
,
00000020
00000000
00000000
00000030
,
00000002
00000000
00000000
00000003
,
00000200
00000000
00000000
00000300
,
00002000
00000000
00000000
00003000
,
00020000
00000000
00000000
00030000
,
02000000
00000000
00000000
03000000
,
10000000
00010000
10000000
00010000
,
10010000
00000000
10000000
00000000
,
00100000
00100000
01000000
01000000
,
00010000
00000000
00010000
00000000
,
00100000
00100000
00001000
00001000
,
00010000
00000000
00010000
00000000
,
00000100
00000100
00001000
00001000
,
00000001
00000000
00000001
00000000
,
00000100
00000100
00000010
00000010
,
00001000
00000000
00000100
00001000
,
00000100
00000000
00010000
00001000
,
00010000
00000000
01000000
00010000
,
01000000
00000000
10000000
01000000
,
20000000
30000000
00010000
00100000
,
00020000
00030000
01000000
00010000
,
02000000
03000000
00001000
00010000
,
00001000
00010000
00001000
00000200
,
00000000
00000000
00000000
00000300
;

//---------------dance-double - ----------------
#NOTES:
     dance-double:
     :
     Medium:
     5:
     :
00000000
00000000
00000000
00000000
,
00000000
00000000
00000000
00000000
,
00000000
00000000
00000000
00000000
,
00000000
00000000
00000000
00000000
,
00000002
00000000
00000000
00000003
,
00002000
00000000
00000000
00003000
,
00000001
00000000
00000000
00000001
00000200
00000000
00000300
00000000
,
00000010
00000000
00000000
00000010
00002000
00000000
00003000
00000000
,
00000100
00000000
00000000
00000100
00000020
00000000
00000030
00000000
,
00001000
00000000
00000000
00001000
00020000
00000000
00030000
00000000
,
00022000
00000000
00000000
00033000
,
00010000
01000000
10000000
00010000
,
20000000
00000000
00000000
30000000
,
00100000
01000000
00100000
00010000
,
00001000
00010000
00001000
00010000
,
00000100
00001000
00000100
00001000
,
00000001
00000010
00000001
00000010
,
00000001
00001000
00000001
00001000
,
00000100
00000000
00000000
00010000
00000200
00000000
00000000
00010300
,
00001000
00000000
00000000
00001000
00200000
00000000
00000000
00310000
,
10000000
00000000
00000000
10000000
02000000
00000000
00000000
03100000
,
00010000
00000000
00000000
00010000
00200000
00000000
00301000
00000000
,
00011000
00010000
00010000
00010000
,
00001000
00001000
00001000
00001000
,
00000100
00000100
00000010
00000010
,
00001010
00000101
00000011
00001100
,
00001001
00000001
00000100
00001000
,
00010000
00000000
01000000
00000000
00100000
00000000
00010000
10000000
,
00010000
10000000
01000000
00010000
,
00001000
00000000
00000100
00000000
00000010
00000000
00001000
00000001
,
00001000
00000000
00000000
00001000
00000100
00000000
00000000
00000100
,
00000010
00000000
00000000
00000010
00001000
00000000
00000000
00001000
,
00010000
00000000
00000000
00010000
01000000
00000000
00000000
01000000
,
10000000
00000000
00000000
10000000
00100000
00000000
00000000
01000000
,
00020000
00000000
00000000
00130000
00002000
00000000
00000000
00013000
,
00000200
00000000
00000000
00001300
00000020
00000000
00000000
00000130
,
00000002
00000000
00000000
00001003
00000200
00000000
00000000
00000301
,
00000100
00000000
00001000
00000000
00000010
00000100
00000010
00000100
,
00000010
00001000
00000001
00000100
,
00000010
00000000
00001000
00000000
00000100
00000000
00010000
00001000
,
01000000
00010000
10000000
00100000
,
01000000
00000000
00010000
00000000
00100000
00000000
00001000
00010000
,
00000010
00000100
00000001
00000010
,
00000100
00000000
00000010
00000000
00001000
00000000
00010000
00001000
,
00100000
01000000
10000000
00100000
,
01000000
00000000
00100000
00000000
00010000
00000000
00001000
00010000
,
00000100
00000010
00000001
00000100
,
00000010
00000000
00000100
00000000
00001000
00000000
00010000
00001000
,
01000000
00100000
10000000
01000000
,
00100000
00000000
01000000
00000000
00010000
00000000
00001000
00010000
,
00000100
00001000
00000001
00000010
,
00001000
00000000
00000010
00000000
00000100
00000000
00010000
00001000
,
00010000
01000000
10000000
00100000
,
00010000
00001000
00010000
00022000
,
00000000
00000000
00000000
00033000
;

//---------------dance-double - ----------------
#NOTES:
     dance-double:
     :
     Hard:
     8:
     :
00000000
00000000
00000000
00000000
,
00000000
00000000
00000000
00000000
,
00000000
00000000
00000000
00000000
,
00000000
00000000
00000000
00000000
,
00000001
00000000
00000000
00000000
,
00001000
00000000
00000000
00000000
,
00010000
00000000
10000000
00000000
,
00010000
00000000
00001000
00000000
,
00000001
00001000
00010000
00001000
,
00011000
00000000
00101000
00010100
,
00001100
00001000
00000010
00000100
00000010
00000001
00000010
00000100
,
00000101
00000000
00001100
00011000
,
01010000
00010000
00100000
01000000
00100000
10000000
00100000
01000000
,
11000000
00000000
00110000
00101000
,
00011000
00001000
00100000
00001000
00010000
00001000
00100000
00001000
,
00010000
00000100
00001000
00000100
00010000
00000100
00001000
00000100
,
00000010
00001000
00000001
00000000
00001000
00000010
00000100
00000000
,
00001000
00000010
00000100
00000000
00000001
00000100
00001000
00000000
,
00011000
00010000
00000010
00010000
00001000
00010000
00000010
00010000
,
00001000
01000000
00010000
01000000
00001000
01000000
00010000
01000000
,
00100000
00010000
10000000
00000000
00010000
00100000
01000000
00000000
,
00010000
00100000
01000000
00000000
10000000
01000000
00010000
00000000
,
00022000
00000000
00000000
00030000
,
01000000
00010000
01000000
00013000
,
00020100
00001000
00000100
00031000
,
00010000
00000000
00001000
00000000
00000100
00000000
00000001
00000000
00000100
00000000
00000010
00000000
00001000
00000001
00001000
00000001
,
00001000
00000001
00001000
00000010
00000100
00000010
00001000
00000100
,
00010000
00000100
00001000
00000010
00000100
00001000
00010000
00100000
,
10000000
00010000
10000000
01000000
00100000
01000000
10000000
00010000
,
01000000
00001000
01000000
00010000
00100000
01000000
00010000
00001000
,
00010000
00001000
00000010
00000001
,
00001000
00000001
00000010
00000100
00001000
00000001
00000100
00000010
,
00000100
00001000
00010000
01000000
,
10000000
00010000
01000000
00100000
10000000
00010000
00100000
01000000
,
00200000
02300000
03020000
00032000
,
00013000
00001000
00000100
00000010
00001000
00000001
00001000
00000100
,
00000020
00002030
00023000
02030000
,
13000000
00000000
00100000
00000000
00010000
00000000
00100000
00000000
01000000
00000000
00010000
00000000
10000000
00010000
10000000
00010000
,
10000000
00010000
10000000
00100000
01000000
00100000
10000000
00010000
,
00100000
00001000
00100000
00010000
01000000
00001000
00010000
00000100
,
00001000
00000001
00001000
00000100
00000010
00000100
00001000
00000010
,
00010000
00000100
00001000
00000100
00010000
00000010
00000100
00001000
,
00010000
00000000
00001000
00000000
00100000
00000000
00010000
00000000
01000000
00000000
00010000
00000000
00100000
01000000
00100000
00000000
,
10000000
00000000
00100000
00000000
00010000
00000000
01000000
00000000
00001000
00000000
00010000
00000000
00000010
00001000
00000010
00000000
,
00000100
00000000
00000001
00000000
00001000
00000000
00000001
00000000
00000010
00000000
00000100
00000000
00001000
00000010
00001000
00000000
,
00000100
00000000
00010000
00000000
00001000
00000000
00010000
00000000
00100000
00000000
01000000
00000000
00010000
10000000
00010000
00000000
,
10000000
00010000
10000000
01000000
00100000
01000000
10000000
00010000
,
01000000
00001000
01000000
00010000
01000000
00001000
00010000
00000010
,
00001000
00000001
00001000
00000010
00000100
00000010
00001000
00000100
,
00010000
00000010
00001000
00000010
00010000
00000100
00000010
00001000
,
00010000
00000000
00001000
00000000
01000000
00000000
00010000
00000000
00100000
00000000
00010000
00000000
01000000
00100000
01000000
00000000
,
10000000
00000000
01000000
00000000
00010000
00000000
00100000
00000000
00001000
00000000
00010000
00000000
00000100
00001000
00000100
00000000
,
00000010
00000000
00000001
00000000
00001000
00000000
00000001
00000000
00000100
00000000
00000010
00000000
00001000
00000100
00001000
00000000
,
00010100
00011000
01001000
02200000
,
00000000
00000000
00000000
03300000
;
