#TITLE:The Drain;
#ARTIST:Monolithic;
#BANNER:The Drain.png;
#BACKGROUND:The Drain-bg.png;
#CDTITLE:./CDTITLES/Dance Dance Revolution ULTRAMIX4.png;
#MUSIC:The Drain.ogg;
#SAMPLESTART:9.257;
#SAMPLELENGTH:15;
#BPMS:0=130;

//---------------dance-single - ----------------
#NOTES:
     dance-single:
     :
     Beginner:
     1:
     :
0000
0000
0000
0000
,
0000
0000
0000
0000
,
0000
0000
0000
0000
,
0000
0000
0000
0000
,
0000
0000
0000
0000
,
0001
0000
0000
0000
,
1000
0000
0000
0000
,
0001
0000
0000
0000
,
1000
0000
0000
0000
,
0010
0010
0000
0000
,
0100
0100
0000
0000
,
0010
0010
0010
0000
,
0100
0100
0100
0000
,
0001
0000
0001
0000
,
0001
0000
0000
0000
,
1000
0000
1000
0000
,
1000
0000
0000
0000
,
0000
0001
0001
0001
,
0000
1000
1000
1000
,
0000
0001
0000
0001
,
0000
0001
0000
0000
,
2000
0000
0000
3000
,
1000
0000
0000
0000
,
0002
0000
0000
0003
,
0001
0000
0000
0000
,
0002
0000
0000
0003
,
0001
0000
0000
0000
,
2000
0000
0000
3000
,
1000
0000
0000
0000
,
1001
0000
0000
0000
,
0100
0000
0000
0000
,
0100
0000
0000
0000
,
0100
0000
0000
0000
,
0010
0000
0010
0000
,
0100
0000
0100
0000
,
0001
0000
0000
0000
,
1000
0000
0000
0000
,
0100
0000
0100
0000
,
0010
0000
0010
0000
,
0001
0001
0000
0000
,
1000
1000
0000
0000
,
0001
0000
0001
0000
,
1000
0000
1000
0000
,
0001
0000
0001
0000
,
1000
0000
1000
0000
,
1000
0000
0000
0000
,
0010
0000
0010
0000
,
0100
0000
0100
0000
,
0010
0000
0000
0000
,
1000
0000
1000
0000
,
0001
0000
0001
0000
,
0100
0000
0100
0000
,
0001
0000
0001
0000
,
1001
0000
0000
0000
;

//---------------dance-single - ----------------
#NOTES:
     dance-single:
     :
     Easy:
     3:
     :
0000
0000
0000
0000
,
0000
0000
0000
0000
,
0000
0000
0000
0000
,
0000
0000
0000
0000
,
0000
0000
0000
0000
,
1000
0000
1000
0000
,
0001
0000
0001
0000
,
1000
0000
1000
0000
,
0001
0000
0001
0000
,
1000
1000
1000
0000
,
0001
0001
0001
0000
,
0010
0000
0100
0000
,
0010
0000
0100
0000
,
1001
0001
0001
0000
,
0000
1000
1000
1000
,
0000
0001
1000
0001
,
0010
0100
0010
0000
,
0001
0000
0001
0000
,
1000
0000
1000
0000
,
0010
0010
0010
0010
,
0010
0100
0100
0000
,
0010
0000
0000
0100
,
0000
0000
0000
0100
,
0001
0000
0000
0000
,
1000
0000
0000
1000
,
0100
0000
0000
0100
,
0001
0000
0000
0001
,
0010
0000
0000
0000
,
0100
0000
0000
0000
,
0210
0000
0000
0300
,
0020
0000
0000
0030
,
0210
0000
0000
0300
,
0010
0000
0000
0000
,
0001
1000
0001
0000
,
1000
0001
1000
0000
,
0010
0010
0010
0000
,
0100
0100
0100
0000
,
0010
0000
1000
0000
,
0001
0000
0100
0000
,
0001
0100
0001
0000
,
1000
0100
1000
0000
,
1001
0000
0010
0000
,
0200
0000
0000
0300
,
0020
0000
0000
0030
,
2000
0000
3000
0000
,
0001
0000
0001
0000
,
1000
0000
1000
0000
,
0010
0000
0010
0000
,
0100
0000
0000
0000
,
1001
0000
0001
0000
,
0001
0000
1000
0000
,
1000
0000
0010
0000
,
0010
0000
0100
0000
,
1001
0000
0000
0000
;

//---------------dance-single - ----------------
#NOTES:
     dance-single:
     :
     Medium:
     5:
     :
0000
0000
0000
0000
,
0000
0000
0000
0000
,
0000
0000
0000
0000
,
0000
0000
0000
0000
,
0000
0000
0000
0000
,
1001
1000
0001
0001
,
1000
1000
0100
0100
,
0010
0010
0001
0001
,
0100
0100
0110
0000
,
1000
0000
0010
1000
0100
0000
0100
0000
,
0000
0000
0010
0001
0100
0000
0010
0000
,
1000
0010
0100
0001
,
1000
0001
1001
0000
,
0010
0000
0100
0001
0010
0000
0011
0000
,
0000
0000
0100
1000
0010
0000
1010
0000
,
0000
0000
1000
0001
1000
0000
0010
0000
,
0100
0010
0100
0000
,
0000
0000
0010
0100
0010
0000
0110
0000
,
0000
0000
0001
1000
0001
0000
1001
0000
,
0110
0000
0011
0000
,
1100
0000
1000
0100
1000
0000
0000
0000
,
1000
0100
1000
0100
,
0010
0001
0010
0001
,
0100
0001
0100
0001
,
1000
0010
1000
0010
,
0100
0001
0100
0001
,
1000
0100
1000
0100
,
0010
0001
0010
0001
,
1000
1000
0000
0001
0000
0000
0001
1000
,
1002
0000
0000
0003
,
2000
0000
0000
3000
,
0200
0000
0000
0300
,
0002
0000
0000
0003
,
0210
1000
0001
1300
,
0120
0001
1000
0031
,
2001
0010
0100
3010
,
1001
0002
0100
0000
0010
0000
0103
0000
,
1001
0100
0001
1000
,
1001
0100
1000
0001
,
0010
0100
0001
1000
,
0100
0010
0001
1000
,
1001
0020
0000
0130
,
1001
0200
0000
0310
,
1001
0020
0000
0130
,
1001
0000
0000
0000
0100
0000
0000
0000
1000
0000
0000
0100
0000
0000
0001
0000
,
0010
0100
1000
0100
,
0010
0001
0100
0010
,
1000
0000
0001
0000
0100
0100
0100
0000
,
0120
0000
0000
0030
,
1000
0000
0001
0000
1000
1000
1000
0000
,
0001
0000
1000
0000
0001
0001
0001
0000
,
0010
0000
0100
0000
0010
0010
0010
0000
,
0100
0000
0010
0000
0100
0100
0100
0000
,
1001
0000
0000
0000
;

//---------------dance-single - ----------------
#NOTES:
     dance-single:
     :
     Hard:
     7:
     :
0000
0000
0000
0000
,
0000
0000
0000
0000
,
0000
0000
0000
0000
,
0000
0000
0000
0000
,
0000
0000
0000
0000
,
0010
0000
0001
1000
0010
0000
0101
0000
,
1000
1000
0001
0010
0100
0000
1100
0000
,
1000
0000
0010
0100
1000
0000
0001
0100
,
0010
0000
0100
0000
0010
0001
0100
0010
,
0100
0100
0010
1000
0100
0000
1000
0000
,
0010
0010
0100
0001
0010
0000
0001
0000
,
0100
0000
0010
0100
1000
0000
1000
0100
,
0001
0000
0010
0000
0100
0000
1000
0001
,
1001
0000
0010
1000
0100
0010
0001
0010
,
0100
0000
0010
1000
0010
0100
0001
1000
,
0100
0000
0010
0001
1000
0000
0100
0001
,
1000
0010
0100
0001
1000
0000
0010
0100
,
1000
1000
0100
0200
0001
0000
1300
0000
,
0001
0001
0100
0200
1000
0000
0301
0000
,
1000
0000
1000
0100
0100
0000
0010
0001
,
0100
0000
0010
1000
0100
0000
0000
0000
,
0010
0000
0100
0000
0010
1000
0100
0000
,
0010
0000
0100
0000
0010
0001
0100
0000
,
0001
1000
0010
0001
,
0100
1000
0010
0100
,
1001
0000
0010
0000
0001
0001
0100
0000
,
1001
0000
0010
0000
1000
1000
0100
0000
,
1001
0000
0010
0001
0100
0000
0000
0000
,
0010
0100
0000
0001
0000
0000
0100
0100
,
1002
0000
0000
0000
,
0023
0000
0000
0000
,
0230
0000
0000
0000
,
2300
0000
0000
0000
3001
1000
0001
1000
,
0001
0001
0010
0100
1000
0010
0100
0100
,
1000
0100
0001
0010
0100
1000
0010
0100
,
0010
1000
0010
0100
0001
0010
0011
0000
,
1000
0100
0010
0001
0010
0100
1000
0001
,
1000
0000
0010
0000
0100
0100
0001
0010
,
0001
0000
0101
0000
1000
0010
1000
0000
,
0010
1000
0100
0000
0010
0001
0100
0000
,
0010
0100
0001
0010
0100
1000
0001
0100
,
0010
0000
0011
0000
0010
0001
0010
0000
,
1000
0000
1100
0000
0100
1000
0100
0000
,
0001
0000
0101
0000
0010
1000
0010
0000
,
1000
0000
0000
0000
1010
0000
0000
0000
0011
0000
0000
1100
0000
0000
0010
0000
,
1001
0100
0001
1000
,
0010
1000
0001
0000
0100
1000
0001
0000
,
0010
0001
0100
0000
0100
1000
0010
0000
,
0001
1000
0100
0020
0000
0100
0000
0030
,
1000
1000
0100
0000
0001
1000
0001
0000
,
1000
1000
0001
1000
0100
1000
0010
0001
,
0100
1000
0010
0000
0001
0001
0100
0000
,
1000
0001
0010
1000
0100
0001
0010
1000
,
1001
0000
0000
0000
;

//---------------dance-double - ----------------
#NOTES:
     dance-double:
     :
     Beginner:
     1:
     :
00000000
00000000
00000000
00000000
,
00000000
00000000
00000000
00000000
,
00000000
00000000
00000000
00000000
,
00000000
00000000
00000000
00000000
,
00000000
00000000
00000000
00000000
,
10000000
00000000
00000000
00000000
,
00010000
00000000
00000000
00000000
,
10000000
00000000
00000000
00000000
,
01000000
00000000
00000000
00000000
,
00010000
00010000
00000000
00000000
,
00001000
00001000
00000000
00000000
,
00000100
00000100
00000100
00000000
,
00000010
00000010
00000010
00000000
,
00001000
00000000
00001000
00000000
,
00001000
00000000
00000000
00000000
,
00000001
00000000
00000001
00000000
,
00000001
00000000
00000000
00000000
,
00000000
00000100
00000100
00000100
,
00000000
00001000
00001000
00001000
,
00000000
00010000
00000000
00010000
,
00000000
00010000
00000000
00000000
,
00002000
00000000
00000000
00003000
,
00001000
00000000
00000000
00000000
,
00200000
00000000
00000000
00300000
,
00100000
00000000
00000000
00000000
,
02000000
00000000
00000000
03000000
,
01000000
00000000
00000000
00000000
,
20000000
00000000
00000000
30000000
,
10000000
00000000
00000000
00000000
,
10010000
00000000
00000000
00000000
,
10000000
00000000
00000000
00000000
,
01000000
00000000
00000000
00000000
,
00010000
00000000
00000000
00000000
,
00001000
00000000
00001000
00000000
,
00010000
00000000
00010000
00000000
,
00001000
00000000
00000000
00000000
,
00000100
00000000
00000000
00000000
,
00000001
00000000
00000001
00000000
,
00001000
00000000
00001000
00000000
,
00000010
00000010
00000000
00000000
,
00000100
00000100
00000000
00000000
,
00000001
00000000
00000001
00000000
,
00001000
00000000
00001000
00000000
,
00000100
00000000
00000100
00000000
,
00010000
00000000
00010000
00000000
,
00010000
00000000
00000000
00000000
,
00010000
00000000
00010000
00000000
,
01000000
00000000
01000000
00000000
,
00100000
00000000
00000000
00000000
,
00010000
00000000
00010000
00000000
,
10000000
00000000
10000000
00000000
,
00100000
00000000
00100000
00000000
,
10000000
00000000
10000000
00000000
,
10010000
00000000
00000000
00000000
;

//---------------dance-double - ----------------
#NOTES:
     dance-double:
     :
     Easy:
     3:
     :
00000000
00000000
00000000
00000000
,
00000000
00000000
00000000
00000000
,
00000000
00000000
00000000
00000000
,
00000000
00000000
00000000
00000000
,
00000000
00000000
00000000
00000000
,
10000000
00000000
01000000
00000000
,
00010000
00000000
00001000
00000000
,
00000100
00000000
00000001
00000000
,
00001000
00000000
00001000
00000000
,
00000010
00000010
00000010
00000000
,
00000100
00000100
00000100
00000000
,
00001000
00000000
00010000
00000000
,
00001000
00000000
00010000
00000000
,
01100000
00100000
00100000
00000000
,
00000000
01000000
01000000
01000000
,
00000000
00010000
10000000
00010000
,
10000000
01000000
00010000
00000000
,
00001000
00000000
00001000
00000000
,
00010000
00000000
00010000
00000000
,
00000010
00000010
00000010
00000010
,
00000010
00001000
00001000
00000000
,
00000001
00000000
00000000
00000100
,
00000000
00000000
00000000
00001000
,
00010000
00000000
00000000
00000000
,
01000000
00000000
00000000
10000000
,
00100000
00000000
00000000
00010000
,
00001000
00000000
00000000
00000010
,
00000001
00000000
00000000
00000000
,
00001000
00000000
00000000
00000000
,
00021000
00000000
00000000
00030000
,
00002000
00000000
00000000
00003000
,
00021000
00000000
00000000
00030000
,
00001000
00000000
00000000
00000000
,
00100000
00010000
00100000
00000000
,
01000000
10000000
01000000
00000000
,
00010000
00010000
00010000
00000000
,
00001000
00001000
00001000
00000000
,
00000100
00000000
00000001
00000000
,
00001000
00000000
00000010
00000000
,
00001000
00000100
00001000
00000000
,
00010000
00001000
00010000
00000000
,
00011000
00000000
00100000
00000000
,
02000000
00000000
00000000
03000000
,
00200000
00000000
00000000
00300000
,
00020000
00000000
00030000
00000000
,
10000000
00000000
10000000
00000000
,
01000000
00000000
01000000
00000000
,
00010000
00000000
00010000
00000000
,
00001000
00000000
00000000
00000000
,
00001001
00000000
00000100
00000000
,
00000100
00000000
00001000
00000000
,
00001000
00000000
00010000
00000000
,
00001000
00000000
00010000
00000000
,
00011000
00000000
00000000
00000000
;

//---------------dance-double - ----------------
#NOTES:
     dance-double:
     :
     Medium:
     6:
     :
00000000
00000000
00000000
00000000
,
00000000
00000000
00000000
00000000
,
00000000
00000000
00000000
00000000
,
00000000
00000000
00000000
00000000
,
00000000
00000000
00000000
00000000
,
01000000
00000000
00010000
10000000
02000000
00000000
03100000
00000000
,
00001000
00000000
00010000
00000010
00002000
00000000
00003001
00000000
,
00000100
00000000
00000001
00000010
00000200
00000000
00010300
00000000
,
00002000
00003200
00000302
00000003
,
00000010
00000000
00000100
00010000
00002000
00000000
01003000
00000000
,
00010000
00000000
00100000
01000000
20000000
00000000
30010000
00000000
,
01000000
00000000
00100000
10000000
02000000
00000000
03010000
00000000
,
00001000
00010000
00011000
00000000
,
00001000
00000100
00000001
00000101
,
00000100
00000010
00010000
00011000
,
00001000
00100000
01000000
11000000
,
10000000
00100000
00010000
00011000
,
00000000
00000000
00001000
01000000
00010000
00000000
00010000
00000000
,
00000000
00000000
00100000
01000000
10000000
00000000
10000000
00000000
,
00010000
01010000
10000000
11000000
,
01000000
00010000
00011000
00000000
,
00001000
00000000
00001000
00000000
00000000
00010000
00000100
00000000
,
00000010
00000000
00000010
00000000
00000000
00000001
00000100
00000000
,
00001000
00000000
00001000
00000000
00000000
00010000
01000000
00000000
,
10000000
00000000
10000000
00000000
00000000
00100000
01000000
00000000
,
00010000
00000000
00010000
00000000
00000000
10000000
01000000
00000000
,
00100000
00000000
00100000
00000000
00000000
00001000
00010000
00000000
,
00000010
00000000
00000010
00000000
00000000
00001000
00000100
00000000
,
00001000
00000001
00001000
00000001
,
00000200
00000000
00000000
00000300
,
00002000
00000000
00000000
00003000
,
00020000
00000000
00000000
00030000
,
02000000
00000000
00000000
03000000
,
10000000
00000000
10100000
00000000
00000000
01000000
00010000
00000000
,
00100000
00000000
00110000
00000000
00000000
01000000
10000000
00000000
,
00010000
00000000
10010000
00000000
00000000
00100000
01000000
00000000
,
00001000
00000000
00011000
00000000
00000000
00010000
00000100
00000000
,
00000010
00000000
00000011
00000000
00000000
00000001
00000100
00000000
,
00000010
00000000
00001010
00000000
00000000
00000100
00000001
00000000
,
00001000
00000000
00001100
00000000
00000000
00000100
00010000
00000000
,
00001000
00000000
00011000
00000000
00000000
00010000
00001000
00000000
,
01000000
00000000
01001000
00000000
00010000
00100000
01000000
00000000
,
10000000
00000000
10100000
00000000
00100000
01000000
00001000
00000000
,
00010000
00000000
00010100
00000000
00001000
00000010
00000100
00000000
,
00000001
00000000
00000000
00000000
00000011
00000000
00000000
00000000
00000100
00000000
00000000
00000100
00000000
00000000
00000100
00000000
,
00000010
00000000
00000001
00000000
00000100
00000010
00001000
00000000
,
00000010
00000000
00001000
00000000
00000100
00000010
00000001
00000000
,
00000100
00000000
00001000
00000000
00010000
00001000
00010000
00000000
,
00022000
00000000
00033000
00000000
,
00001000
00000000
00000000
00000000
01000000
00000000
00000000
00010000
00000000
00000000
00000000
00000000
01000000
00000000
00000000
00000000
,
00100000
00000000
00000000
00000000
10000000
00000000
00000000
01000000
00000000
00000000
00000000
00000000
00100000
00000000
00000000
00000000
,
00001000
00000000
00000000
00000000
00010000
00000000
00000000
00000100
00000000
00000000
00000000
00000000
00000010
00000000
00000000
00000000
,
00000100
00000000
00000100
00000000
00000001
00001000
00000001
00000200
,
00000000
00000000
00000000
00000300
;

//---------------dance-double - ----------------
#NOTES:
     dance-double:
     :
     Hard:
     8:
     :
00000000
00000000
00000000
00000000
,
00000000
00000000
00000000
00000000
,
00000000
00000000
00000000
00000000
,
00000000
00000000
00000000
00000000
,
00000000
00000000
00000000
00000000
,
00001000
00000000
00010000
00000000
00001000
00000000
00000000
00000100
00000000
00000000
00000001
00000000
00000010
00000000
00000000
00000000
,
00000100
00000000
00010000
00000000
00000100
00000000
00000000
00001000
00000000
00000000
00000010
00000000
00000100
00000000
00000000
00000000
,
00000001
00000000
00000010
00000000
00001000
00000000
00000000
00010000
00000000
00000000
00001000
00000000
00010000
00000000
00000000
00000000
,
00100000
00000000
10000000
00000000
00010000
00000000
00000000
00100000
00000000
00000000
01000000
00000000
10000000
00000000
00000000
00000000
,
00000000
00000000
00100000
10000000
02000000
00000000
03010000
00000000
,
00000000
00000000
00001000
00000100
00000002
00000000
00000013
00000000
,
00000100
00010000
00001000
00100000
00010000
10000000
01000000
00000000
,
01100000
10010000
02200000
03300000
,
00100000
00000000
10000000
00000000
01000000
00000000
00000000
00100000
00000000
00000000
00001000
00000000
00010000
00000000
00000000
00000000
,
00100000
00000000
10000000
00000000
00010000
00000000
00000000
00100000
00000000
00000000
00001000
00000000
00010000
00000000
00000000
00000000
,
00001000
00000000
01000000
00000000
00001000
00000000
00000000
00010000
00000000
00000000
00000100
00000000
00000010
00000000
00000000
00000000
,
00000001
00000000
00001000
00000000
00000001
00000000
00000000
00000010
00000000
00000000
00000100
00000000
00010000
00000000
00000000
00000000
,
00000000
00000000
01000000
10000000
00200000
00000000
00310000
00000000
,
00000000
00000000
00001000
00000010
00000002
00000000
00000103
00000000
,
00000010
00010000
00001000
00010000
00000100
00001000
00000010
00000000
,
00000110
00001001
00000220
00000330
,
00000010
00000000
00000000
00000000
00000001
00000000
00001000
00000100
00000000
00000000
00010000
00000000
00001000
00000000
00000000
00000000
,
00000100
00000000
00000000
00000000
00000001
00000000
00000010
00000100
00000000
00000000
00010000
00000000
00001000
00000000
00000000
00000000
,
01000000
00000000
00000000
00000000
00100000
00000000
10000000
01000000
00000000
00000000
00100000
00000000
00001000
00000000
00000000
00000000
,
00010000
00000000
00000000
00000000
01000000
00000000
10000000
00010000
00000000
00000000
01000000
00000000
00001000
00000000
00010000
00000000
,
00100000
00000000
00000000
00000000
10000000
00000000
01000000
00100000
00000000
00000000
00001000
00000000
00010000
00000000
00000010
00000000
,
00001000
00000000
00000000
00000000
00000001
00000000
00000010
00000100
00000000
00000000
00010000
00000000
00000010
00000000
00001000
00000000
,
00000100
00000000
00000000
00000000
00000010
00000000
00000001
00000100
00000000
00000000
00001000
00000000
00010000
00000000
00001000
00000000
,
01000000
00000000
00000000
00000000
00100000
00000000
10000000
00010000
00000000
00000000
00100000
00000000
01000000
00000000
00000000
00000000
,
20000000
00000000
00000000
30000000
,
00020000
00000000
00000000
00030000
,
00002000
00000000
00000000
00003000
,
00000002
00000000
00000000
00000003
,
00000010
00000100
00000010
00000001
00001000
00000001
00000100
00000100
,
00000010
00010000
00001000
00000010
00001000
00010000
00000010
00000000
,
00000100
00000001
00000010
00001000
00010000
00100000
10000000
10000000
,
01000000
00100000
00001000
00100000
01000000
10000000
00100000
00000000
,
01000000
00001000
00010000
01000000
00100000
00001000
00010000
00010000
,
00001000
00000010
00001000
00010000
00000100
00000010
00000001
00000000
,
00000010
00000100
00010000
00000010
00000100
00000001
00000010
00000010
,
00000001
00001000
00000100
00010000
00001000
00100000
01000000
00000000
,
10000000
00010000
00100000
00001000
01000000
00100000
10000000
10000000
,
01000000
00010000
00001000
00100000
00001000
00010000
00000010
00000010
,
00010000
00001000
00000100
00001000
00010000
00000100
00001000
00001000
,
00000001
00000000
00000100
00000000
00000010
00000000
00000100
00000000
00001001
00000000
00000000
00011000
00000000
00000000
10010000
00000000
,
10010000
00000000
00000000
00000000
01000000
00000000
00000000
10000000
00000000
00000000
00010000
00000000
01000000
00000000
00000000
00000000
,
00100000
00000000
00000000
00000000
00010000
00000000
00000000
00001000
00000000
00000000
00010000
00000000
00001000
00000000
00000000
00000000
,
00000010
00000000
00000000
00000000
00000001
00000000
00000000
00000100
00000000
00000000
00000001
00000000
00001000
00000000
00000000
00000000
,
00002002
00000000
00000000
00003003
,
00000001
00000000
00000100
00000000
00000001
00000000
00001000
00000100
00000000
00000000
00010000
00000000
00001000
00000000
00000000
00000000
,
00100000
00000000
01000000
00000000
10000000
00000000
00010000
01000000
00000000
00000000
00001000
00000000
00010000
00000000
00000000
00000000
,
00000010
00000000
00001000
00000000
00000100
00000000
00000010
00000001
00000000
00000000
00001000
00000000
00000010
00000000
00000000
00000000
,
00010000
00000000
00001000
00000000
00010000
00001000
00000100
00000002
,
00000000
00000000
00000000
00000003
;
