#TITLE:Stompin at the Gotham;
#ARTIST:WaveGroup feat. Scott D.;
#BANNER:Stompin at the Gotham.png;
#BACKGROUND:Stompin at the Gotham-bg.png;
#CDTITLE:./CDTITLES/Dance Dance Revolution ULTRAMIX4.png;
#MUSIC:Stompin at the Gotham.ogg;
#SAMPLESTART:14.067;
#SAMPLELENGTH:15;
#DISPLAYBPM:125:250;
#BPMS:0=188.08,235.5=124.9,259.5=249.8;

//---------------dance-single - ----------------
#NOTES:
     dance-single:
     :
     Beginner:
     1:
     :
0000
0000
0000
0000
,
0000
0000
0000
0000
,
0000
0000
0000
0000
,
2000
0000
0000
3000
,
0000
0000
0000
0000
,
0002
0000
0000
0003
,
0000
0000
0000
0000
,
0001
0000
0001
0000
,
0020
0000
0000
0030
,
0010
0010
0000
0000
,
0000
0000
0000
0000
,
1001
0000
0000
1000
,
0000
0001
0000
0001
,
0001
0001
0001
0001
,
0001
0001
0001
0000
,
0000
1000
0000
1000
,
0000
0001
0000
0001
,
0001
0000
1000
0000
,
2000
0000
3000
0000
,
0010
0000
0000
0100
,
0000
0100
0000
0100
,
0200
0000
0000
0300
,
0000
0000
0000
0000
,
0110
0000
0000
0010
,
0000
0010
0000
0100
,
0100
0000
0100
0000
,
0100
0000
0000
0000
,
0001
0001
0001
0000
,
0001
0000
0001
0000
,
1000
0000
1000
0000
,
1000
0000
1000
0000
,
0100
0100
0100
0000
,
0100
0000
0100
0000
,
0010
0010
0010
0000
,
0010
0000
0010
0000
,
0001
0000
0001
0000
,
0001
0000
0001
0000
,
0100
0000
0100
0000
,
0100
0000
0100
0000
,
0001
0001
0000
0001
,
0000
0001
0000
1000
,
1000
1000
0000
0010
,
0020
0000
0000
0030
,
0010
0000
0000
0000
,
0100
0000
0100
0000
,
0002
0000
0000
0003
,
0000
0000
0000
0000
,
2000
0000
0000
3000
,
0000
0000
0000
0000
,
0001
0000
0001
0000
,
1000
0000
1000
0000
,
0010
0000
0000
0000
,
0100
0000
0000
0000
,
0001
0000
0000
0000
,
1000
0000
0000
0000
,
1001
0000
0000
0000
,
1001
0000
0000
0000
,
0010
0000
0010
0000
,
0010
0000
0000
0000
0000
0000
0000
0100
,
0000
0000
0000
0010
0000
0000
0000
0100
,
0000
0000
0000
0001
0000
0001
0000
0002
,
0000
0000
0000
0000
0000
0003
0000
0001
,
0000
0000
0000
0000
0000
0000
0000
2000
,
0000
0000
0000
0000
0000
3000
0000
1000
,
0000
0000
0000
0000
0000
0000
0000
0010
,
0000
0000
0000
0010
0000
0000
0000
0010
,
0000
0000
0000
0000
0000
0000
0000
0100
,
0000
0000
0000
0100
0000
0000
0000
0100
,
0000
0000
0000
0000
0000
0000
0000
0001
,
0000
0000
0000
0001
0000
0000
0000
0001
,
0000
0000
0000
0000
0000
0000
0000
1000
,
0000
0000
0000
1000
0000
0000
0000
0000
,
0000
0000
0000
0000
0000
0000
0000
0001
,
0000
0000
0000
0001
0000
0000
0000
0001
,
0000
0000
0000
0000
0000
0000
0000
1000
,
0000
0000
0000
1000
0000
0000
0000
1000
,
0000
0000
0000
0000
0000
0000
0000
0001
,
0000
0000
0000
1000
0000
0000
0000
0001
,
0000
0000
0000
1000
0000
0000
0000
0000
,
0000
1001
0000
0000
0000
0000
0000
0000
,
0000
0000
0000
0000
0000
1001
0000
0000
;

//---------------dance-single - ----------------
#NOTES:
     dance-single:
     :
     Easy:
     3:
     :
0000
0000
0000
0000
,
0000
0000
0000
0000
,
0000
0000
0000
0000
,
2000
3000
0002
0003
,
2000
0000
3000
0000
,
0020
0030
0200
0300
,
0020
0000
0030
0000
,
0002
0003
2000
3000
,
0020
0000
0000
0030
,
1000
0002
0000
0000
,
0000
0000
0000
0003
,
1000
0001
0000
0001
,
0000
1000
0000
0010
,
0010
0010
0010
0100
,
0100
0100
0100
0000
,
1000
0001
0000
0001
,
0000
1000
0000
0100
,
0020
0030
0002
0003
,
2000
0000
3000
0000
,
0010
0100
0000
0100
,
0000
0010
0000
0010
,
2000
0000
0000
0000
,
0000
0000
0000
3000
,
1000
0000
0001
0000
,
0001
0000
1000
0000
,
0200
0300
0200
0300
,
0020
0000
0030
0000
,
0002
0000
0203
0000
,
0320
0000
2030
0000
,
3002
1003
2000
3001
,
1000
0000
0001
0000
,
0200
0000
0320
0000
,
0230
0000
0310
0010
,
1000
0000
0001
0000
,
0010
0001
1000
0100
,
0010
0000
0010
0000
,
0100
0000
0100
0000
,
1000
0000
1000
0000
,
0001
0000
0001
0000
,
1000
1000
0000
0010
,
0000
0010
0000
1000
,
0100
0100
0010
0001
,
2000
0000
0000
3000
,
0001
0000
0000
0000
,
0010
0000
0010
0000
,
2000
0000
0000
3000
,
0100
0000
0100
0000
,
0002
0000
0000
0003
,
0100
0000
0100
0000
,
0010
0000
1000
0000
,
0100
0000
0001
0000
,
0020
0000
0000
0030
,
0200
0000
0000
0300
,
2000
0000
0000
3000
,
0020
0000
0000
0030
,
0200
0000
0000
0300
,
0002
0000
0000
0003
,
1000
0000
0001
0000
,
0010
0000
0000
0000
0000
0000
0000
1001
,
0000
0000
0000
0010
0000
0000
0000
0100
,
0000
0000
0000
1000
0000
0001
0000
0200
,
0000
0000
0000
0000
0000
0300
0000
0020
,
0000
0000
0000
0000
0000
0030
0000
0002
,
0000
0000
0000
0000
0000
0003
0000
2000
,
0000
0000
0000
0000
0000
3000
0000
0010
,
0000
0000
0000
0010
0000
0000
0000
0010
,
0000
0000
0000
0000
0000
0000
0000
0100
,
0000
0000
0000
0100
0000
0000
0000
0100
,
0000
0000
0000
0000
0000
0000
0000
0010
,
0000
0000
0000
0010
0000
0000
0000
0010
,
0000
0000
0000
0000
0000
0000
0000
1001
,
0000
0000
0000
0000
,
0000
0000
0000
0000
0000
0000
0000
0001
,
0000
0000
0000
0100
0000
0000
0000
1000
,
0000
0000
0000
0000
0000
0000
0000
1000
,
0000
0000
0000
0010
0000
0000
0000
0001
,
0000
0000
0000
0000
0000
0000
0000
0001
,
0000
0000
0000
1001
0000
0000
0000
1000
,
0000
0000
0000
1001
0000
0000
0000
0000
,
0000
0200
0000
0000
0000
0000
0000
0000
,
0000
0000
0000
0300
0000
0010
0000
0000
;

//---------------dance-single - ----------------
#NOTES:
     dance-single:
     :
     Medium:
     6:
     :
0000
0000
0000
0000
,
0000
0000
0000
0000
,
0000
0000
0000
0000
,
2000
0000
0000
3000
0002
0000
0000
0003
,
0010
0000
0000
0100
0000
1000
0100
0000
,
0002
0000
0000
0003
2000
0000
0000
3000
,
0010
0000
0000
0100
0000
0001
0100
0000
,
0020
0000
0000
0030
0002
0000
0000
0003
,
1000
0000
0000
0100
0000
0010
0100
0000
,
0002
2000
0000
0000
,
0000
0000
0000
3003
,
0010
0110
1000
0001
,
1000
1001
0010
0001
,
1000
1010
0001
0011
,
1000
1100
0001
0101
,
1100
0010
0101
0001
,
0100
0001
1000
0100
,
0010
0010
0100
0200
,
1000
0301
0010
0000
,
0001
1001
0010
0110
,
0010
1000
0100
0010
,
0200
0001
1000
0301
,
0100
0010
0100
1000
0100
0000
0000
0000
,
1000
0000
1001
0000
1000
0100
1000
0000
,
0001
0000
1001
0000
0001
0010
0001
0000
,
0010
0011
0100
1100
,
0110
0000
0000
0000
,
0001
0010
0100
1000
,
0010
0100
0001
0100
,
0010
1000
0100
0020
,
0001
0000
0031
0000
,
1000
0100
0010
0001
,
0100
0010
1000
0100
,
1000
0010
0100
0001
,
0010
0100
1000
0100
,
1000
1100
0001
0101
,
1000
1010
0001
0011
,
0001
0100
0001
0100
,
0010
1000
0010
1000
,
0001
0011
1000
1010
,
0001
0101
1000
1100
,
1000
0000
0001
0000
1000
0001
0000
0000
,
0010
0100
0010
0100
0000
0000
0000
1002
,
0000
0000
0100
0000
,
0010
0000
0103
0100
,
0010
1000
0100
1000
,
0010
0100
0001
0001
,
0010
0001
0100
0001
,
0010
0100
1000
1000
,
0002
0000
0000
0003
0002
0000
0000
0003
,
2000
0000
0000
3000
2000
0000
0000
3000
,
0002
0000
0100
0003
2000
0000
0100
3000
,
0002
0000
0010
0003
2000
0000
0010
3000
,
0200
0000
0001
0300
0020
0000
1000
0030
,
0200
0000
0001
0300
0020
0000
1000
0030
,
0200
0000
1000
0300
0020
0000
0001
0030
,
0200
0000
1000
0300
0020
0000
0001
0030
,
0011
0000
1100
0000
,
1010
0000
0000
0000
0000
0001
0000
1001
,
0000
0001
0000
1001
0000
1000
0000
1100
,
0000
0101
0000
1100
0000
0101
0000
0010
,
0000
0100
0000
0010
0000
0100
0010
1000
,
0000
0001
0000
1000
0000
0001
1000
0010
,
0000
0100
0000
0010
0000
0100
0000
0020
,
0000
0100
0000
0100
0000
0130
0000
0110
,
0000
0000
0000
0001
0000
0100
0000
1000
,
0000
0100
0000
0001
0000
0000
0000
0110
,
0000
0000
0000
1000
0000
0100
0000
0001
,
0000
0100
0000
1000
0000
0000
0000
1001
,
0000
0000
0000
0010
0000
0001
0000
0100
,
0000
0001
0000
0010
0000
0100
0000
1000
,
0000
0002
0000
0000
0000
0000
0000
0000
,
0000
0000
0000
0000
0000
0003
0000
0001
,
0000
1000
0000
0100
0000
1000
0000
0001
,
0000
0100
0000
0001
0000
0000
0000
1000
,
0000
0010
0000
1000
0000
0001
0000
0100
,
0000
0010
0000
0100
0000
0001
0000
1000
,
0000
0000
0000
1100
0000
0000
0000
0001
,
0000
0000
0000
0101
0000
0000
0000
0000
,
0000
0110
0000
0000
0000
0000
0000
0000
,
0000
0000
0000
0000
0000
1001
0000
0000
;

//---------------dance-single - ----------------
#NOTES:
     dance-single:
     :
     Hard:
     9:
     :
0000
0000
0000
0000
,
0000
0000
0000
0000
,
0000
0000
0000
0000
,
0020
0000
0032
0000
,
0203
0000
0000
1300
0000
0001
0010
0000
,
0200
0000
0302
0000
,
0023
0000
0000
0130
0000
1000
0010
0000
,
0200
0000
0302
0000
,
2003
0000
0000
3010
0000
1000
0001
0000
,
1001
2002
0000
0000
,
0000
0000
0000
0000
0003
3001
1000
0010
,
1000
0000
1010
0000
0001
0100
0001
0100
,
0000
0001
0000
0010
1000
0010
0001
0100
,
0010
1000
0010
0100
0010
0001
0010
0100
,
1000
0100
0010
0100
0001
0001
1000
1000
,
0010
0000
0101
0000
0010
1000
0010
1000
,
0000
0100
0000
0010
0100
1000
0010
1000
,
0100
0010
0001
0100
1000
0100
0001
1000
,
0000
0010
0100
0001
0000
0001
0010
0100
,
1000
0000
0011
0000
0100
1000
0100
1000
,
0000
0001
0000
0100
1000
0100
0001
0010
,
0200
0320
0032
2003
,
3001
0100
0010
0100
0001
1000
1000
0001
,
0100
0000
1010
0000
0001
0100
0010
1000
,
1000
0100
1000
0000
0010
0000
1000
0100
,
0010
0001
0100
0010
0001
0100
1000
0100
,
0010
1000
0100
0010
0000
0100
0001
1000
,
1000
0000
0000
0000
0000
0000
0000
0000
0002
0000
0000
0000
0000
0000
0000
0000
0000
0000
0000
0000
0000
0000
0000
0000
0000
0000
0000
0000
0000
0010
0000
0000
,
0003
0000
0000
0000
0000
0010
0000
0000
0001
0000
0000
0000
0000
0001
0000
0000
0010
0000
0000
0000
0000
0100
0000
0000
0000
0000
0000
0000
0000
0000
0000
0000
,
1000
0000
0010
0100
0010
0000
1000
0000
,
0200
0000
0000
0000
0000
0000
0000
0000
0000
0000
0000
0000
0000
0000
0310
0000
0000
0000
0000
0000
0000
0001
0000
0000
0010
0000
0000
0000
0000
0001
0000
0000
,
0000
0000
0000
0000
0000
1000
0000
0000
0010
0000
0000
0000
0000
0010
0000
0000
1000
0000
0000
0000
0000
0002
0000
0000
0000
0000
0000
0000
0000
0000
0003
0000
,
0100
0000
0000
0000
0000
0010
0000
0000
0001
0000
0000
0000
0000
0001
0000
0000
0010
0000
0000
0000
0000
0200
0000
0000
0000
0000
0000
0000
0000
0010
0300
0000
,
0000
0000
0000
0000
0000
0010
0000
0000
0100
0000
0000
0000
0000
0100
0000
0000
0010
0000
0000
0000
0000
2000
0000
0000
0000
0000
0000
0000
0000
0020
3000
0000
,
0000
0000
0000
0000
0000
2000
0030
0000
0000
0000
0000
0000
0000
0000
0000
0000
3001
0000
0000
0000
1000
0000
0000
0000
0100
0000
0000
0000
0010
0000
0000
0000
,
0010
0000
0001
0000
1000
1000
0100
1000
,
1000
0100
1000
0000
0001
0000
0010
0010
,
0001
0000
1010
0000
0001
0001
0100
0001
,
0001
0100
0001
0000
1000
0010
1000
1000
,
0010
0000
0101
0000
1000
1000
0010
1000
,
1000
0010
1000
0000
0010
0000
0100
0001
,
0101
0000
0011
0000
0100
1000
0000
0000
,
0010
0000
0100
0000
0001
0000
1000
0000
0000
0000
0000
0000
0000
0000
0001
1000
,
0001
0000
0010
0100
2000
0000
3010
0100
,
0002
0000
0013
0100
1000
1000
0001
0000
,
0011
0000
0000
0000
0001
0000
0000
0000
1000
0000
0000
0000
0010
0000
0000
0000
0000
0000
0000
0000
0000
0101
0000
0000
0000
0000
0000
0000
0000
1100
0000
0000
,
0000
0000
0000
0000
0000
0101
0000
0000
0000
0000
0000
0000
0001
0000
0000
0000
0010
0000
0000
0000
0000
0000
0000
0000
1100
0000
0000
0000
0000
0000
0000
0000
,
1010
0000
0000
0000
1000
0000
0000
0000
0001
0000
0000
0000
0010
0000
0000
0000
0000
0000
0000
0000
0000
1100
0000
0000
0000
0000
0000
0000
0000
0101
0000
0000
,
0000
0000
0000
0000
0000
1100
0000
0000
0000
0000
0000
0000
0100
0000
0000
0000
0001
0000
0000
0000
0000
0000
0000
0000
1000
0000
0000
0000
0000
0000
0000
0000
,
0100
1000
0001
0100
,
0001
0100
0010
1000
,
0001
0010
0100
1000
0100
0010
0001
0010
,
0100
1000
0100
0010
0001
0010
0100
1000
,
0100
0010
0001
0100
0010
1000
0001
0100
,
0010
1000
0001
0100
0010
1000
0001
0010
,
1000
0100
1000
0010
0001
0010
1000
0100
,
1000
0010
0001
0010
1000
0100
1000
0010
,
1000
0100
0010
0001
0100
0010
1000
0100
,
0010
0001
0100
0010
0000
1000
0000
0201
,
0000
0310
0000
1020
0000
0130
0000
0102
,
0003
0012
0003
1001
1000
1010
1000
2100
,
0000
0000
3001
0000
0000
0000
0021
0000
0000
0032
0000
0000
2003
0000
3200
0000
,
0000
0000
0301
0000
0000
0000
1200
0000
0000
2300
0000
0000
3002
0000
0013
0000
,
0000
0000
0110
0000
0000
0000
1001
0000
0000
1001
0000
0000
0110
0000
0220
0000
,
0000
0000
0000
0000
0330
0000
0010
0100
0010
0100
0010
0100
0010
0100
0001
0000
,
0000
0100
0000
0001
0000
1000
0000
0100
,
0000
1000
0000
0001
0010
0100
0000
1000
,
0000
0010
0000
1000
0000
0001
0000
0010
,
0000
0001
0000
1000
0100
0010
0000
0002
,
0000
0100
0000
1000
0000
0103
0000
2000
,
0000
0100
0000
3001
0100
0010
0000
0000
,
0000
2001
0000
0000
0000
0000
0000
3001
,
1000
0001
1000
0001
0000
0000
0000
1010
,
0000
0001
0000
0010
0000
0200
1000
0000
,
0001
0000
1300
0010
0000
0100
0000
0001
,
0000
0100
0000
1000
0000
0200
0001
0000
,
1000
0300
0001
0100
0000
0010
0000
1000
,
0000
0010
0000
1010
0000
0000
0000
0001
,
0000
0010
0000
0011
0000
0000
0000
0000
,
0000
1100
0000
0001
0100
0000
0000
1010
,
0000
1000
0100
0000
0000
0220
0000
0000
,
0000
0000
0000
0000
,
0000
0330
0000
0000
;

//---------------dance-single - ----------------
#NOTES:
     dance-single:
     :
     Challenge:
     9:
     :
0000
0000
0000
0000
,
0000
0000
0000
0000
,
0000
0000
0000
0000
,
0022
0030
2000
3000
,
0200
0000
0303
0001
0000
1000
0100
0000
,
2200
0300
0002
0003
,
0020
0000
3030
1000
0000
0001
0100
0000
,
2002
3003
0220
0330
,
2002
0000
3003
0110
0000
0001
1000
0000
,
0020
0200
0000
0000
,
0000
0000
0000
0030
0300
1000
0100
0001
,
0010
0000
1100
0000
1000
0001
0020
0100
,
0000
0100
0000
0130
0100
1000
0001
0100
,
0002
0010
0100
0013
,
2100
3010
0102
0013
,
1000
0001
0100
0000
0010
1000
0002
0100
,
0000
0100
0000
0103
0100
0010
1000
0001
,
0020
0000
0130
0010
0002
0000
0013
1000
,
0000
1000
0010
0002
0000
0103
0001
1000
,
0000
0000
1001
0000
0001
0000
2000
0100
,
0000
0100
0000
3100
1000
0010
0100
0001
,
2000
0000
0001
0001
,
3001
0001
0010
0010
0100
0100
1000
0001
,
1000
0000
0110
0000
0001
0010
0200
1000
,
0000
1000
0000
1300
0100
0010
1000
0010
,
0001
0100
0000
0000
0100
0001
0000
0000
0010
1000
0000
0000
1000
0010
0000
0000
,
0100
1000
0010
2000
0000
0001
0001
3001
,
1001
0000
0000
0000
0000
0100
0000
0000
1000
0000
0000
0000
0000
0000
0000
0000
1001
0000
0000
0000
0000
0100
0000
0000
0001
0000
0000
0000
0000
0000
0000
0000
,
1000
0000
0000
0000
0000
1000
0000
0000
0010
0000
0000
0000
0000
0010
0000
0000
0100
0000
0000
0000
0000
0001
0000
0000
0010
0000
0000
0000
0000
0010
0000
0000
,
0100
0000
1000
0010
0200
0000
0310
0000
,
0220
0000
0000
0000
0000
0000
0000
0000
0000
0000
0000
0000
0000
0000
0000
0000
0000
0000
0330
0000
0000
0010
0000
0000
1000
0000
0000
0000
0000
1000
0000
0000
,
0100
0000
0000
0000
0000
0100
0000
0000
0010
0000
0000
0000
0000
0001
0000
0000
0100
0000
0000
0000
0000
0002
0000
0000
0000
0000
0000
0000
0000
0010
0003
0000
,
0001
0000
0000
0000
0000
0001
0000
0000
1000
0000
0000
0000
0000
1000
0000
0000
0100
0000
0000
0000
0000
0020
0000
0000
0000
0000
0000
0000
0000
0001
0030
0000
,
0000
0000
0000
0000
0000
1000
0000
0000
0010
0000
0000
0000
0000
0010
0000
0000
0100
0000
0000
0000
0000
0002
0000
0000
0000
0000
0000
0000
0000
2000
0003
0000
,
0000
0000
0000
0000
0000
0002
3000
0000
0000
0000
0000
0000
1003
0000
0000
0000
0001
0000
0000
0000
0001
0000
0000
0000
1000
0000
0000
0000
1000
0000
0000
0000
,
1100
0000
0101
0000
0010
0100
0001
0200
,
0000
0320
0000
0031
0010
0100
0001
0010
,
0011
0000
1010
0000
0100
0010
1000
0020
,
0000
0230
0000
1300
0100
0010
1000
0100
,
1100
0000
0011
0000
0100
1000
0010
0200
,
0000
0320
0000
0130
0001
0010
0100
1000
,
1001
0000
0110
0000
1001
1001
0000
0000
,
1000
0000
0010
0000
0200
0000
0002
0000
0000
0000
0300
0000
0003
0000
1000
0100
,
2000
0000
3001
0100
0002
0000
1003
0100
,
2000
0000
3001
0100
0101
0000
1100
0000
,
0001
0000
0000
0000
0010
0000
0000
0000
0100
0000
0000
0000
1100
0000
0000
0000
0000
0000
0000
0000
0000
1001
0000
0000
0000
0000
0000
0000
0000
0110
0000
0000
,
0000
0000
0000
0000
0000
0011
0000
0000
0000
0000
0000
0000
0100
0000
0000
0000
1000
0000
0000
0000
0000
0000
0000
0000
0001
0000
0000
0000
0000
0000
0000
0000
,
1000
0000
0000
0000
0010
0000
0000
0000
0100
0000
0000
0000
0101
0000
0000
0000
0000
0000
0000
0000
0000
1001
0000
0000
0000
0000
0000
0000
0000
0110
0000
0000
,
0000
0000
0000
0000
0000
1010
0000
0000
0000
0000
0000
0000
0100
0000
0000
0000
0001
0000
0000
0000
0000
0000
0000
0000
0020
0000
0000
0000
0000
0000
0000
0000
,
0100
0100
0100
0130
,
1000
0001
1000
0001
,
1000
0000
0000
0000
0000
0100
0000
0000
0000
0000
1000
0000
0000
0000
0100
0000
0000
0000
0000
0000
0000
1000
0000
0000
0000
0000
0100
0000
0000
0000
0000
0000
0010
0000
0000
0000
0000
0001
0000
0000
0000
0000
0010
0000
0000
0000
0001
0000
0000
0000
0000
0000
0000
0010
0000
0000
0000
0000
0001
0000
0000
0000
0000
0000
,
1000
0000
0000
0000
0000
0100
0000
0000
0000
0000
1000
0000
0000
0000
0001
0000
0000
0000
0000
0000
0000
0010
0000
0000
0000
0000
0001
0000
0000
0000
0000
0000
1000
0000
0000
0000
0000
0100
0000
0000
0000
0000
1000
0000
0000
0000
0001
0000
0000
0000
0000
0000
0000
0010
0000
0000
0000
0000
0001
0000
0000
0000
0000
0000
,
1000
0010
0001
0010
0100
1000
0100
0001
,
0010
1000
0010
0100
0001
0100
1000
0010
,
0100
0000
0000
0000
0000
0001
0000
0000
0000
0000
0100
0000
0000
0000
0001
0000
0000
0000
0000
0000
0000
0100
0000
0000
0000
0000
0001
0000
0000
0000
0000
0000
1000
0000
0000
0000
0000
0010
0000
0000
0000
0000
1000
0000
0000
0000
0010
0000
0000
0000
0000
0000
0000
1000
0000
0000
0000
0000
0010
0000
0000
0000
0000
0000
,
0100
0000
0000
0000
0000
0001
0000
0000
0000
0000
0100
0000
0000
0000
0010
0000
0000
0000
0000
0000
0000
1000
0000
0000
0000
0000
0010
0000
0000
0000
0000
0000
0100
0000
0000
0000
0000
0001
0000
0000
0000
0000
0100
0000
0000
0000
0010
0000
0000
0000
0000
0000
0000
1000
0000
0000
0000
0000
0010
0000
0000
0000
0000
0000
,
0100
0001
0010
1000
0010
0000
0100
0001
,
0100
0010
0001
2000
0000
0002
3003
1001
,
0000
0100
0000
0110
0000
0010
0000
1001
,
0000
1001
0000
1000
0001
1000
0001
2000
,
0000
0000
3020
0000
0000
0000
0230
0000
0000
0302
0000
0000
1003
0000
0200
0000
,
0000
0000
0320
0000
0000
0000
0032
0000
0000
1003
0000
0000
0010
0000
0100
0000
,
0101
0000
1000
0000
1100
0000
0010
0000
0001
1000
0000
0100
0010
0000
0001
0000
,
0001
0000
0100
0010
0000
0010
0100
0000
0001
0010
0000
0100
1000
0000
0100
0000
,
0000
1000
0000
0010
0000
0200
0001
0000
,
0001
0300
0001
0100
0000
0010
0000
1000
,
0000
1100
0000
0001
0000
0101
0000
1000
,
0000
1100
0000
0001
0000
0101
0000
0010
,
0000
1000
0000
0100
0000
0020
0001
0000
,
0001
0030
0001
0010
0000
0100
0000
1000
,
0000
1010
0000
0001
0000
0011
0000
1000
,
0000
1010
0000
0001
0000
0011
0000
0100
,
1000
0010
0000
0100
0010
2000
0001
0000
,
0001
3000
0001
1000
0100
0010
0001
1000
,
0000
1010
0000
0100
0000
0101
0000
0010
,
0000
1010
0000
0100
0000
0101
0000
0020
,
0000
0030
0000
2200
0000
3300
0000
0020
,
0000
0030
0000
0202
0000
0303
0000
0000
,
0000
1010
0000
0101
1001
0000
0000
0011
,
0000
1100
1001
0000
0000
0200
0000
0000
,
0000
0000
0000
0000
,
0000
0000
0000
0300
0000
0000
0000
0000
;

//---------------dance-double - ----------------
#NOTES:
     dance-double:
     :
     Beginner:
     1:
     :
00000000
00000000
00000000
00000000
,
00000000
00000000
00000000
00000000
,
00000000
00000000
00000000
00000000
,
00020000
00000000
00000000
00030000
,
00000000
00000000
00000000
00000000
,
00002000
00000000
00000000
00003000
,
00000000
00000000
00000000
00000000
,
00010000
00000000
00010000
00000000
,
00002000
00000000
00000000
00003000
,
00001000
00001000
00000000
00000000
,
00000000
00000000
00000000
00000000
,
00001001
00000000
00000000
00001000
,
00000000
00000001
00000000
00000100
,
00000100
00000100
00000000
00000100
,
00000100
00000100
00000100
00000000
,
00000000
00001000
00000000
00001000
,
00000000
00010000
00000000
00010000
,
00010000
00000000
00001000
00000000
,
00200000
00000000
00300000
00000000
,
00100000
00000000
00000000
00010000
,
00000000
00010000
00000000
00010000
,
00020000
00000000
00000000
00030000
,
00000000
00000000
00000000
00000000
,
10010000
00000000
00000000
10000000
,
00000000
10000000
00000000
01000000
,
01000000
00000000
01000000
00000000
,
00100000
00000000
00000000
00000000
,
01000000
01000000
01000000
00000000
,
00010000
00000000
00010000
00000000
,
00001000
00000000
00001000
00000000
,
00001000
00000000
00001000
00000000
,
00000100
00000100
00000100
00000000
,
00000100
00000000
00000100
00000000
,
00000010
00000010
00000010
00000000
,
00001000
00000000
00001000
00000000
,
00000001
00000000
00000001
00000000
,
00000100
00000000
00000100
00000000
,
00001000
00000000
00001000
00000000
,
00001000
00000000
00001000
00000000
,
00010000
00010000
00000000
00001000
,
00000000
00001000
00000000
00010000
,
00010000
00010000
00000000
00100000
,
00200000
00000000
00000000
00300000
,
00100000
00000000
00000000
00000000
,
10000000
00000000
10000000
00000000
,
00020000
00000000
00000000
00030000
,
00000000
00000000
00000000
00000000
,
20000000
00000000
00000000
30000000
,
00000000
00000000
00000000
00000000
,
01000000
00000000
01000000
00000000
,
00010000
00000000
00010000
00000000
,
00001000
00000000
00000000
00000000
,
00010000
00000000
00000000
00000000
,
00000010
00000000
00000000
00000000
,
00001000
00000000
00000000
00000000
,
00001001
00000000
00000000
00000000
,
00001001
00000000
00000000
00000000
,
00000100
00000000
00000100
00000000
,
00000100
00000000
00000000
00000000
00000000
00000000
00000000
00001000
,
00000000
00000000
00000000
00010000
00000000
00000000
00000000
00001000
,
00000000
00000000
00000000
00010000
00000000
00010000
00000000
00020000
,
00000000
00000000
00000000
00000000
00000000
00030000
00000000
00010000
,
00000000
00000000
00000000
00000000
00000000
00000000
00000000
00200000
,
00000000
00000000
00000000
00000000
00000000
00300000
00000000
00100000
,
00000000
00000000
00000000
00000000
00000000
00000000
00000000
00010000
,
00000000
00000000
00000000
00010000
00000000
00000000
00000000
00010000
,
00000000
00000000
00000000
00000000
00000000
00000000
00000000
10000000
,
00000000
00000000
00000000
10000000
00000000
00000000
00000000
10000000
,
00000000
00000000
00000000
00000000
00000000
00000000
00000000
01000000
,
00000000
00000000
00000000
01000000
00000000
00000000
00000000
01000000
,
00000000
00000000
00000000
00000000
00000000
00000000
00000000
00010000
,
00000000
00000000
00000000
00010000
00000000
00000000
00000000
00000000
,
00000000
00000000
00000000
00000000
00000000
00000000
00000000
00001000
,
00000000
00000000
00000000
00001000
00000000
00000000
00000000
00001000
,
00000000
00000000
00000000
00000000
00000000
00000000
00000000
00000100
,
00000000
00000000
00000000
00000100
00000000
00000000
00000000
00000100
,
00000000
00000000
00000000
00000000
00000000
00000000
00000000
00000001
,
00000000
00000000
00000000
00001000
00000000
00000000
00000000
00000001
,
00000000
00000000
00000000
00001000
00000000
00000000
00000000
00000000
,
00000000
00001001
00000000
00000000
00000000
00000000
00000000
00000000
,
00000000
00000000
00000000
00000000
00000000
00001001
00000000
00000000
;

//---------------dance-double - ----------------
#NOTES:
     dance-double:
     :
     Easy:
     3:
     :
00000000
00000000
00000000
00000000
,
00000000
00000000
00000000
00000000
,
00000000
00000000
00000000
00000000
,
00200000
00300000
02000000
03000000
,
00020000
00000000
00030000
00000000
,
00002000
00003000
00020000
00030000
,
00000020
00000000
00000030
00000000
,
00000200
00000300
00000020
00000030
,
00002000
00000000
00000000
00003000
,
00010000
00001000
00000000
00000000
,
00000000
00000000
00000000
00000000
,
10000000
00000000
01000000
00000000
,
00010000
00000000
00001000
00000000
,
00010000
00010000
00010000
00001000
,
00010000
00010000
00010000
00000000
,
00001000
00000000
00000100
00000000
,
00000001
00000000
00000100
00000000
,
00002000
00003000
00000002
00000003
,
00000020
00000000
00000030
00000000
,
00000010
00000100
00000000
00010000
,
00000000
00001000
00000000
00001000
,
00020000
00000000
00000000
00000000
,
00000000
00000000
00000000
00030000
,
00001000
00000000
00100000
00000000
,
00010000
00000000
00100000
00000000
,
02000000
03000000
02000000
03000000
,
20000000
00000000
30000000
00000000
,
02000000
00000000
03020000
00000000
,
00032000
00000000
00023000
00000000
,
00031000
00010000
00001000
00010000
,
00000000
00000000
00000000
00000000
,
00000120
00000000
00001000
00000000
,
00000031
00000000
00001000
00000000
,
00010000
00000000
00001000
00000000
,
00100000
00010000
10000000
01000000
,
00100000
00000000
00100000
00000000
,
01000000
00000000
01000000
00000000
,
00010000
00000000
00010000
00000000
,
00001000
00000000
00001000
00000000
,
00000100
00000100
00000000
00000100
,
00000000
00000001
00000000
00000001
,
00001000
00001000
00000001
00001000
,
00000200
00000000
00000000
00000300
,
00010000
00000000
00000000
00000000
,
00100000
00000000
10000000
00000000
,
02000000
00000000
00000000
03000000
,
00010000
00000000
00001000
00000000
,
00000200
00000000
00000000
00000300
,
00001000
00000000
00010000
00000000
,
00001000
00000000
00000010
00000000
,
00000001
00000000
00001000
00000000
,
00000002
00000000
00000000
00000003
,
00000200
00000000
00000000
00000300
,
00002000
00000000
00000000
00003000
,
00020000
00000000
00000000
00030000
,
02000000
00000000
00000000
03000000
,
20000000
00000000
00000000
30000000
,
10000000
00000000
00010000
00000000
,
00001000
00000000
00000000
00000000
00000000
00000000
00000000
00011000
,
00000000
00000000
00000000
00001000
00000000
00000000
00000000
00000010
,
00000000
00000000
00000000
00001000
00000000
00000001
00000000
00002000
,
00000000
00000000
00000000
00000000
00000000
00003000
00000000
00000200
,
00000000
00000000
00000000
00000000
00000000
00000300
00000000
00020000
,
00000000
00000000
00000000
00000000
00000000
00030000
00000000
00002000
,
00000000
00000000
00000000
00000000
00000000
00003000
00000000
00100000
,
00000000
00000000
00000000
00100000
00000000
00000000
00000000
00100000
,
00000000
00000000
00000000
00000000
00000000
00000000
00000000
01000000
,
00000000
00000000
00000000
01000000
00000000
00000000
00000000
01000000
,
00000000
00000000
00000000
00000000
00000000
00000000
00000000
10000000
,
00000000
00000000
00000000
10000000
00000000
00000000
00000000
10000000
,
00000000
00000000
00000000
00000000
00000000
00000000
00000000
10010000
,
00000000
00000000
00000000
00000000
,
00000000
00000000
00000000
00000000
00000000
00000000
00000000
00010000
,
00000000
00000000
00000000
00001000
00000000
00000000
00000000
00000010
,
00000000
00000000
00000000
00000000
00000000
00000000
00000000
00001000
,
00000000
00000000
00000000
00010000
00000000
00000000
00000000
00100000
,
00000000
00000000
00000000
00000000
00000000
00000000
00000000
00001000
,
00000000
00000000
00000000
00011000
00000000
00000000
00000000
00010000
,
00000000
00000000
00000000
00011000
00000000
00000000
00000000
00000000
,
00000000
00000020
00000000
00000000
00000000
00000000
00000000
00000000
,
00000000
00000030
00000000
00000000
00000000
00000000
00000000
00000000
;

//---------------dance-double - ----------------
#NOTES:
     dance-double:
     :
     Medium:
     6:
     :
00000000
00000000
00000000
00000000
,
00000000
00000000
00000000
00000000
,
00000000
00000000
00000000
00000000
,
20000000
00000000
00000000
30000000
02000000
00000000
00000000
03000000
,
00010000
00000000
00000000
00001000
00000000
00010000
00001000
00000000
,
00000200
00000000
00000000
00000300
00000002
00000000
00000000
00000003
,
00000010
00000000
00000000
00000001
00000000
00001000
00000001
00000000
,
00002000
00000000
00000000
00003000
00000200
00000000
00000000
00000300
,
00010000
00000000
00000000
00001000
00000000
00100000
00010000
00000000
,
20000000
00020000
00000000
00000000
,
00000000
00000000
00000000
30030000
,
00010000
00110000
10000000
01000000
,
00010000
00011000
00001000
00000100
,
00000001
00000011
00001000
00001010
,
00000001
00000101
00001000
00001100
,
00000101
00001000
00001010
00010000
,
00001000
00010000
00100000
10000000
,
01000000
00010000
01000000
00020000
,
00001000
00030010
00001000
00000000
,
00001000
00001001
00000010
00000110
,
00000010
00000001
00000100
00001000
,
00020000
00001000
00000010
00031000
,
00001000
00010000
00001000
00100000
00010000
00000000
00000000
00000000
,
10000000
00000000
10010000
00000000
10000000
01000000
10000000
00000000
,
00010000
00000000
10010000
00000000
00010000
00100000
00010000
00000000
,
00001000
00011000
00010000
00011000
,
00011000
00000000
00000000
00000000
,
00000010
00000001
00000100
00001000
,
00010000
00001000
00000100
00001000
,
00010000
00100000
10000000
02000000
,
00100000
00000000
03100000
00000000
,
00100000
10000000
01000000
00010000
,
00001000
00010000
01000000
00010000
,
00001000
00000100
00000001
00000010
,
00001000
00010000
00001000
00100000
,
00010000
01010000
10000000
11000000
,
00010000
00110000
10000000
10100000
,
00010000
01000000
00001000
00010000
,
00000010
00001000
00000001
00000100
,
00000001
00000011
00001000
00001010
,
00000001
00000101
00001000
00001100
,
00000001
00000000
00000100
00000000
00001000
00010000
00000000
00000000
,
00100000
01000000
00100000
01000000
00000000
00000000
00000000
10020000
,
00000000
00000000
01000000
00000000
,
00100000
00000000
01030000
01000000
,
00010000
10000000
01000000
00010000
,
00001000
00000100
00000001
00000001
,
00001000
00000010
00000100
00001000
,
00010000
01000000
10000000
10000000
,
00020000
00000000
00000000
00030000
00020000
00000000
00000000
00030000
,
20000000
00000000
00000000
30000000
20000000
00000000
00000000
30000000
,
02000000
03010000
00002000
00013000
,
00000200
00000310
00000002
00001003
,
00000200
00010300
00002000
00103000
,
00020000
01030000
20000000
31000000
,
00200000
00310000
02000000
03010000
,
00002000
00013000
00020000
00031000
,
00001010
00000000
00001001
00000000
,
00001100
00000000
00000000
00000000
00000000
00000001
00000000
00000110
,
00000000
00001000
00000000
00011000
00000000
00100000
00000000
00110000
,
00000000
00110000
00000000
11000000
00000000
01010000
00000000
00100000
,
00000000
01000000
00000000
00100000
00000000
10000000
01000000
00010000
,
00000000
00001000
00000000
00010000
00000000
00001000
00000100
00000001
,
00000000
00000010
00000000
00000100
00000000
00000010
00000000
00002000
,
00000000
00010000
00000000
00010000
00000000
00013000
00000000
00011000
,
00000000
00000000
00000000
00010000
00000000
01000000
00000000
10000000
,
00000000
01000000
00000000
00010000
00000000
00000000
00000000
00011000
,
00000000
00000000
00000000
00001000
00000000
00000100
00000000
00000001
,
00000000
00000100
00000000
00001000
00000000
00000000
00000000
00011000
,
00000000
00000000
00000000
00100000
00000000
00010000
00000000
01000000
,
00000000
00010000
00000000
00100000
00000000
01000000
00000000
10000000
,
00000000
00020000
00000000
00000000
00000000
00000000
00000000
10030000
,
00000000
00000000
00000000
10000000
00000000
00000000
00000000
01000000
,
00000000
00010000
00000000
00001000
00000000
00010000
00000000
00000010
,
00000000
00001000
00000000
00000010
00000000
00000000
00000000
00000001
,
00000000
00000100
00000000
00000001
00000000
00001000
00000000
00000100
,
00000000
00000010
00000000
00000100
00000000
00000001
00000000
00001000
,
00000000
00000000
00000000
00001100
00000000
00000000
00000000
00010000
,
00000000
00000000
00000000
00011000
00000000
00000000
00000000
00000000
,
00000000
01100000
00000000
00000000
00000000
00000000
00000000
00000000
,
00000000
00000000
00000000
00000000
00000000
10010000
00000000
00000000
;

//---------------dance-double - ----------------
#NOTES:
     dance-double:
     :
     Hard:
     9:
     :
00000000
00000000
00000000
00000000
,
00000000
00000000
00000000
00000000
,
00000000
00000000
00000000
00000000
,
01020000
00000000
00100000
00000000
,
10000000
00000000
00000000
01030000
00000000
00010000
00100000
00000000
,
00002100
00000000
00000010
00000000
,
00000001
00000000
00000000
00003100
00000000
00001000
00000010
00000000
,
00002200
00003300
00022000
00033000
,
00220000
00000000
00330000
00011000
00000000
00000100
00000001
00000000
,
00000020
00000200
00000000
00000000
,
00000000
00000000
00000030
00000000
00000300
00010000
00001000
01000000
,
00100000
00000000
01100000
00000000
01000000
10000000
02000000
00010000
,
00000000
00010000
00000000
03010000
01000000
00010000
10000000
01000000
,
00020000
00032000
00003020
00002030
,
00023000
00230000
00320000
00032000
,
00003010
00000000
00000110
00000000
00000100
00000001
00000200
00001000
,
00000000
00001000
00000000
00001300
00000100
00001000
00000001
00000100
,
00002000
00000000
01003000
00001000
00200000
00000000
00310000
01000000
,
00000000
01000000
00010000
00200000
00000000
01300000
00010000
00001000
,
00000000
00000000
00001001
00000000
00000010
00000001
00000020
00001000
,
00000000
00001000
00000000
00001030
00000010
00001000
00000001
00000010
,
00002000
00000000
00000000
00000000
,
00013000
00010000
00100000
00100000
10000000
10000000
01000000
00100000
,
01000000
00000000
10010000
00000000
00100000
10000000
00200000
00010000
,
00000000
00010000
00000000
00310000
00100000
00010000
10000000
00100000
,
01100000
01001000
00101000
01100000
,
01000000
00010000
00001000
00000020
00000000
00000031
00000010
00000100
,
00001000
00000000
00000000
00000000
00000000
00000000
00000000
00000000
00000020
00000000
00000000
00000000
00000000
00000000
00000000
00000000
00000000
00000000
00000000
00000000
00000000
00000000
00000000
00000000
00000000
00000000
00000030
00000000
00000000
00000100
00000000
00000000
,
00000000
00000000
00000000
00000000
00000000
00000100
00000000
00000000
00000010
00000000
00000000
00000000
00000000
00001000
00000000
00000000
00000001
00000000
00000000
00000000
00000000
00000020
00000000
00000000
00000000
00000000
00000000
00000000
00000000
00000000
00000000
00000000
,
00000130
00000000
00000001
00000100
00002000
00000000
00003001
00000000
,
00000200
00000000
00000000
00000000
00000000
00000000
00000000
00000000
00000000
00000000
00000000
00000000
00000000
00000000
00000301
00000000
00000000
00000000
00000000
00000000
00000000
00000100
00000000
00000000
00001000
00000000
00000000
00000000
00000000
00010000
00000000
00000000
,
00000000
00000000
00000000
00000000
00000000
00100000
00000000
00000000
00010000
00000000
00000000
00000000
00000000
00010000
00000000
00000000
00001000
00000000
00000000
00000000
00000000
00000200
00000000
00000000
00000000
00000000
00000000
00000000
00000000
00000001
00000300
00000000
,
00000010
00000000
00000000
00000000
00000000
00000010
00000000
00000000
00001000
00000000
00000000
00000000
00000000
00001000
00000000
00000000
00010000
00000000
00000000
00000000
00000000
02000000
00000000
00000000
00000000
00000000
00000000
00000000
00000000
10000000
03000000
00000000
,
00000000
00000000
00000000
00000000
00000000
00100000
00000000
00000000
01000000
00000000
00000000
00000000
00000000
01000000
00000000
00000000
00001000
00000000
00000000
00000000
00000000
00020000
00000000
00000000
00000000
00000000
00000000
00000000
00000000
00002000
00030000
00000000
,
00000000
00000000
00000000
00000000
00000000
00020000
00003000
00000000
00000000
00000000
00000000
00000000
00031000
00000000
00000000
00000000
00010000
00000000
00000000
00000000
00001000
00000000
00000000
00000000
00000100
00000000
00000000
00000000
00000010
00000000
00000000
00000000
,
00000011
00000000
00000110
00000000
00001000
00000100
00000001
00000020
,
00000000
00002030
00000000
00003010
00000100
00000001
00000100
00010000
,
00010100
00000000
00011000
00000000
00010000
00100000
10000000
02000000
,
00000000
03020000
00000000
01030000
00100000
10000000
00100000
00001000
,
00101000
00000000
00011000
00000000
00001000
00000100
00000001
00000020
,
00000000
00002030
00000000
00003010
00000001
00000100
00000010
00000100
,
00001001
00000000
00000110
00000000
00000010
00000100
00001000
00000000
,
00010000
00100000
01000000
00010000
00000000
10000000
00000000
00010000
,
00100000
00000000
00001000
00010000
02000000
00000000
03010000
00001000
,
00000200
00000000
00001300
00010000
01001000
00000000
00010100
00000000
,
00010000
00000000
00000000
00000000
00000010
00000000
00000000
00000000
00001000
00000000
00000000
00000000
00000200
00000000
00000000
00000000
00000000
00000000
00000000
00000000
00000000
00000002
00000300
00000000
00000000
00000000
00000000
00000000
00000000
00000200
00000003
00000000
,
00000000
00000000
00000000
00000000
00000000
00002000
00000300
00000000
00000000
00000000
00000000
00000000
00003010
00000000
00000000
00000000
00000200
00000000
00000000
00000000
00000000
00000000
00000000
00000000
00002300
00000000
00000000
00000000
00000000
00000000
00000000
00000000
,
00013000
00000000
00000000
00000000
00001000
00000000
00000000
00000000
01000000
00000000
00000000
00000000
00200000
00000000
00000000
00000000
00000000
00000000
00000000
00000000
00000000
00020000
00300000
00000000
00000000
00000000
00000000
00000000
00000000
00200000
00030000
00000000
,
00000000
00000000
00000000
00000000
00000000
20000000
00300000
00000000
00000000
00000000
00000000
00000000
31000000
00000000
00000000
00000000
00200000
00000000
00000000
00000000
00000000
00000000
00000000
00000000
02300000
00000000
00000000
00000000
00000000
00000000
00000000
00000000
,
03010000
00000010
00001000
00010000
,
00100000
00000100
00010000
00001000
,
00010000
00000000
00000000
00000000
00000000
00001000
00000000
00000000
00000000
00000000
00010000
00000000
00000000
00000000
00001000
00000000
00000000
00000000
00000000
00000000
00000000
00000000
00000000
00000000
00000000
00000000
00001000
00000000
00000000
00000000
00000000
00000000
00100000
00000000
00000000
00000000
00000000
00000000
00000000
00000000
00000000
00000000
00100000
00000000
00000000
00000000
00000000
00000000
00010000
00000000
00000000
00000000
00000000
00000000
00000000
00000000
00000000
00000000
00010000
00000000
00000000
00000000
00000000
00000000
,
10000000
00000000
00000000
00000000
00000000
00010000
00000000
00000000
00000000
00000000
10000000
00000000
00000000
00000000
00010000
00000000
00000000
00000000
00000000
00000000
00000000
00000000
00000000
00000000
00000000
00000000
00010000
00000000
00000000
00000000
00000000
00000000
01000000
00000000
00000000
00000000
00000000
00000000
00000000
00000000
00000000
00000000
01000000
00000000
00000000
00000000
00001000
00000000
00000000
00000000
00000000
00000000
00000000
00000000
00000000
00000000
00000000
00000000
00001000
00000000
00000000
00000000
00000000
00000000
,
00010000
00000000
00000000
00000000
00000000
00001000
00000000
00000000
00000000
00000000
00010000
00000000
00000000
00000000
00001000
00000000
00000000
00000000
00000000
00000000
00000000
00000000
00000000
00000000
00000000
00000000
00000100
00000000
00000000
00000000
00000010
00000000
00000000
00000000
00000000
00000000
00000000
00000100
00000000
00000000
00000000
00000000
00000010
00000000
00000000
00000000
00001000
00000000
00000000
00000000
00000000
00000000
00000000
00000000
00000000
00000000
00000000
00000000
00000100
00000000
00000000
00000000
00000000
00000000
,
00010000
00000000
00000000
00000000
00000000
00001000
00000000
00000000
00000000
00000000
00010000
00000000
00000000
00000000
00001000
00000000
00000000
00000000
00000000
00000000
00000000
00000000
00000000
00000000
00000000
00000000
00010000
00000000
00000000
00000000
00000000
00000000
00001000
00000000
00000000
00000000
00000000
00010000
00000000
00000000
00000000
00000000
00001000
00000000
00000000
00000000
00100000
00000000
00000000
00000000
00000000
00000000
00000000
00000000
00000000
00000000
00000000
00000000
00100000
00000000
00000000
00000000
00000000
00000000
,
01000000
10000000
01000000
10000000
00010000
01000000
00010000
01000000
,
00100000
00010000
00001000
00000100
00000010
00001000
00000010
00001000
,
00000001
00000010
00001000
00010000
00100000
00000000
00010000
00001000
,
00000010
00001000
00010000
02000000
00000000
00200000
03300000
01100000
,
00000000
10000000
00000000
10010000
00000000
00100000
00000000
01100000
,
00000000
00011000
00000000
00000100
00000010
00000100
00000010
00000002
,
00000000
00000000
00000203
00000000
00000000
00000000
00000320
00000000
00000000
00000032
00000000
00000000
00000013
00000000
00000200
00000000
,
00000000
00000000
00002300
00000000
00000000
00000000
00003200
00000000
00000000
00000320
00000000
00000000
00002030
00000000
00003200
00000000
,
00000320
00002030
00023000
02030000
03200000
00320000
20030000
30010000
,
00010000
00000000
10000000
00000000
10000000
00000000
00100000
10000000
00100000
00000000
01000000
00010000
01000000
00010000
00100000
00000000
,
00000000
00001000
00000000
00100000
00000000
00001000
00000000
00010000
,
00000100
00000000
00000100
00010000
00000010
00001000
00000000
00000001
,
00000000
00000100
00000000
00000001
00000000
00000010
00000000
00000001
,
00000000
00000100
00000000
00001000
00000000
00010000
00000000
01000000
,
00000000
10000000
00000000
01000000
00000000
10000000
00000000
00010000
,
01000000
00000000
00010000
00100000
00001000
00010000
00000000
00000100
,
00000000
00001000
00000000
00000010
00000000
00001000
00000000
00000001
,
00000000
00000100
00000000
00001000
00000000
00000100
00000000
00000010
,
00000000
00010000
00000000
00000010
00000000
00010000
00000000
00001000
,
00100000
00000000
00100000
00001000
01000000
00010000
00000000
10000000
,
00000000
01000000
00000000
10000000
00000000
00100000
00000000
10000000
,
00000000
01000000
00000000
00010000
00000000
00001000
00000000
00000100
,
00000000
00000000
00000000
00001001
00000000
00000000
00000000
00000010
,
00000000
00000000
00000000
00001001
00000000
00000000
00000000
00000000
,
00000000
00001010
00000000
00010000
00001000
00000000
00000000
00110000
,
00000000
00001000
00010000
00000000
00000000
02000000
00000000
00000000
,
00000000
00000000
00000000
00000000
,
00000000
00000000
00000000
03000000
00000000
00000000
00000000
00000000
;

//---------------dance-double - ----------------
#NOTES:
     dance-double:
     :
     Challenge:
     10:
     :
00000000
00000000
00000000
00000000
,
00000000
00000000
00000000
00000000
,
00000000
00000000
00000000
00000000
,
10000000
01000000
00010000
01000000
,
10000000
00000000
01000000
00000000
00010000
00001000
00000010
00000000
,
00000001
00000100
00001000
00000100
,
00000001
00000000
00000100
00000000
00001000
00010000
00100000
00000000
,
10000000
11000000
01000000
01010000
,
00010000
00000000
00011000
00000000
00001000
00000100
00000010
00000000
,
00000110
00001001
00000000
00000000
,
00011000
00000000
00000000
00000000
00000000
10000000
01000000
00100000
,
00010000
01000000
00010000
00100000
01000000
00010000
00001000
00000100
,
00000010
00001000
00000100
00001000
00000010
00000100
00001000
00010000
,
01000000
10000000
01000000
10000000
00100000
00010000
00100000
00010000
,
00001000
00000010
00001000
00000010
00000001
00000100
00000001
00000100
,
00000101
00000000
00001100
00000000
00010000
00001000
00000100
00000001
,
00000100
00001000
00010000
01000000
10000000
01000000
00010000
00001000
,
00000010
00001000
00010000
00100000
00010000
00001000
00000100
00001000
,
00000000
00000001
00000100
00001000
00000000
00000001
00000010
00001000
,
00010000
00000000
00000110
00000000
00000001
00000100
00001000
00010000
,
01000000
00010000
00001000
00100000
00000010
00010000
00000100
01000000
,
00002000
00203000
00300020
00020030
,
00030100
00001000
00000010
00001000
00000001
00000010
00000001
00000100
,
00001000
00000000
10010000
00000000
10000000
01000000
00010000
00001000
,
00000100
00000001
00000010
00000001
00000010
00000001
00000100
00001000
,
00100000
00001000
01000000
00010000
00100000
00001000
01000000
00010000
,
00100000
00001000
00000010
00000001
00000000
00000100
00000010
00001000
,
00001001
00000100
00001001
00000010
,
00001000
00000000
00000000
00000000
00000000
00000001
00000000
00000000
00000100
00000000
00000000
00000000
00000000
00000010
00000000
00000000
00000100
00000000
00000000
00000000
00000000
00001000
00000000
00000000
00010000
00000000
00000000
00000000
00000000
00100000
00000000
00000000
,
01000000
10010000
00100000
10010000
,
01000000
00000000
00000000
00000000
00000000
00100000
00000000
00000000
10000000
00000000
00000000
00000000
00000000
01000000
00000000
00000000
00010000
00000000
00000000
00000000
00000000
00001000
00000000
00000000
00000010
00000000
00000000
00000000
00000000
00000001
00000000
00000000
,
00000010
00000000
00000000
00000000
00000000
00000100
00000000
00000000
00001000
00000000
00000000
00000000
00000000
00000010
00000000
00000000
00000100
00000000
00000000
00000000
00000000
00001000
00000000
00000000
00010000
00000000
00000000
00000000
00000000
00100000
00000000
00000000
,
10000000
00000000
00000000
00000000
00000000
01000000
00000000
00000000
00010000
00000000
00000000
00000000
00000000
00001000
00000000
00000000
00010000
00000000
00000000
00000000
00000000
00000000
00000010
00000000
00001000
00000000
00000000
00000000
00000000
00000100
00000000
00000000
,
00000010
00000000
00000000
00000000
00000000
00000001
00000000
00000000
00000100
00000000
00000000
00000000
00000000
00001000
00000000
00000000
00010000
00000000
00000000
00000000
00000000
00001000
00000000
00000000
00010000
00000000
00000000
00000000
00000000
00000100
00000000
00000000
,
00000010
00000100
00000000
00010000
00001000
01000000
00100000
01000000
,
10010000
00000000
01100000
00000000
10000000
00010000
01000000
00100000
,
10000000
01000000
00010000
00001000
00100000
00010000
10000000
01000000
,
00010000
00001000
00000100
00000001
00000010
00001000
00010000
00000100
,
00000010
00000001
00000010
00000100
00001000
00000010
00010000
00001000
,
00011000
00000000
00110000
00000000
00010000
00100000
10000000
01000000
,
00001000
00000100
00010000
00001000
00000100
00000010
00001000
00000001
,
00001001
00000000
00011000
00000000
00010000
10000000
00000000
00000000
,
10000000
00010000
00001000
00000001
00000000
00000000
00000000
00001000
,
00010000
00000000
00000000
00000000
00000100
00000000
00001000
00000010
00001000
00000000
00000000
00000000
00000100
00000000
00000010
00000001
,
00000010
00000000
00000000
00000000
00000100
00000000
00010000
00001000
00100000
00000000
00010000
00100000
01000000
00000000
00000000
00000000
,
00010000
01000000
00010000
00100000
01000000
00010000
00001000
00000100
,
00000001
00001000
00000010
00000001
00000010
00001000
00000100
00010000
,
00001000
00100000
00010000
01000000
10000000
01000000
00010000
00100000
,
01000000
10000000
00010000
10000000
01000000
00010000
00001000
00000100
,
00000010
00001000
00000010
00001000
00000100
00010000
00000100
00010000
,
00001000
00000100
00001000
00000100
00000010
00000001
00000010
00000000
,
00000001
00000010
00000100
00001000
00010000
00100000
01000000
10000000
,
01000000
00100000
00010000
00001000
00000100
00000010
00000001
00000010
,
00000100
00001000
00010000
00100000
01000000
00100000
00010000
00001000
,
00000100
00001000
00010000
00100000
01000000
00100000
00010000
00001000
,
00000100
00000010
00001000
00000100
00000010
00001000
00010000
01000000
,
00100000
00010000
01000000
00100000
00010000
00001000
00000100
00000010
,
00000100
00001000
00010000
01000000
10000000
01000000
00010000
00001000
,
00000100
00000001
00000100
00001000
00000100
00000001
00000000
00001000
,
00000000
00011000
00000000
10000000
00000000
00011000
00000000
00000100
,
00011000
01000000
00011000
00000010
00011000
00100000
00011000
00000100
,
00010000
01000000
00001000
00000100
00010000
01000000
00001000
00000010
,
00010000
00100000
00001000
00000010
00010000
00100000
00001000
00000010
,
00000100
00010000
01000000
00100000
00001000
00000010
00000100
00000110
,
00000010
00010000
00001000
01000000
00001000
00010000
00001000
00100000
,
00000000
00001000
00000000
00010000
00000000
00000010
00000000
00001000
,
00000000
00000100
00000000
00010000
00000000
00001000
00000000
01000000
,
00000000
00010000
00000000
00100000
00000000
00001000
00000000
00010000
,
00000000
00000010
00000000
00001000
00000001
00000010
00000000
00000200
,
00000000
00000001
00000000
00000010
00000000
00001300
00000000
02000000
,
00000000
10000000
00000000
00100000
00000000
03010000
00000000
00000200
,
00000000
00000001
00000000
00000010
00000000
00001300
00000000
00000010
,
00000000
00000100
00000000
00001000
00010000
00001000
00010000
00001000
,
00000100
00000010
00000100
00001000
00010000
01000000
00100000
00000000
,
01100000
00000000
10000000
00010000
01000000
00100000
01000000
00001000
,
00100000
00001000
00010000
00000100
00010000
00000010
00000100
00000000
,
00000110
00000000
00000001
00001000
00000100
00000001
00000000
00001000
,
00000000
00000000
00000000
00002001
00000000
00000000
00000000
00013000
,
00000000
00000000
00000000
10020000
00000000
00000000
00000000
00030000
,
00000000
00011000
00000000
00001000
00000001
00000000
00000000
00011000
,
00000000
00010000
10000000
00000000
00000000
02000000
00000000
00000000
,
00000000
00000000
00000000
00000000
,
00000000
00000000
00000000
03000000
00000000
00000000
00000000
00000000
;
