#TITLE:Skulk (Konami Mix);
#ARTIST:Echo Image;
#BANNER:Skulk (Konami Mix).png;
#BACKGROUND:Skulk (Konami Mix)-bg.png;
#CDTITLE:./CDTITLES/Dance Dance Revolution ULTRAMIX4.png;
#MUSIC:Skulk (Konami Mix).ogg;
#SAMPLESTART:16.022;
#SAMPLELENGTH:15;
#BPMS:0=135;

//---------------dance-single - ----------------
#NOTES:
     dance-single:
     :
     Beginner:
     1:
     :
0000
0000
0000
0000
,
0000
0000
0000
0000
,
0000
0000
0000
0000
,
1000
0000
0001
0000
,
1000
0000
1000
0000
,
0010
0000
0100
0000
,
0010
0000
0010
0000
,
0100
0000
0100
0000
,
0001
0001
0001
0001
,
1001
0000
0000
0000
,
1000
0000
1000
0000
,
1001
0000
0000
0000
,
0001
0000
0001
0000
,
0001
0001
0000
1000
,
1000
1000
0000
0010
,
0010
0010
0000
0100
,
0100
0100
0100
0100
,
0100
0000
0000
1000
,
1000
1000
0000
0010
,
0010
0010
0000
0100
,
0100
0100
0000
0100
,
0100
0000
0010
0000
,
0100
0000
0001
0000
,
1000
0000
0010
0000
,
0100
0100
0100
0100
,
0100
0000
0100
0000
,
0001
0001
0001
0000
,
1000
0000
0010
0000
,
1000
0000
0100
0000
,
0010
0010
0010
0000
,
0001
0000
0001
0000
,
0100
0100
0100
0000
,
0010
0010
0010
0010
,
0010
0000
0100
0000
,
0010
0010
0010
0000
,
1000
0000
0001
0000
,
1000
1000
1000
0000
,
1000
0000
0100
0000
,
0100
0000
1000
0000
,
0010
0010
0010
0010
,
0000
0000
0000
0000
,
0020
0000
0000
0030
,
0000
0000
0000
0000
,
2000
0000
0000
3000
,
0000
0000
0000
0000
,
0002
0000
0000
0003
,
0000
0000
0000
0000
,
0020
0000
0000
0030
,
0010
0010
0010
0010
,
0010
0000
0100
0000
,
0010
0000
1000
0000
,
0001
0000
1000
0000
,
0001
0001
0001
0000
,
1000
0000
0100
0000
,
1000
0000
0010
0000
,
0100
0100
0100
0100
,
0100
0000
0000
0000
,
0010
0000
0010
0000
,
0100
0000
0100
0000
,
0001
0000
0001
0000
,
1000
1000
1000
1000
,
1000
0000
0001
0000
,
0100
0000
0010
0000
,
0100
0000
0010
0000
,
0100
0100
0100
0100
;

//---------------dance-single - ----------------
#NOTES:
     dance-single:
     :
     Easy:
     4:
     :
0000
0000
0000
0000
,
0000
0000
0000
0000
,
0000
0000
0000
0000
,
1000
0001
1000
0010
,
0200
0000
0310
0000
,
0100
0001
0100
0010
,
0200
0000
0310
0000
,
1000
1000
0001
0001
,
0100
0100
0100
0100
,
0110
0000
0100
0010
,
0110
0000
1000
0001
,
1001
0000
1000
0001
,
0110
0000
0010
0100
,
0002
0010
0010
1003
,
0200
1000
1000
0310
,
0002
0000
1003
0000
,
0010
0100
0010
0100
,
0010
0010
1000
0100
,
0010
0010
0001
0100
,
0110
0000
0100
0010
,
1000
0100
1000
0000
,
0001
0100
0001
0000
,
0100
0010
0100
0100
,
0001
1000
0001
0010
,
0200
0000
1300
0000
,
1000
0100
1000
0010
,
0100
0001
0100
0010
,
0100
0110
0000
0000
,
0001
0010
0100
1000
,
0100
0010
0001
0010
,
0100
0000
0010
0000
,
0200
0000
0000
0300
,
0001
1000
0001
1000
,
1001
0000
1000
0010
,
1000
0100
1000
0010
,
0100
0000
0010
0010
,
0100
0100
0010
0100
,
0001
1000
0001
0000
,
0100
0010
0010
0100
,
0010
0100
0010
1000
,
0001
0000
0000
0000
,
1001
0000
0000
0000
,
2000
0000
0000
3000
,
0002
0000
0000
0003
,
0100
0100
0100
0100
,
0200
0000
0000
0300
,
0020
0000
0000
0030
,
1000
1000
1000
1000
,
2000
0000
0000
3000
,
1000
0001
0100
0001
,
1000
1000
0010
1000
,
0002
0000
1003
0000
,
0100
0100
0100
1000
,
1100
1000
0001
1000
,
0010
1000
0001
0100
,
0002
0000
1003
0000
,
0010
0010
0010
0010
,
0100
0010
0010
0100
,
0010
1000
0010
0000
,
1000
0100
1000
0100
,
0010
0001
0010
0001
,
1000
1001
0000
0000
,
1000
1000
0010
1000
,
0001
0010
0100
1000
,
0002
0000
0000
0003
;

//---------------dance-single - ----------------
#NOTES:
     dance-single:
     :
     Medium:
     7:
     :
0000
0000
0000
0000
,
0000
0000
0000
0000
,
0000
0000
0000
0000
,
1000
1000
0010
0000
0100
0100
0010
0000
,
1000
0100
0010
0100
,
0010
0010
0001
0000
0010
0010
0100
0000
,
1000
0000
0001
0000
1000
0001
1000
0000
,
0010
0010
0100
0000
0010
0000
1000
0000
,
1001
0110
1001
0110
,
0002
0000
1000
0000
0103
0000
0010
1000
,
0200
0000
0010
0000
1300
0000
0010
0100
,
0002
0000
0100
0000
0013
0000
0100
1000
,
0020
0001
1030
0000
,
0200
0000
1000
0000
0310
0000
0001
0010
,
0200
0000
0010
0000
1300
0000
0010
1000
,
0010
0000
1000
0000
0001
0000
1000
0100
,
1100
0101
1100
0101
,
1001
0000
0100
0000
0100
0000
0010
1000
,
0001
0000
0100
0000
0100
0000
0010
1000
,
0100
0000
0010
0000
0010
0000
0001
1000
,
0020
0000
0200
0030
0002
0300
2000
0003
,
3100
0000
0010
0000
0001
0010
0001
0100
,
0010
0000
1000
0000
0100
0000
1000
0010
,
0100
0001
0010
0100
,
0020
0001
0100
1030
,
0120
0000
0000
0000
0031
0000
0100
0001
,
0000
0100
0000
0010
0000
0010
1000
0100
,
0001
0110
0001
1000
,
0001
0000
0100
0001
0000
0100
0000
0010
,
0000
0100
0000
0001
1000
0000
0001
0000
,
2000
0000
0020
3000
0200
0030
0002
0300
,
0103
0010
0000
2000
0000
0000
3000
0000
,
1000
0010
0100
1001
,
0110
0000
0000
0000
0001
0000
1000
0100
,
0000
1000
0000
0001
0000
0100
0000
0101
,
0000
0100
0010
0000
0100
0001
0000
1000
,
0000
0100
0000
0010
0000
0100
0000
1000
,
0000
0100
0000
0010
0001
0000
0100
0000
,
0020
0000
2030
0000
3010
0100
0000
0001
,
0000
0200
0000
0020
0000
0000
0000
0000
,
0000
0330
0000
0000
,
1000
0000
0010
0100
0000
0100
0010
0000
,
2002
0000
0000
3003
0000
0100
0100
0000
,
0001
0000
1000
0001
0000
0100
0000
0010
,
0000
1000
0000
0001
0000
1001
1100
0000
,
0000
0000
0101
0000
0001
0000
0001
2000
,
0000
0000
0000
0000
3000
0010
0010
0000
,
1000
0000
0010
0000
0100
0010
0000
0101
,
0000
0000
0000
0101
0000
0000
0000
0000
,
0001
0100
1000
0000
0101
0000
1100
0000
,
1000
0100
0001
0000
1100
0000
0011
0000
,
0001
0010
0100
0000
1001
0000
0110
0000
,
2000
3002
0103
0000
,
0010
0001
0100
0000
0001
0000
1000
0000
,
0010
1000
0100
0000
0000
1000
1000
0000
,
0010
0000
1000
0000
0100
0010
0000
0100
,
0000
2100
0000
0000
0001
0000
3001
0000
,
0002
0000
0103
0010
0000
0010
0200
0000
,
0302
0000
1003
0001
0000
0001
2000
0000
,
3020
0000
0130
0001
0000
1000
0000
0010
,
0000
0110
0000
0100
0000
0100
0110
0000
,
0001
0000
1001
0000
0100
0000
0010
2010
,
0000
0000
0000
0001
0000
0001
3001
0000
,
0100
0001
0010
0100
1000
0010
0000
2000
,
0000
0010
0001
3100
;

//---------------dance-single - ----------------
#NOTES:
     dance-single:
     :
     Hard:
     9:
     :
0000
0000
0000
0000
,
0000
0000
0000
0000
,
0000
0000
0000
0000
,
1001
0000
0110
0000
1000
0100
0100
0000
,
1001
0000
0110
0000
0010
1000
1010
0000
,
0010
0000
1000
0100
0000
0100
1000
0000
1000
0010
0000
0010
0100
0000
0001
0000
,
0010
0000
0010
0100
0000
0100
1000
0000
1000
0001
0000
0001
1000
0000
0010
0000
,
0100
0000
0100
0010
0000
0010
1000
0000
1000
0100
0000
0100
0010
0000
0001
0000
,
1001
0110
1001
0110
,
1001
0000
0000
1000
0000
0000
0100
0000
0000
0010
0000
0000
0001
0000
0100
0000
,
0001
0000
0000
1000
0000
0000
0010
0000
0000
1000
0000
0000
0001
0000
0100
0000
,
0101
0000
0000
0100
0000
0000
0010
0000
0000
1000
0000
0000
0001
0000
0100
0000
,
1000
0000
0000
0001
0000
0000
1000
0000
0000
0100
0000
0000
1000
0000
0001
0000
,
1001
0000
0000
0001
0000
0000
0100
0000
0000
0010
0000
1000
0100
0000
1000
0000
,
0010
0000
0000
0001
0000
0000
0010
0000
0000
1000
0000
0100
0010
0000
0100
0000
,
0110
0000
0000
0100
0000
0000
1000
0000
0000
0010
0000
0100
0001
0000
0100
0000
,
0101
1100
1010
0011
,
1001
0000
1000
0001
0000
0001
1000
0000
0000
0100
0000
0010
0001
0000
1000
0000
,
0010
0000
1000
0010
0000
0010
1000
0000
0000
0001
0000
1000
0100
0000
0010
0000
,
0011
0000
0001
0010
0000
0010
0001
0000
0000
1000
0000
0010
0100
0000
0001
0000
,
1000
0000
1000
0001
0000
0001
1000
0000
0000
0100
0000
1000
0010
0000
0100
0000
,
1001
0000
0000
0100
0000
0000
0010
0000
0000
1000
0000
0001
0010
0000
0100
0000
,
0010
0000
0000
0100
0000
0000
1000
0000
0000
0010
0000
1000
0100
0000
1000
0000
,
1100
0000
1000
0100
0000
0100
1000
0000
0000
0010
0000
0100
0001
0000
0010
0000
,
0001
0000
0000
1000
0000
0000
0100
0000
0000
0010
0000
0100
1000
0000
0010
0000
,
1010
0000
1000
0100
0001
0100
1000
0010
,
0001
0010
1000
0100
0001
0100
0010
0001
,
1000
1001
1010
0101
,
0010
1000
0100
0100
0010
0001
0100
0100
,
0010
1000
0100
0010
0001
0010
0010
0000
,
0011
0011
0110
1100
,
2000
0010
0000
0100
0000
0000
3000
0000
,
1000
0010
1000
0001
0100
0010
0100
0001
,
0101
0000
0000
0000
0001
0000
1000
0100
0010
0000
0001
0010
0001
0000
1000
0000
,
0010
0000
1000
0010
0100
0000
0001
0100
0001
0000
1000
0010
1000
0000
0100
0000
,
1000
0000
0010
1000
0010
0000
0100
0000
0100
0000
0001
0010
0001
0000
1000
0000
,
1000
0000
0001
0010
0100
0000
1000
0100
1000
0000
0001
0010
0001
0000
0100
0000
,
1000
0000
0100
0000
0001
0000
0010
0000
0100
0000
1000
0100
0010
0000
0001
0000
,
0011
0010
0110
0100
1100
1001
0000
0100
,
0000
0010
0000
0200
0002
0000
0000
0000
,
0000
0000
0303
0000
,
0001
0000
1000
0100
0000
1000
0000
0000
,
0020
0000
0000
0000
0030
0100
0100
0000
,
0010
0000
1000
0100
0000
1000
0000
0010
,
0000
0100
0000
0001
0000
1000
0010
0000
,
0000
0000
1000
0000
0001
0000
0100
0200
,
0000
0000
0000
0000
0300
0001
1000
0000
,
0010
0000
0010
0000
1000
0001
0000
0000
,
0001
0010
0100
0010
0001
0010
0100
0010
0001
0000
1000
0100
1000
0000
0010
0000
,
0010
0000
1000
0000
0002
0000
0000
0000
1003
0000
0000
0001
0000
1000
0010
0100
,
0001
0000
0100
0000
0020
0000
0000
0000
1030
0000
0000
0001
0000
0100
0010
0000
,
0100
0000
0001
0000
0020
0000
0000
0000
0130
0000
0000
1000
0000
0010
1000
0010
,
0100
0000
0001
0000
0200
0000
0000
0000
0301
0000
0000
1000
0000
0001
1000
0000
,
1001
0000
0001
0000
2000
0000
0000
0000
3010
0000
0000
0100
0000
0001
1000
0010
,
1000
0000
0001
0000
0200
0000
0000
0000
0301
0000
0000
1000
0000
0010
0100
0000
,
0010
0000
0100
0000
0020
0000
0000
0000
0130
0000
0000
0001
0000
0010
0100
0000
,
1001
0110
1001
0110
,
0100
0000
0001
0000
1000
0010
0000
0100
0010
0000
0100
0001
0000
1000
0100
0010
,
0001
0000
1000
0000
0100
0010
0000
0001
0010
0000
0100
1000
0000
1000
0100
0000
,
1000
0000
0001
0000
0100
0010
0000
1000
0100
0000
1000
0010
0000
0100
0001
0100
,
1000
0000
0001
0000
0010
0100
0000
1000
0001
0000
1000
0010
0000
0100
0010
0000
,
0110
0000
0100
0000
1001
0000
0000
0000
0010
0000
0001
0100
0000
0010
1000
0100
,
0001
0000
1000
0000
0010
0100
0000
0001
0010
0000
0100
1000
0000
0001
1000
0000
,
0010
0000
0100
0000
0010
1000
0000
0001
0100
0000
0010
1000
0000
0001
1000
0000
,
1001
0110
1001
0110
;

//---------------dance-double - ----------------
#NOTES:
     dance-double:
     :
     Beginner:
     1:
     :
00000000
00000000
00000000
00000000
,
00000000
00000000
00000000
00000000
,
00000000
00000000
00000000
00000000
,
00000010
00000000
00000100
00000000
,
00010000
00000000
01000000
00000000
,
00010000
00000000
10000000
00000000
,
01000000
00000000
00100000
00000000
,
00010000
00000000
00001000
00000000
,
00010000
00010000
00010000
00010000
,
00011000
00000000
00000000
00000000
,
00000010
00000000
00000100
00000000
,
00000110
00000000
00000000
00000000
,
00001000
00000000
00000010
00000000
,
00000100
00000100
00000000
00010000
,
00010000
00010000
00000000
01000000
,
01000000
01000000
00000000
00100000
,
00100000
00100000
00100000
00100000
,
00100000
00000000
00000000
10000000
,
10000000
10000000
00000000
00010000
,
00010000
00010000
00000000
00100000
,
00100000
00100000
00000000
00001000
,
00001000
00000000
00010000
00000000
,
00000100
00000000
00001000
00000000
,
00000010
00000000
00000100
00000000
,
00000001
00000001
00000001
00000001
,
00000001
00000000
00001000
00000000
,
00000100
00000100
00000100
00000000
,
00010000
00000000
00001000
00000000
,
01000000
00000000
00100000
00000000
,
10000000
10000000
10000000
00000000
,
01000000
00000000
01000000
00000000
,
00100000
00100000
00100000
00000000
,
00010000
00010000
00010000
00010000
,
00010000
00000000
00001000
00000000
,
00000100
00000100
00000100
00000000
,
00001000
00000000
00000010
00000000
,
00000001
00000001
00000001
00000000
,
00000010
00000000
00000100
00000000
,
00010000
00000000
00001000
00000000
,
00100000
00100000
00100000
00100000
,
00000000
00000000
00000000
00000000
,
02000000
00000000
00000000
03000000
,
00000000
00000000
00000000
00000000
,
00020000
00000000
00000000
00030000
,
00000000
00000000
00000000
00000000
,
20000000
00000000
00000000
30000000
,
00000000
00000000
00000000
00000000
,
02000000
00000000
00000000
03000000
,
01000000
01000000
01000000
01000000
,
01000000
00000000
00100000
00000000
,
00001000
00000000
00010000
00000000
,
00000010
00000000
00001000
00000000
,
00000100
00000100
00000100
00000000
,
00000010
00000000
00000001
00000000
,
00000100
00000000
00000010
00000000
,
00010000
00010000
00010000
00010000
,
00010000
00000000
00000000
00000000
,
00001000
00000000
00001000
00000000
,
01000000
00000000
01000000
00000000
,
10000000
00000000
10000000
00000000
,
01000000
01000000
01000000
01000000
,
01000000
00000000
00100000
00000000
,
10000000
00000000
00100000
00000000
,
01000000
00000000
00001000
00000000
,
00010000
00010000
00010000
00010000
;

//---------------dance-double - ----------------
#NOTES:
     dance-double:
     :
     Easy:
     5:
     :
00000000
00000000
00000000
00000000
,
00000000
00000000
00000000
00000000
,
00000000
00000000
00000000
00000000
,
00000010
00010000
00000100
00010000
,
00002000
00000000
00013000
00000000
,
00001000
00100000
00001000
01000000
,
00020000
00000000
00130000
00000000
,
00100000
00100000
01000000
01000000
,
10000000
10000000
10000000
10000000
,
10010000
00000000
00010000
00100000
,
00011000
00000000
00010000
00000100
,
00000110
00000000
00000010
00000001
,
00001001
00000000
00000100
00001000
,
00020000
00100000
00100000
10030000
,
02000000
00100000
00100000
03001000
,
00020000
00000000
00030100
00000000
,
00000010
00000100
00000010
00000001
,
00000001
00000001
00000100
00010000
,
01000000
01000000
00100000
10000000
,
10010000
00000000
01000000
00100000
,
00001000
00010000
00001000
00000000
,
00000100
00001000
00000100
00000000
,
00000010
00000001
00000100
00000100
,
00010000
10000000
01000000
00100000
,
00020000
00000000
01030000
00000000
,
00100000
10000000
01000000
00010000
,
00001000
00000010
00000001
00001000
,
00000001
00001001
00000000
00000000
,
00000001
00000100
00010000
01000000
,
00100000
01000000
00010000
10000000
,
01000000
00000000
00100000
00000000
,
01100000
00000000
00000000
00000000
,
01000000
00010000
00001000
00000010
,
00000200
00000000
00000010
00000310
,
00000001
00001000
00000010
00010000
,
00001000
00000000
00100000
00100000
,
01000000
01000000
10000000
00100000
,
01000000
00100000
01000000
00000000
,
01000000
00001000
00001000
00010000
,
00000100
00001000
00000100
00000010
,
00000001
00000000
00000000
00000000
,
00000110
00000000
00000000
00000000
,
00000002
00000000
00000003
00000000
,
00002000
00000000
00003000
00000000
,
00000010
00000010
00000010
00000010
,
00000020
00000000
00000030
00000000
,
00020000
00000000
00030000
00000000
,
00001000
00001000
00001000
00001000
,
00002000
00000000
00003000
00000000
,
01000000
00010000
00100000
01000000
,
10000000
00100000
10000000
01000000
,
00200000
00000000
00301000
00000000
,
00010000
00010000
00000100
00001000
,
00001100
00001000
00000100
00000001
,
00000100
00000010
00000001
00001000
,
00000200
00000000
00010300
00000000
,
00001000
00001000
00001000
00001000
,
01000000
00010000
00010000
01000000
,
00100000
01000000
00100000
00000000
,
10000000
01000000
00010000
00001000
,
00000010
00000001
00000010
00000001
,
00000100
00000110
00000000
00000000
,
00000010
00000010
00010000
00001000
,
00100000
00010000
01000000
00100000
,
20000000
00000000
00000000
30000000
;

//---------------dance-double - ----------------
#NOTES:
     dance-double:
     :
     Medium:
     7:
     :
00000000
00000000
00000000
00000000
,
00000000
00000000
00000000
00000000
,
00000000
00000000
00000000
00000000
,
10000000
01000000
10000000
01000000
,
00100000
00001000
01000000
00001000
,
00010000
00000010
00010000
00000100
,
00000010
00000001
00000010
00000001
,
00000100
00000010
00000100
00000010
,
00001000
00000001
00001100
00000101
,
00000001
00000000
00000000
00000001
00000000
00000000
00000100
00000000
00000000
00000000
00000000
00000000
00000010
00000000
00000010
00000000
,
00010000
00000000
00000000
00010000
00000000
00000000
00001000
00000000
00000000
00000000
00000000
00000000
01000000
00000000
01000000
00000000
,
00100000
00000000
00000000
00100000
00000000
00000000
10000000
00000000
00000000
00000000
00000000
00000000
01000000
00000000
01000000
00000000
,
00100000
00000000
00000000
00100000
00000000
00000000
00001000
00000000
00000000
00000000
00000000
00000000
00010000
00000000
00010000
00000000
,
00000010
00000000
00000000
00000010
00000000
00000000
00001000
00000000
00000000
00000000
00000000
00000000
00000100
00000000
00000100
00000000
,
00000010
00000000
00000000
00000010
00000000
00000000
00000001
00000000
00000000
00000000
00000000
00000000
00000100
00000000
00000100
00000000
,
00001000
00000000
00000000
00001000
00000000
00000000
00010000
00000000
00000000
00000000
00000000
00000000
01000000
00000000
01000000
00000000
,
10000000
00010000
11000000
01010000
,
00010000
00000000
00000000
10000000
00000000
00000000
00100000
00000000
00000000
00000000
00000000
00000000
01000000
00000000
00001000
00000000
,
00010000
00000000
00000000
00000010
00000000
00000000
00001000
00000000
00000000
00000000
00000000
00000000
00000100
00000000
00000010
00000000
,
00000001
00000000
00000000
00001000
00000000
00000000
00000010
00000000
00000000
00000000
00000000
00000000
00000100
00000000
00000001
00000000
,
00000010
00000000
00000000
00001000
00000000
00000000
00010000
00000000
00000000
00000000
00000000
00000000
00001000
00000000
00010000
00000000
,
00000100
00000000
00000000
00010000
00000000
00000000
00001000
00000000
00000000
00000000
00000000
00000000
01000000
00000000
00100000
00000000
,
10000000
00000000
00000000
01000000
00000000
00000000
00100000
00000000
00000000
00000000
00000000
00000000
00001000
00000000
00100000
00000000
,
00010000
00000000
00000000
10000000
00000000
00000000
01000000
00000000
00000000
00000000
00000000
00000000
00010000
00000000
00001000
00000000
,
01000000
00000000
00000000
00001000
00000000
00000000
00010000
00000000
00000000
00000000
00000000
00000000
00000100
00000000
00000010
00000000
,
00000002
00000000
00000000
00000000
00000103
00000000
00000010
00010000
,
00000000
00001000
00000000
00010000
00000000
00001000
00000000
00010000
,
00000000
00011000
00001000
01000000
,
00010000
00000000
10000000
01000000
00000000
00100000
00000000
00001000
,
00000000
00010000
00000000
00002000
00000000
00000000
00003000
00000000
,
00010000
00000100
00001000
00000000
00000010
00001000
00000001
00000000
,
00000010
00000010
00000000
00001001
00000000
00000000
00000000
00000000
,
00000001
00001000
00000101
00001100
,
00000001
00000100
00001000
00011000
,
00010000
01000000
10000000
10010000
,
10000000
00100000
00010000
00011000
,
00001000
00000010
00000001
00001001
,
00000001
00000010
00000100
00000000
00000100
00010000
00001000
00000000
,
00011000
00000000
00110000
00000000
00100000
01000000
00000000
20000000
,
00000000
02000000
30000000
00200000
03000000
00000000
00300000
00000000
,
00000000
00000000
00000000
00000000
,
00001000
00000000
00000010
00000100
00000000
00010000
00000000
00000000
,
00000020
00000000
00000000
00000000
00000000
00000100
00000130
00000000
,
00000001
00000000
00000100
00010000
00000000
01000000
00000000
00100000
,
00000000
10000000
00000000
00010000
00000000
00100000
00110000
00000000
,
00000000
00000000
00100000
00000000
00001000
00000000
00000010
00000002
,
00000000
00000000
00000000
00000000
00000000
00000100
00000103
00000000
,
00000010
00000000
00001000
00000000
00000100
00010000
00000000
00000000
,
00001100
00000000
00110000
00000000
,
00010000
01000000
10000000
00000000
01010000
00000000
00110000
00000000
,
10000000
01000000
00010000
00000000
00011000
00000000
00000110
00000000
,
00000001
00000010
00001000
00000000
00000110
00000000
00001100
00000000
,
00010000
00001000
00010000
00000000
00022000
00000000
00033000
00000000
,
00110000
00000000
11000000
00000000
00010000
00001000
00000010
00000001
,
00000011
00000000
00001001
00000000
00000010
00010000
00001000
00000000
,
00010000
01000000
10000000
00000000
00010000
01000000
00100000
00000000
,
01100000
00011000
00110000
00011000
,
00010000
00000100
00000010
00000000
00000100
00001000
00000010
00000000
,
00001020
00000000
00000000
00000000
00000000
00000100
00000130
00000000
,
00001000
00010000
00100000
00000000
01000000
00100000
10000000
00000000
,
10010000
00110000
00011000
00001100
,
00001000
00010000
01000000
00000000
00001000
00010000
00000100
00000000
,
00002010
00000000
00000000
00000000
00000000
00000001
00003001
00000000
,
00000001
00000100
00000010
00001000
00010000
01000000
00100000
00000000
,
00010000
00001000
00000100
00000001
;

//---------------dance-double - ----------------
#NOTES:
     dance-double:
     :
     Hard:
     9:
     :
00000000
00000000
00000000
00000000
,
00000000
00000000
00000000
00000000
,
00000000
00000000
00000000
00000000
,
00000000
00001000
00000000
00000010
00000000
00000100
00000000
00000001
,
00000000
00000010
00000000
00000100
00000000
00010000
00000000
00001000
,
00100000
00000000
00010000
00000000
00100000
00000000
00100000
00000000
01000000
00000000
10000000
00100000
00000000
00000000
01000000
00000000
,
00001000
00000000
01000000
00000000
01000000
00000000
00100000
00000000
10000000
00000000
01000000
00010000
00000000
00000000
00001000
00000000
,
01000000
00000000
00001000
00000000
00001000
00000000
00010000
00000000
00000010
00000000
00001000
00000100
00000000
00000000
00000010
00000000
,
00000011
00001100
00001001
00011000
,
00010000
00000000
00000000
00001000
00000000
00000000
01000000
00000000
00000000
00100000
00000000
00000000
10000000
00000000
01000000
00000000
,
00010000
00000000
00000000
00001000
00000000
00000000
01000000
00000000
00000000
00100000
00000000
00000000
10000000
00000000
00010000
00000000
,
00110000
00000000
00000000
00100000
00000000
00000000
00001000
00000000
00000000
00010000
00000000
00000000
00000010
00000000
00001000
00000000
,
00000100
00000000
00000000
00000010
00000000
00000000
00000001
00000000
00000000
00001000
00000000
00000000
00000001
00000000
00000100
00000000
,
00000110
00000000
00000000
00000010
00000000
00000000
00010000
00000000
00000000
00001000
00000000
00000000
00000010
00000000
00000001
00000000
,
00001000
00000000
00000000
00000100
00000000
00000000
00010000
00000000
00000000
00001000
00000000
00000000
01000000
00000000
00001000
00000000
,
00101000
00000000
00000000
00100000
00000000
00000000
01000000
00000000
00000000
10000000
00000000
00000000
00100000
00000000
01000000
00000000
,
00020000
00230000
02300000
23000000
,
30100000
01000000
00000000
01000000
00001000
00000000
00001000
00010000
00000000
00010000
00000100
00000000
00000010
00000000
00000100
00000000
,
00000010
00000001
00000000
00000001
00001000
00000000
00001000
00000100
00000000
00000100
00010000
00000000
00001000
00000000
00010000
00000000
,
00001000
00100000
00000000
00100000
00001000
00000000
00001000
00010000
00000000
00010000
00001000
00000000
01000000
00000000
00001000
00000000
,
01000000
00100000
00000000
00100000
10000000
00000000
10000000
01000000
00000000
01000000
00100000
00000000
00001000
00000000
00100000
00000000
,
00001000
00010000
00000000
00010000
00000010
00000000
00000010
00000100
00000000
00000100
00000001
00000000
00001000
00000000
00000001
00000000
,
00001000
00000100
00000000
00000100
00010000
00000000
00010000
00001000
00000000
00001000
01000000
00000000
00010000
00000000
01000000
00000000
,
00010000
00100000
00000000
00100000
00001000
00000000
00001000
01000000
00000000
01000000
00010000
00000000
10000000
00000000
00010000
00000000
,
20000000
00000000
00000000
32000000
00000000
00000000
03020000
00000000
00000000
00032000
00000000
00000000
00013000
00000000
00001000
00000000
,
00021000
00000000
00000000
00000000
01030000
00000000
10000000
00100000
,
10000000
00010000
01000000
00001000
01000000
00100000
00010000
00001000
,
00000010
00000000
00000011
00000000
00000100
00001000
00000100
00000001
,
00000010
00000000
00001000
00010000
00000000
00001000
00010000
00001000
,
01000000
00100000
10000000
00010000
01000000
00000000
00000000
01000000
,
00010000
10000000
00100000
00010000
00001000
00000000
00010000
00000000
,
01000000
10000000
00000000
10010000
00000000
00000000
00000000
00000000
,
02000000
03020000
00032000
00003200
,
00000302
00000000
00000000
00000000
00001003
00000000
00000100
00010000
,
00000010
00010000
00001000
01000000
00001000
00100000
01000000
10000000
,
00100000
00000000
00000000
00000000
00010000
00001000
00000010
00001000
,
00010000
00001000
00100000
00001000
00010000
00100000
00010000
00001000
,
00010000
00000100
00001000
00000100
00000010
00000000
00000000
00000001
,
00001000
00000010
00010000
00000100
00100000
00001000
01000000
01010000
,
00000000
10010000
00000000
20200000
00000000
00000000
00000000
30300000
,
00000000
00000000
00000000
00000000
,
00000101
00000000
00000100
00001000
00000000
00010000
01000000
00000000
,
11000000
00000000
00000000
00000000
00000000
10000000
00100000
00000000
,
01000000
00001000
00010000
01000000
00000000
00100000
00001000
00100000
,
00000000
00001000
00010000
00001000
00000000
00010000
00000010
00010000
,
00000000
00000000
00000100
00000000
00000010
00000000
00000001
00000100
,
00000000
00000000
00000000
00000000
00000000
00000001
00001000
00000000
,
00000001
00000000
00000010
00000000
00001000
00010000
00000000
00000010
,
00000000
00000100
00000000
00000010
00000000
00000100
00000000
00000001
,
00000010
00000000
00000001
00000000
00000000
00000100
00000000
00000000
00000010
00000000
00000000
00010000
00000000
00000100
00001000
00000100
,
00000000
00000000
00010000
00000000
00000000
00001000
00000000
00000000
01000000
00000000
00000000
00010000
00000000
00000000
00100000
00000000
,
00000000
00000000
01000000
00000000
00000000
10000000
00000000
00000000
00010000
00000000
00000000
00100000
00000000
00001000
00010000
00001000
,
00000000
00000000
01000000
00000000
00000000
00001000
00000000
00000000
00010000
00000000
00000000
00000100
00000000
00000000
00000010
00000000
,
00000000
00000000
00000001
00000000
00001000
00000100
00000000
00001000
00000100
00000000
00001000
00000100
00000000
00010000
00001000
00010000
,
00000000
00000000
00001000
00000000
01000000
00100000
00000000
01000000
00100000
00000000
01000000
00100000
00000000
00000000
10000000
00000000
,
00000000
00000000
01000000
00000000
00100000
00001000
00000000
01000000
00010000
00000000
10000000
01000000
00000000
00100000
00001000
00100000
,
00000000
00000000
01000000
00000000
10000000
00100000
00000000
01000000
00001000
00000000
00010000
00000100
00000000
00000000
00000010
00000000
,
00000001
00001000
00000100
00000010
00000001
00000100
00010000
01000000
,
00001000
00100000
01000000
10000000
00100000
01000000
00001000
00010000
,
02000000
00000000
10000000
10000000
00000000
00010000
00000000
10000000
,
00000000
03010000
00000000
00001000
00000000
00000100
00000001
00000010
,
00000100
00010000
00001000
00100000
01000000
10000000
00100000
01000000
,
00001000
01000000
00100000
10000000
01000000
00001000
00000100
00000010
,
00001000
00010000
00100000
10000000
01000000
00010000
00001000
00000100
,
00000002
00000023
00000230
00002300
,
00003000
00000000
00000000
00000000
;
