#TITLE:Saturday (Morjac Radio Mix);
#ARTIST:Marly;
#BANNER:Saturday (Morjac Radio Mix).png;
#BACKGROUND:Saturday (Morjac Radio Mix)-bg.png;
#CDTITLE:./CDTITLES/Dance Dance Revolution ULTRAMIX4.png;
#MUSIC:Saturday (Morjac Radio Mix).ogg;
#SAMPLESTART:9.272;
#SAMPLELENGTH:15;
#DISPLAYBPM:127;
#BPMS:0=127.998;

//---------------dance-single - ----------------
#NOTES:
     dance-single:
     :
     Beginner:
     1:
     :
0000
0000
0000
0000
,
0000
0000
0000
0000
,
0000
0000
0000
0000
,
0000
0000
0000
0000
,
0000
0000
0000
0000
,
0020
0000
0000
0030
,
0010
0010
0000
0000
,
0200
0000
0000
0300
,
0100
0100
0000
0000
,
1000
0000
0000
0000
,
1000
0000
1000
0000
,
0001
0000
0000
0000
,
0001
0000
0001
0000
,
0100
0000
0000
0000
,
0100
0000
0100
0000
,
0010
0000
0000
0000
,
0010
0000
0010
0000
,
1000
0000
0000
0000
,
0001
0000
0000
0000
,
1000
0000
0001
0000
,
1000
0000
0001
0000
,
0010
0000
0000
0000
,
0100
0000
0000
0000
,
0010
0000
0100
0000
,
0010
0000
0100
0000
,
1000
0000
0000
0000
,
0100
0100
0000
0000
,
0010
0000
0000
0000
,
0001
0001
0000
0000
,
1000
0000
0000
0000
,
0010
0010
0000
0000
,
0100
0000
0000
0000
,
0001
0001
0000
0000
,
0100
0000
0000
0000
,
0010
0000
0000
0000
,
1000
0000
0000
0000
,
0010
0000
0000
0000
,
0100
0000
0000
0000
,
0001
0000
0000
0000
,
0010
0000
0000
0000
,
0100
0000
0100
0000
,
0100
0000
0100
0000
,
1000
0000
0001
0000
,
1000
1000
0000
0000
,
0100
0000
0010
0000
,
0100
0100
0000
0000
,
0010
0000
0000
0000
,
0001
0000
0000
0000
,
0100
0000
0000
0000
,
1000
0000
0000
0000
,
0100
0000
0001
0000
;

//---------------dance-single - ----------------
#NOTES:
     dance-single:
     :
     Easy:
     3:
     :
0000
0000
0000
0000
,
0000
0000
0000
0000
,
0000
0000
0000
0000
,
0000
0000
0000
0000
,
0000
0000
0000
0000
,
1000
0200
0000
0300
,
0001
0200
0000
0300
,
1000
0020
0000
0030
,
1000
0001
1000
0001
,
0100
0000
0100
0000
,
0010
0000
0010
0000
,
1000
0001
1000
0000
,
0100
0100
0100
0100
,
0010
0000
0010
0000
,
0001
0000
0001
0000
,
1000
0001
1000
0000
,
0100
0100
0100
0100
,
0020
0000
0000
0030
,
0001
0000
1000
0000
,
0020
0000
0000
0030
,
0100
0000
0001
0010
,
0100
1000
0000
0001
,
0000
0100
0000
0001
,
0100
0010
0000
1000
,
2002
0000
0000
3003
,
0010
0200
0000
0300
,
0001
0020
0000
0030
,
0100
2000
0000
3000
,
0001
0001
1000
1000
,
0001
0200
0000
0300
,
1000
0200
0000
0300
,
0001
0020
0000
0030
,
0100
0100
0010
0010
,
0210
0000
0000
0300
,
2000
0000
0000
3000
,
0002
0000
0000
0003
,
0200
0000
0000
0300
,
0020
0030
0020
0030
,
2000
3000
2000
3000
,
0200
0300
0200
0300
,
0020
0030
0020
0030
,
0001
1000
1001
0000
,
0010
0200
0000
0300
,
0001
0020
0000
0030
,
0100
2000
0000
3000
,
0001
0001
1000
1000
,
0010
0100
0000
0100
,
0001
0010
0000
0010
,
0100
1000
0000
1000
,
0001
0001
1000
1000
,
0001
0001
2002
0000
,
3003
0000
0000
0000
;

//---------------dance-single - ----------------
#NOTES:
     dance-single:
     :
     Medium:
     5:
     :
0000
0000
0000
0000
,
0000
0000
0000
0000
,
0000
0000
0000
0000
,
0000
0000
0000
0000
,
0000
0000
0000
0000
,
1000
0100
1000
0000
0010
0000
1000
0000
,
0001
0010
0001
0000
0100
0000
0001
0000
,
1000
0010
1000
0000
0100
0000
1000
0000
,
0001
0011
1000
1100
,
0002
0000
0000
0003
,
0100
0000
0010
0000
,
1000
1000
0001
0001
,
1000
0100
1000
0000
0001
0100
0001
0010
,
0200
0000
0000
0300
,
1000
0000
0001
0000
,
0100
0100
0010
0010
,
1000
0010
1000
0000
0001
0010
0100
1000
,
0010
0010
0100
0001
,
0010
0010
0100
0000
,
1000
0010
1000
0100
,
0010
0001
0010
0000
0001
0100
0010
1000
,
0000
1000
0200
0000
1000
0000
1300
0000
,
0001
0000
1001
0000
1000
0000
0100
0010
,
0000
0010
0002
0000
0100
0000
0103
0000
,
0010
1000
1000
0000
0001
0001
0100
0000
,
1000
0010
0200
0000
0001
0000
0301
0000
,
0001
0010
0200
0000
1000
0000
1300
0000
,
1000
0001
0200
0000
0010
0000
0310
0000
,
1000
0100
0001
0010
,
1000
0100
0020
0000
0001
0000
0031
0000
,
0001
0100
0020
0000
1000
0000
1030
0000
,
1000
0001
0020
0000
0100
0000
0130
0000
,
1000
0100
1000
0000
0001
0100
0001
0000
,
2002
0000
0000
3003
,
0100
0000
0010
0000
,
2020
0000
0000
3030
,
0100
0000
0010
0000
,
1001
0000
0000
1001
0000
0000
0100
0000
,
0001
1000
0100
0010
,
0110
0000
0000
0110
0000
0000
0001
0000
,
1000
0010
0100
0001
,
1001
0000
1001
0000
0100
0010
0000
0000
,
0001
0100
0020
0000
1000
0000
1030
0000
,
1000
0100
0020
0000
0001
0000
0031
0000
,
0001
1000
0020
0000
0100
0000
0130
0000
,
0001
0010
1000
0100
,
1000
0101
0001
1100
,
0010
0101
1000
0110
,
0100
0011
0001
1010
,
1000
1000
0001
0001
,
0011
0000
1100
0000
0200
0020
0000
0000
,
0000
0330
0000
0000
;

//---------------dance-single - ----------------
#NOTES:
     dance-single:
     :
     Hard:
     7:
     :
0000
0000
0000
0000
,
0000
0000
0000
0000
,
0000
0000
0000
0000
,
0000
0000
0000
0000
,
0000
0000
0000
0000
,
0010
1000
0100
0020
0000
0032
0000
0013
,
1000
0010
0001
2000
0000
3002
0000
1003
,
0100
0001
0100
2000
0000
3002
0000
0013
,
0100
1000
0010
0001
0010
0100
1000
0100
,
0001
0001
1000
1000
,
0100
1000
0010
0100
0000
0100
0001
0010
,
0100
0100
0010
0010
,
0001
0100
1000
0100
0001
0010
1000
0010
,
0001
0001
1000
1000
,
0010
1000
0100
0010
0000
0010
0001
0100
,
0010
0010
0100
0100
,
0001
0010
1000
0010
0001
0100
1000
0100
,
0001
0010
0001
0000
1100
0000
0011
0000
,
0100
0001
0100
0000
1010
0000
0101
0000
,
1000
0001
0010
0100
0000
0100
1000
0001
,
0100
0010
0100
0010
0100
0001
1000
0100
,
0000
0010
0002
0000
0100
0000
1003
0000
,
0010
1000
0100
0010
1000
0010
0100
1000
,
0000
0010
2000
0000
0100
0000
3001
0000
,
0010
0001
0100
0010
0001
0010
0100
0001
,
1000
0002
2000
0003
3200
0000
0301
1000
,
0001
0200
2000
0300
3002
0000
0103
0000
,
1000
0200
0002
0300
2003
0000
3100
0001
,
1000
0001
0100
0000
1100
0000
0101
0000
,
0001
2000
0002
3000
0023
0000
1030
0001
,
1000
0020
0002
0030
2003
0000
3010
0000
,
0001
0020
2000
0030
3002
0000
0013
1000
,
0001
1000
0010
0000
0011
0000
1020
0000
,
0000
0000
0001
0000
1000
0000
0100
0100
,
0000
0001
0031
0100
1000
0000
0110
0000
,
2001
0000
0100
0000
0001
0000
0010
0010
,
0000
0001
3001
0000
0100
0001
0010
0000
,
1001
0000
0200
0001
0000
0301
0010
0100
,
1000
0000
0020
0001
0000
0031
0010
0100
,
1000
0000
0200
0001
0000
0301
0010
0100
,
1000
0010
0001
0010
1000
0100
0010
0001
,
1001
1000
1001
0001
2002
0000
3003
0000
,
0010
0002
2000
0003
3200
0000
0301
0100
,
1000
0020
0200
0030
2300
0000
3100
0000
,
0001
0200
0020
0300
2030
0000
3100
0010
,
1000
0010
0001
0000
1100
0000
0101
0000
,
0010
0100
0001
0011
0000
0101
0000
0011
,
0010
0100
1000
1010
0000
1100
0000
1010
,
0100
0001
0010
0110
0000
1001
0000
0110
,
0100
1000
0010
0001
0010
1000
0100
0010
,
0011
0001
1001
1000
1100
0220
0000
0000
,
0000
0330
0000
0000
;

//---------------dance-double - ----------------
#NOTES:
     dance-double:
     :
     Beginner:
     1:
     :
00000000
00000000
00000000
00000000
,
00000000
00000000
00000000
00000000
,
00000000
00000000
00000000
00000000
,
00000000
00000000
00000000
00000000
,
00000000
00000000
00000000
00000000
,
20000000
00000000
00000000
30000000
,
10000000
10000000
00000000
00000000
,
02000000
00000000
00000000
03000000
,
01000000
01000000
00000000
00000000
,
00010000
00000000
00000000
00000000
,
00001000
00000000
00001000
00000000
,
00001000
00000000
00000000
00000000
,
00010000
00000000
00010000
00000000
,
00010000
00000000
00000000
00000000
,
00000100
00000000
00000100
00000000
,
00000100
00000000
00000000
00000000
,
00000010
00000000
00000010
00000000
,
00000010
00000000
00000000
00000000
,
00000001
00000000
00000000
00000000
,
00001000
00000000
00000001
00000000
,
00001000
00000000
00000001
00000000
,
00000100
00000000
00000000
00000000
,
00001000
00000000
00000000
00000000
,
00010000
00000000
00001000
00000000
,
00010000
00000000
00001000
00000000
,
00100000
00000000
00000000
00000000
,
01000000
01000000
00000000
00000000
,
10000000
00000000
00000000
00000000
,
00010000
00010000
00000000
00000000
,
00100000
00000000
00000000
00000000
,
00001000
00001000
00000000
00000000
,
00010000
00000000
00000000
00000000
,
00000100
00000100
00000000
00000000
,
00001000
00000000
00000000
00000000
,
00000010
00000000
00000000
00000000
,
00000100
00000000
00000000
00000000
,
00000001
00000000
00000000
00000000
,
00000010
00000000
00000000
00000000
,
00001000
00000000
00000000
00000000
,
00010000
00000000
00000000
00000000
,
01000000
00000000
01000000
00000000
,
01000000
00000000
01000000
00000000
,
10000000
00000000
00010000
00000000
,
10000000
10000000
00000000
00000000
,
01000000
00000000
00100000
00000000
,
01000000
01000000
00000000
00000000
,
00010000
00000000
00000000
00000000
,
00001000
00000000
00000000
00000000
,
00000100
00000000
00000000
00000000
,
00000001
00000000
00000000
00000000
,
00001000
00000000
00000001
00000000
;

//---------------dance-double - ----------------
#NOTES:
     dance-double:
     :
     Easy:
     3:
     :
00000000
00000000
00000000
00000000
,
00000000
00000000
00000000
00000000
,
00000000
00000000
00000000
00000000
,
00000000
00000000
00000000
00000000
,
00000000
00000000
00000000
00000000
,
00000100
00000002
00000000
00000003
,
00000010
00002000
00000000
00003000
,
00010000
00200000
00000000
00300000
,
10000000
01000000
00100000
00010000
,
01000000
00000000
01000000
00000000
,
00100000
00000000
00100000
00000000
,
00010000
00001000
00010000
00000000
,
00001000
00001000
00000100
00000100
,
00000001
00000000
00000001
00000000
,
00001000
00000000
00001000
00000000
,
00000010
00000100
00000010
00000000
,
00000100
00000100
00001000
00001000
,
00020000
00000000
00000000
00030000
,
00001000
00000000
01000000
00000000
,
00200000
00000000
00000000
00300000
,
10000000
00000000
00010000
00100000
,
01000000
10000000
00000000
00100000
,
00000000
00010000
00000000
00001000
,
00010000
00001000
00000000
00010000
,
00002000
00000000
00000000
00003000
,
00000100
00000020
00000000
00000030
,
00000100
00002000
00000000
00003000
,
00010000
02000000
00000000
03000000
,
00100000
00010000
01000000
00001000
,
00010000
02000000
00000000
03000000
,
00010000
00002000
00000000
00003000
,
00000010
00000002
00000000
00000003
,
00001000
00001000
00000001
00000001
,
00002001
00000000
00000000
00003000
,
00000200
00000000
00000000
00000300
,
00020000
00000000
00000000
00030000
,
00002000
00000000
00000000
00003000
,
00020000
00030000
00020000
00030000
,
02000000
03000000
02000000
03000000
,
20000000
30000000
20000000
30000000
,
00020000
00030000
00020000
00030000
,
10000000
00010000
20000000
30000000
,
00100000
00020000
00000000
00030000
,
00001000
00000200
00000000
00000300
,
00001000
00020000
00000000
00030000
,
00001000
00001000
00000010
00000010
,
00000001
00001000
00000000
00001000
,
00000100
00010000
00000000
00010000
,
00001000
01000000
00000000
01000000
,
00100000
00100000
10000000
10000000
,
01000000
01000000
02200000
00000000
,
03300000
00000000
00000000
00000000
;

//---------------dance-double - ----------------
#NOTES:
     dance-double:
     :
     Medium:
     5:
     :
00000000
00000000
00000000
00000000
,
00000000
00000000
00000000
00000000
,
00000000
00000000
00000000
00000000
,
00000000
00000000
00000000
00000000
,
00000000
00000000
00000000
00000000
,
00010000
00000100
00010000
00000000
00001000
00000000
00010000
00000000
,
00001000
00100000
00001000
00000000
00010000
00000000
00001000
00000000
,
00010000
00000010
00001000
00000000
00000001
00000000
00000100
00000000
,
00000010
00000101
00000010
00001100
,
00020000
00000000
00000000
00030000
,
00001000
00000000
00100000
00000000
,
00010000
00010000
10000000
10000000
,
00100000
01000000
00100000
00000000
00010000
00001000
00010000
00001000
,
00020000
00000000
00000000
00030000
,
00000100
00000000
00001000
00000000
,
00000001
00000001
00001000
00001000
,
00000100
00000010
00000100
00000000
00001000
00000010
00001000
00000100
,
00010000
00001000
00100000
00010000
,
01000000
01000000
00100000
00000000
,
10000000
01000000
10000000
00010000
,
00100000
01000000
00100000
00000000
00010000
00100000
01000000
00010000
,
00000000
00010000
00002000
00000000
00010000
00000000
00013000
00000000
,
00001000
00000000
00001100
00000000
00000001
00000000
00001000
00000010
,
00000000
00000010
00000200
00000000
00001000
00000000
00001300
00000000
,
00010000
00001000
00001000
00000000
00010000
00010000
00001000
00000000
,
00010000
01000000
20000000
00000000
00010000
00000000
30010000
00000000
,
10000000
00100000
00020000
00000000
00001000
00000000
00031000
00000000
,
00010000
00001000
00000200
00000000
00000001
00000000
00000301
00000000
,
00000010
00000010
00000100
00000100
,
00001000
00000010
00000200
00000000
00001000
00000000
00001300
00000000
,
00010000
00100000
02000000
00000000
10000000
00000000
13000000
00000000
,
01000000
00010000
00200000
00000000
00001000
00000000
00301000
00000000
,
00010000
00001000
00010000
00000000
00001000
00010000
00001000
00000000
,
00022000
00000000
00000000
00033000
,
00000100
00000000
00000001
00000000
,
00000022
00000000
00000000
00000033
,
00001000
00000000
00010000
00000000
,
01100000
00000000
00000000
01100000
00000000
00000000
00100000
00000000
,
10000000
01000000
00010000
00001000
,
00011000
00000000
00000000
00011000
00000000
00000000
00010000
00000000
,
00001000
00000100
00000001
00001000
,
00001100
00000000
00000101
00000000
00000010
00000100
00000000
00000000
,
00001000
00000100
00000002
00000000
00001000
00000000
00001003
00000000
,
00000001
00000010
00002000
00000000
00010000
00000000
00013000
00000000
,
00001000
00010000
02000000
00000000
10000000
00000000
13000000
00000000
,
00100000
00100000
01000000
01000000
,
00010000
00110000
00010000
00101000
,
00010000
00011000
00001000
00010100
,
00001000
00001100
00001000
00001001
,
00000001
00000001
00000100
00000100
,
00001100
00000000
00011000
00000000
00020000
02000000
00000000
00000000
,
00000000
03030000
00000000
00000000
;

//---------------dance-double - ----------------
#NOTES:
     dance-double:
     :
     Hard:
     7:
     :
00000000
00000000
00000000
00000000
,
00000000
00000000
00000000
00000000
,
00000000
00000000
00000000
00000000
,
00000000
00000000
00000000
00000000
,
00000000
00000000
00000000
00000000
,
01000000
00010000
00100000
00000000
00101000
00000000
00010010
00000000
,
00000010
00001000
00000100
00000000
00010100
00000000
01001000
00000000
,
01000000
00010000
00100000
00000000
00101000
00000000
00010100
00000000
,
00001000
00000010
00010000
00001000
01000000
00010000
00100000
00001000
,
00000200
00000000
00000000
00000300
,
00000001
00000100
00000010
00001000
,
00000100
00000010
00000100
00000000
00001000
00000001
00001000
00000000
,
00000010
00001000
00000100
00010000
01000000
00100000
00010000
01000000
,
20000000
00000000
31000000
00020000
00000000
00000000
00030000
00000000
,
10000000
01000000
00100000
00010000
,
01000000
00100000
01000000
00000000
00010000
10000000
00010000
00000000
,
01000000
00010000
00100000
00001000
00000010
00000100
00001000
00000010
,
00001001
00001100
00001001
00000101
,
00001000
00000010
00000100
00001000
00000000
00010000
01000000
00100000
,
10010000
01010000
10010000
11000000
,
00010000
00100000
01000000
00010000
00000000
00001000
00000100
00000010
,
00001000
00000001
00000200
00000000
00000000
00000000
00000300
00000000
,
00000010
00000000
00000100
00001000
00000000
00010000
00000000
01000000
,
00100000
00000000
00010000
01000000
00000000
00010000
00000000
00100000
,
01000000
00010000
00001000
00000100
00001000
00010000
01000000
00010000
,
00001000
00010000
00001000
00000000
00101000
00000000
00010010
00000000
,
00010000
00001000
00010000
00000000
00010100
00000000
01001000
00000000
,
00001000
00010000
00001000
00000000
00110000
00000000
00001100
00000000
,
00000100
00010000
00001000
01000000
00100000
00010000
00001000
00000100
,
00000010
00001000
00000100
00000000
00010100
00000000
00001100
00000000
,
00010000
00001000
00100000
00000000
00011000
00000000
00101000
00000000
,
01000000
00010000
00100000
00000000
00101000
00000000
00011000
00000000
,
00100000
00001000
00010000
00000010
00001000
00000001
00000100
00000020
,
00000000
00000030
00002000
00000000
00003002
00000000
00000103
00000200
,
00000000
00001300
00002000
00000000
00013000
00001000
00011000
00000000
,
01100000
00000000
00020000
00000000
20030000
00000000
31000000
02000000
,
00000000
03010000
00020000
00000000
00031000
00010000
00011000
00000000
,
00000110
00000000
00000000
00000101
00000000
00000011
00000000
00000100
,
00001100
00000000
00000000
00011000
00000000
00101000
00000000
00010000
,
00110000
00000000
00000000
11000000
00000000
10100000
00000000
01000000
,
00010000
00100000
00010000
00100000
00001000
00010000
00001000
00010000
,
00000010
00001000
00000010
00001000
00000100
00000020
00000000
00000000
,
00000031
00000100
00000002
00000010
00000000
00000010
00000000
00000013
,
00000001
00001000
00000200
00010000
00000000
00010000
00000000
00010300
,
00001000
00100000
00020000
01000000
00000000
01000000
00000000
01030000
,
00010000
10000000
01000000
10000000
00010000
01000000
00010000
00100000
,
00001000
00010000
00001000
00000000
00101000
00000000
00010010
00000000
,
00010000
00001000
00010000
00000000
00010100
00000000
01001000
00000000
,
00001000
00010000
00001000
00000000
00110000
00000000
00001100
00000000
,
00000100
00010000
00001000
01000000
00100000
00010000
00001000
00000100
,
00000010
00001000
00000100
00010000
00002000
00020000
00000000
00000000
,
00000000
00033000
00000000
00000000
;
