#TITLE:STILL IN MY HEART (MOMO MIX);
#ARTIST:NAOKI;
#BANNER:STILL IN MY HEART (MOMO MIX).png;
#BACKGROUND:STILL IN MY HEART (MOMO MIX)-bg.png;
#CDTITLE:./CDTITLES/DDRMAX2 -Dance Dance Revolution 7thMIX-.png;
#MUSIC:STILL IN MY HEART (MOMO MIX).ogg;
#SAMPLESTART:28.2;
#SAMPLELENGTH:15;
#DISPLAYBPM:85:170;
#BPMS:0=170.616,4=169.979,176=85,210=170.1;

//---------------dance-single - ----------------
#NOTES:
     dance-single:
     :
     Beginner:
     1:
     :
0000
0000
0000
0000
,
0000
0000
0000
0000
,
0000
0000
0000
0000
,
0000
0000
0000
0000
,
1000
0000
0000
0000
,
1000
0000
0000
0000
,
0001
0000
0000
0000
,
0001
0000
0000
0000
,
0010
0000
0000
0000
,
0010
0000
0000
0000
,
0100
0000
0000
0000
,
0100
0000
0000
0000
,
1000
0000
1000
0000
,
1000
0000
0000
0000
,
0001
0000
0001
0000
,
0001
0000
0000
0000
,
0100
0000
0100
0000
,
0100
0000
0100
0000
,
0100
0000
0000
0000
,
1001
0000
0000
0000
,
1000
0000
0000
0000
,
0001
0000
0000
0000
,
0010
0000
0000
0000
,
0100
0000
0000
0000
,
1000
0000
1000
0000
,
0001
0000
0001
0000
,
0100
0000
0000
0000
,
0100
0000
0000
0000
,
0001
0000
0001
0000
,
0001
0000
0000
0000
,
0010
0000
0010
0000
,
0010
0000
0000
0000
,
0100
0000
0100
0000
,
0100
0000
0000
0000
,
1000
0000
1000
0000
,
1000
0000
0000
0000
,
0001
0000
0100
0000
,
1000
0000
0100
0000
,
0002
0000
0000
0003
,
0001
0000
0000
0000
,
1000
0000
0100
0000
,
0001
0000
0100
0000
,
2000
0000
0000
3000
,
1000
0000
0000
0000
,
0010
0000
0010
0000
,
0010
0000
0000
0000
,
0100
0000
0100
0000
,
0100
0000
0000
0000
,
0001
0000
1000
0000
,
0001
0000
0000
0000
,
1000
0000
0001
0000
,
1000
0000
0000
0000
,
0100
0100
0100
0000
,
0000
0000
1000
0000
,
0000
0000
0100
0000
,
0000
0000
0001
0000
,
0000
0000
0010
0000
,
0000
0000
1000
0000
,
0000
0000
0010
0000
,
0000
0000
0001
0000
,
0000
0000
0100
0000
,
0000
0000
0100
0000
,
0000
0000
0100
0000
,
1001
0000
0000
0000
;

//---------------dance-single - ----------------
#NOTES:
     dance-single:
     :
     Easy:
     4:
     :
0000
0000
0000
0000
,
0000
0000
0000
0000
,
0000
0000
0000
0000
,
0000
0000
0000
0000
,
1000
0000
0100
0000
,
0010
0000
0001
0000
,
1000
0000
0100
0000
,
0010
0000
0001
0000
,
1000
0000
0100
0000
,
0001
0000
0100
0000
,
1000
0000
0100
0000
,
0001
0000
0100
0000
,
2000
0000
3000
0000
,
0002
0000
0003
0000
,
0010
0000
0010
0000
,
0020
0000
0030
0000
,
0002
0000
0003
0000
,
2000
0000
3000
0000
,
0010
0000
0010
0000
,
0020
0000
0030
0000
,
1000
0001
1000
0000
,
0001
0100
0001
0000
,
1000
0010
1000
0000
,
0001
1000
0001
0000
,
0010
0100
1000
0000
,
0010
0100
0001
0000
,
0100
0010
1000
0000
,
0100
0010
0001
0000
,
1000
0000
1001
0000
,
0001
0000
1001
0000
,
1000
0100
0010
0001
,
1000
0000
0001
0000
,
0100
0000
0110
0000
,
0010
0000
0110
0000
,
0100
0001
1000
0010
,
0100
0000
0001
0000
,
1000
0100
0001
0010
,
1000
0100
0001
0010
,
0200
0000
0300
0000
,
0020
0000
0030
0000
,
0001
0100
1000
0010
,
0001
0100
1000
0010
,
0200
0000
0300
0000
,
0020
0000
0030
0000
,
1000
0010
1000
1000
,
0001
0010
0001
0001
,
0100
0000
0010
0000
,
0100
0000
1001
0000
,
0001
0010
0100
1000
,
0001
0010
0100
1000
,
0001
0001
1000
1000
,
1001
0000
0110
0000
,
1001
0000
1000
0010
,
0001
0100
1000
0010
,
0001
0100
0020
0000
,
0030
0000
0200
0000
,
0300
0000
0001
0010
,
1000
0100
0001
0010
,
1000
0100
0020
0000
,
0030
0000
0200
0000
,
0300
0000
2000
0000
,
3000
0000
0002
0000
,
0003
0000
1000
0001
,
0100
0000
0000
0000
;

//---------------dance-single - ----------------
#NOTES:
     dance-single:
     :
     Medium:
     6:
     :
0000
0000
0000
0000
,
0000
0000
0000
0000
,
0000
0000
0000
0000
,
0000
0000
0000
0000
,
0001
0000
0100
0000
,
0010
0000
1000
1000
,
1001
0000
0001
0001
,
1001
0000
0110
0000
,
1000
0001
0001
0000
,
0010
0100
0100
0000
,
1000
0000
0010
0000
,
0100
0000
0001
0000
,
1001
0000
1000
0100
,
0001
0000
0001
0100
,
1000
0000
0010
0000
,
0100
0000
1001
0000
,
0010
1000
0001
0100
,
0010
1000
0001
0100
,
1010
0000
0011
0000
,
1001
0000
0000
0000
0100
0100
0100
0000
,
1001
0000
0000
0000
0001
0100
0010
1000
,
0000
0001
0000
1000
0000
0100
0010
0000
,
0000
0000
0000
0000
0000
0001
1000
0010
,
0000
0101
0000
1100
0000
0000
0000
0000
,
1001
0000
0000
0000
0000
0001
0100
0010
,
0000
0100
0000
0001
0000
1000
0000
0000
,
0100
0000
0000
0010
0000
0000
0001
0000
,
0000
0000
0000
0100
0000
0010
1000
0100
,
0010
0000
0001
1000
0000
0101
0000
1100
,
0000
0000
0000
0000
0000
0010
0000
0000
,
1000
0000
0001
1000
0000
0011
0000
1010
,
0000
0000
0000
0000
0000
0001
0010
0100
,
1000
0000
0010
0100
0000
0001
1000
0000
,
0000
0000
0000
0000
0000
0100
0010
0001
,
1000
0000
0001
1000
0000
0010
0000
0100
,
0000
0000
0000
1001
0000
1000
0100
0010
,
0001
0000
0000
1001
0000
0001
0010
0100
,
1000
0000
0000
1001
0000
1000
0010
0100
,
0001
0000
0000
0000
0100
0001
1000
0010
,
0000
0100
0000
0010
0000
1000
0001
0000
,
0110
0000
0000
1001
0000
0010
0001
0100
,
0010
0000
0000
1001
0000
0010
1000
0100
,
0010
0000
0000
0000
0001
1000
0100
0010
,
0000
0001
0000
1000
0000
0001
0100
0000
,
0010
1001
0100
1001
,
0020
2030
3200
0320
,
0030
0001
0000
0000
0000
1000
0000
0010
0000
0000
0000
1000
0000
0001
0000
0010
,
0000
0000
0000
0100
0000
0100
0000
0100
0000
1001
0000
0000
0000
0000
0000
0000
,
1000
0001
1000
0000
0001
1000
0001
0000
,
0010
0100
0010
0001
0100
1000
0010
0000
,
0001
1000
0100
0000
1000
0001
0100
0000
,
0010
1000
0100
0001
0020
0000
0000
0030
,
0001
1000
0001
1000
1001
0000
0000
0110
,
0000
0001
0001
0100
1000
0000
0000
0110
,
0000
1000
1000
0100
0001
0000
0000
0000
,
0100
1000
0010
0010
0000
1000
0000
0001
,
0000
1000
0100
0000
1001
0000
0000
0110
,
0000
1000
0100
0010
0001
0000
0000
0110
,
0000
0001
0010
0100
1000
0000
0000
0000
,
0010
1000
0100
1000
0000
0001
0100
0001
,
0000
0010
0100
1000
0020
0000
0000
0000
,
0000
0030
0200
0000
,
0000
0000
0000
0000
0300
0000
0000
0000
0010
0000
0000
0010
0000
0000
0010
0000
,
1001
0000
0000
0000
;

//---------------dance-single - ----------------
#NOTES:
     dance-single:
     :
     Hard:
     8:
     :
0000
0000
0000
0000
,
0000
0000
0000
0000
,
0000
0000
0000
0000
,
0000
0000
0000
0000
,
1000
0000
1100
0000
,
0010
0001
0101
0000
,
1000
0000
0000
0100
0000
0000
0010
0000
0001
0000
0000
0100
0000
0000
0010
0000
,
1000
0000
1001
0000
,
1100
0101
0001
0000
,
0100
0000
0000
0001
0000
0010
0100
1000
,
0000
0000
0010
0000
,
0100
0000
0110
0000
,
1001
0000
0000
0000
1000
0000
0100
0100
,
0010
0000
0000
0000
0011
0000
0000
0100
,
0100
0000
0000
0010
0010
0000
0000
1000
,
0100
0000
1001
0000
,
0010
0000
1000
0000
0001
0010
0100
1000
,
0010
0000
0000
0100
0000
0001
1000
0000
,
1010
0000
0011
0000
,
1001
0000
0000
0000
0000
0000
0100
0000
0000
0100
0000
0000
0100
0000
0000
0000
,
0001
0010
0001
1000
0010
1000
0100
0010
,
0100
1000
0010
0100
0001
0010
0100
0000
,
1000
0010
1000
0001
0100
0010
1000
0010
,
0100
0000
0001
0000
0010
0000
0100
0000
0010
0000
0000
0001
1000
0000
1000
0000
,
0001
0100
0010
0100
0001
0010
0001
1000
,
0100
1000
0010
1000
0100
0010
0001
0000
,
1000
0010
0100
0001
0010
0001
1000
0100
,
0010
0001
0010
0000
0001
0000
0100
0000
0010
0000
0000
1000
0001
0000
0001
0000
,
0100
0000
0110
0000
1000
0001
0010
0000
,
0001
0100
0010
1000
0001
0010
1100
0000
,
0001
0000
1001
0000
0010
0100
1000
0000
,
0100
0000
0010
0000
0001
0000
0100
0000
0010
0000
0000
1000
0001
0000
0001
0000
,
0010
0000
0110
0000
0001
0100
0010
0000
,
0100
0010
1000
0100
1000
0010
0101
0000
,
0001
1000
0001
0010
0100
0010
0001
0100
,
0010
1000
0010
0000
0100
0000
0001
0000
1000
0000
0000
0100
0010
0000
0010
0000
,
0001
0000
0100
0010
0100
0001
1000
0001
,
0101
0000
0010
1000
0100
0010
0001
1000
,
1100
0000
0010
0001
0100
0010
1000
0001
,
0010
0000
0100
0000
0010
0000
0001
0000
1000
0000
0000
0010
0100
0000
0100
0000
,
0001
0000
0100
0001
0010
0100
1000
0001
,
0101
0000
1000
0001
0100
0001
0010
0100
,
1100
0000
0010
1000
0001
0010
0001
0100
,
0010
1000
0100
0010
0001
1000
0001
0010
,
0100
0000
1100
0000
0010
0100
0101
0000
,
0010
0000
0000
0001
0100
0000
0000
1000
0100
0000
0000
0000
0010
0000
0001
0100
,
0010
1000
1000
0100
0000
0010
0000
0000
0000
0001
0001
0100
0000
0010
0000
0000
,
0000
1000
0000
0001
0000
0100
0000
1001
0000
0000
0000
0000
0000
1000
0100
0010
,
0001
0000
1000
0010
0000
1000
0000
0100
0010
0000
0001
1000
0000
0001
1000
0100
,
0010
0000
0001
0010
0000
0001
0000
1000
0000
0001
0100
0000
0000
0010
1000
0100
,
1000
0000
0000
0001
0000
1000
0000
0001
0010
0000
0000
0100
0000
0010
0001
1000
,
0100
0000
1000
0010
0000
0000
0000
0200
0000
0000
0000
0000
0000
0000
0300
0000
,
0001
0010
0001
0010
0100
1000
0100
1000
0010
0000
0100
0000
0001
0000
0010
0000
,
0100
1000
0001
0100
0010
0100
0001
1000
,
0001
0010
0001
0100
0010
0000
0010
0000
,
0100
0001
0010
0100
1000
0001
1000
0010
,
0100
0000
0000
0001
1000
0000
0001
0000
0100
0000
0010
0000
1000
0000
0100
0000
,
0010
0001
1000
0100
1000
0010
0100
0001
,
0010
0100
0010
0001
0100
0000
0100
0000
,
0001
1000
0100
0010
0000
0001
1000
0100
,
0000
0010
0001
0100
0020
0000
0000
0000
,
0000
0000
0030
1000
0200
0000
0000
0000
,
0000
0000
0000
0000
0300
0000
1000
0000
0010
0000
0000
0010
0000
0000
0010
0000
,
1001
0000
0000
0000
;

//---------------dance-single - ----------------
#NOTES:
     dance-single:
     :
     Challenge:
     8:
     :
0000
0000
0000
0000
,
0000
0000
0000
0000
,
0000
0000
0000
0000
,
0000
0000
0000
0000
,
0001
0001
0001
0001
,
1000
1000
1000
1000
,
0010
1000
0100
0000
0010
0001
0100
0000
,
0001
1000
0001
1000
0001
0000
1100
0000
,
0001
0001
0100
0100
,
1000
0100
0001
0100
,
1000
0100
0001
0100
,
0010
1000
0100
1000
0001
0000
0101
0000
,
1001
0000
0000
0000
0010
0000
0100
0100
,
0100
0000
0001
0000
0100
0000
1000
1000
,
0001
0000
0000
0100
0010
0000
0000
0001
,
1000
0000
0010
1001
,
0010
1000
0100
1000
0010
0100
0001
0000
,
0010
0001
0100
0001
0010
0100
1000
0000
,
0010
1000
0001
0000
1000
0001
0100
0000
,
0001
0100
0010
1000
0100
0010
0001
0000
,
0010
1000
0100
0010
0001
0100
0001
0000
,
0100
0010
1000
0100
0010
0001
0100
0000
,
0001
0100
0010
1000
0100
0010
0001
0000
,
1000
0100
0001
0100
1000
0010
0001
0000
,
1000
0100
0010
0100
1000
0001
0100
0000
,
0010
0100
0001
1000
0100
0010
0100
0000
,
0001
0010
0100
1000
0010
0100
0001
0000
,
0010
0100
1000
0000
1100
0000
1001
0000
,
0010
1000
0100
0000
0010
0001
0100
0000
,
0001
1000
0100
0000
1000
0001
0100
0000
,
0100
0010
0001
0000
0010
1000
0100
0000
,
1000
0100
0010
0000
0001
0000
0101
0000
,
0010
1000
0100
0000
1000
0001
0100
0000
,
0001
0010
0100
1000
0010
0000
0101
0000
,
0010
1000
0100
0000
0010
0001
0100
0000
,
0001
0100
0010
1000
0100
0000
1001
0000
,
1001
0000
0010
1000
0100
0010
0001
0000
,
0101
0000
0010
1000
0100
1000
0001
0000
,
1100
0000
1000
0010
0100
0001
0100
0000
,
0011
0000
1000
0010
0100
0000
0101
0000
,
1001
0000
0010
0001
0100
0010
0001
0000
,
0101
0000
1000
0100
0010
0100
1000
0000
,
1100
0000
0001
0100
0010
0100
0001
0000
,
1000
0010
0100
0001
0010
0100
1000
0001
,
0100
0000
0001
0000
1000
1000
0100
0000
,
0001
0000
0100
0000
1000
1000
0100
0000
,
0010
0001
0100
0000
0010
1000
0100
0000
,
1000
0100
0001
0100
0010
1000
0100
0000
,
1000
0001
1000
0100
0001
1000
0001
0100
,
0010
1000
0100
0000
0010
0001
0100
0000
0010
1000
0100
0000
0010
0000
1001
0000
,
0001
1000
0100
0000
0100
0010
0001
0000
0001
0100
0010
1000
0100
0010
0001
0000
,
0001
1000
0100
0000
0001
1000
0100
0000
0010
0000
0010
0000
0010
0000
0001
0000
,
0100
0100
0100
0010
1001
0000
0100
1000
,
0010
0100
0001
0000
0101
0000
1000
0010
,
0100
0001
0010
0000
1100
0000
0010
0001
,
1000
0010
0100
0000
0001
0100
0010
1000
,
0100
1000
0001
0000
0110
0000
1000
0100
,
1000
0010
0100
0000
1001
0000
0100
0010
,
0001
1000
0100
0000
0010
0001
0100
0000
,
0001
1000
0100
0000
1000
0010
0100
0001
,
0010
0100
1000
0001
0200
0000
0000
0000
,
0000
0300
0002
0000
,
0000
0000
0000
0000
0003
0000
0000
0000
1000
0000
0000
1000
0000
0000
1000
0000
,
0001
0000
0000
0000
;

//---------------dance-double - ----------------
#NOTES:
     dance-double:
     :
     Beginner:
     1:
     :
00000000
00000000
00000000
00000000
,
00000000
00000000
00000000
00000000
,
00000000
00000000
00000000
00000000
,
00000000
00000000
00000000
00000000
,
00000001
00000000
00000000
00000000
,
00000100
00000000
00000000
00000000
,
00001000
00000000
00000000
00000000
,
00001000
00000000
00000000
00000000
,
00010000
00000000
00000000
00000000
,
00010000
00000000
00000000
00000000
,
01000000
00000000
00000000
00000000
,
10000000
00000000
00000000
00000000
,
00100000
00000000
00100000
00000000
,
00100000
00000000
00000000
00000000
,
01000000
00000000
01000000
00000000
,
01000000
00000000
00000000
00000000
,
00001000
00000000
00010000
00000000
,
00001000
00000000
00010000
00000000
,
00001000
00000000
00000000
00000000
,
00011000
00000000
00000000
00000000
,
00001000
00000000
00000000
00000000
,
00000010
00000000
00000000
00000000
,
00000001
00000000
00000000
00000000
,
00000100
00000000
00000000
00000000
,
00000001
00000000
00001000
00000000
,
00000001
00000000
00001000
00000000
,
00000100
00000000
00000000
00000000
,
00000100
00000000
00000000
00000000
,
00010000
00000000
00010000
00000000
,
00010000
00000000
00000000
00000000
,
00100000
00000000
00100000
00000000
,
00100000
00000000
00000000
00000000
,
10000000
00000000
10000000
00000000
,
10000000
00000000
00000000
00000000
,
01000000
00000000
01000000
00000000
,
01000000
00000000
00000000
00000000
,
10000000
00000000
01000000
00000000
,
10000000
00000000
01000000
00000000
,
00020000
00000000
00000000
00030000
,
00010000
00000000
00000000
00000000
,
00001000
00000000
00000100
00000000
,
00001000
00000000
00000100
00000000
,
00000002
00000000
00000000
00000003
,
00000001
00000000
00000000
00000000
,
00000010
00000000
00000001
00000000
,
00000100
00000000
00000000
00000000
,
00000010
00000000
00001000
00000000
,
00000100
00000000
00000000
00000000
,
00000001
00000000
00000100
00000000
,
00001000
00000000
00000000
00000000
,
00010000
00000000
01000000
00000000
,
10000000
00000000
00000000
00000000
,
00100000
00100000
00100000
00000000
,
00000000
00000000
10000000
00000000
,
00000000
00000000
01000000
00000000
,
00000000
00000000
00010000
00000000
,
00000000
00000000
00001000
00000000
,
00000000
00000000
00000100
00000000
,
00000000
00000000
00000001
00000000
,
00000000
00000000
00000010
00000000
,
00000000
00000000
00001000
00000000
,
00000000
00000000
00010000
00000000
,
00000000
00000000
00001000
00000000
,
00011000
00000000
00000000
00000000
;

//---------------dance-double - ----------------
#NOTES:
     dance-double:
     :
     Easy:
     4:
     :
00000000
00000000
00000000
00000000
,
00000000
00000000
00000000
00000000
,
00000000
00000000
00000000
00000000
,
00000000
00000000
00000000
00000000
,
10000000
00000000
01000000
00000000
,
00100000
00000000
00001000
00000000
,
00010000
00000000
00000100
00000000
,
00000010
00000000
00000001
00000000
,
00000100
00000000
00000001
00000000
,
00000010
00000000
00001000
00000000
,
00010000
00000000
00100000
00000000
,
10000000
00000000
01000000
00000000
,
20000000
00000000
30000000
00000000
,
02000000
00000000
03000000
00000000
,
00010000
00000000
00001000
00000000
,
00020000
00000000
00030000
00000000
,
00002000
00000000
00003000
00000000
,
00000200
00000000
00000300
00000000
,
00000001
00000000
00001000
00000000
,
00000002
00000000
00000003
00000000
,
00000010
00000010
00000010
00000000
,
00000001
00000000
00000100
00000000
,
00001000
00001000
00001000
00000000
,
00010000
00000000
00001000
00000000
,
00010000
00010000
00010000
00000000
,
00001000
00000000
00010000
00000000
,
01000000
01000000
01000000
00000000
,
10000000
00000000
00100000
00000000
,
10000000
01000000
10000000
01000000
,
00010000
00001000
00010000
00001000
,
00000100
00000001
00000100
00000001
,
00000020
00000000
00000030
00000000
,
00000001
00000010
00000001
00000010
,
00001000
00010000
00001000
00010000
,
00100000
10000000
00100000
10000000
,
02000000
00000000
03000000
00000000
,
10000000
01000000
00100000
00000000
,
01000000
00100000
00001000
00000000
,
00010000
00000100
00000010
00000000
,
00000100
00000010
00000001
00000000
,
00000001
00000100
00000010
00000000
,
00000100
00000010
00010000
00000000
,
00001000
01000000
00100000
00000000
,
01000000
00100000
10000000
00000000
,
10000000
00000000
00010000
00000000
,
00001000
00000000
00000001
00000000
,
00000100
00000000
00001000
00000000
,
00010000
00000000
01000000
00000000
,
10000000
00100000
00010000
00010000
,
00001000
00001000
00000010
00000001
,
00000100
00000100
00000010
00000010
,
00010000
00000000
00001000
00000000
,
00011000
00000000
00010000
00000000
,
01000000
01000000
10000000
00000000
,
00100000
00100000
00020000
00000000
,
00030000
00000000
00011000
00000000
,
00011000
00000000
00001000
00000000
,
00000100
00000100
00000001
00000000
,
00000010
00000010
00002000
00000000
,
00003000
00000000
00011000
00000000
,
00011000
00000000
00020000
00000000
,
00030000
00000000
00200000
00000000
,
00300000
00000000
10000000
00010000
,
00100000
00000000
00000000
00000000
;

//---------------dance-double - ----------------
#NOTES:
     dance-double:
     :
     Medium:
     6:
     :
00000000
00000000
00000000
00000000
,
00000000
00000000
00000000
00000000
,
00000000
00000000
00000000
00000000
,
00000000
00000000
00000000
00000000
,
00000001
00000000
00000010
00000000
,
00001000
00000000
00011000
00000000
,
00010000
00000000
00100000
00000000
,
10000000
00000000
10010000
00000000
,
10000000
01000000
00010000
00000000
,
00001000
00000100
00000001
00000000
,
00000010
00000000
00000100
00000000
,
00010000
00000000
00001000
00000000
,
00011000
00000000
00010000
01000000
,
10000000
00000000
00010000
01000000
,
10000000
00000000
01000000
00000000
,
00100000
00000000
10010000
00000000
,
00100000
10000000
00100000
01000000
,
00001000
00010000
00000010
00000100
,
00001001
00000000
00000110
00000000
,
00001001
00000000
00000000
00000000
00000001
00000100
00001000
00000000
,
00011000
00000000
00000000
00000000
00010000
00001000
00100000
01000000
,
10000000
00000000
00000000
00100000
00000000
01000000
00010000
00000000
,
00000000
00000000
00000000
00000000
00000000
00100000
01000000
10000000
,
00000000
11000000
00000000
01010000
00000000
00000000
00000000
00000000
,
10010000
00000000
00000000
00000000
00000000
10000000
01000000
00010000
,
00000000
00001000
00000000
00010000
00000000
00001000
00000000
00000000
,
01000000
00000000
00000000
00100000
00000000
00000000
10000000
00000000
,
00000000
00000000
00000000
01000000
00000000
00100000
00001000
00010000
,
00001000
00000000
00010000
00000010
00000000
00001010
00000000
00000011
,
00000000
00000000
00000000
00000000
00000000
00000100
00000000
00000000
,
00000010
00000000
00000100
00000001
00000000
00000101
00000000
00001100
,
00000000
00000000
00000000
00000000
00000000
00001000
00000100
00000010
,
00000001
00000000
00000100
00001000
00000000
00010000
00001000
00000000
,
00000000
00000000
00000000
00000000
00000000
01000000
00100000
01000000
,
00010000
00000000
10000000
00010000
00000000
10000000
00000000
01000000
,
00000000
00000000
00000000
11000000
00000000
01000000
00100000
00001000
,
00010000
00000000
00000000
00011000
00000000
00001000
00010000
00000010
,
00000100
00000000
00000000
00000101
00000000
00000100
00000010
00010000
,
00001000
00000000
00000000
00000000
00010000
00001000
00010000
00000100
,
00000000
00000010
00000000
00000001
00000000
00001000
00000001
00000000
,
00001001
00000000
00000000
00001001
00000000
00001000
00000100
00001000
,
00000100
00000000
00000000
00010100
00000000
00010000
00001000
00010000
,
00001000
00000000
00000000
00000000
00100000
00010000
00100000
00010000
,
00000000
10000000
00000000
00100000
00000000
01000000
01000000
00000000
,
00100000
10100000
01000000
01010000
,
00200000
20300000
32000000
03020000
,
00030000
00001000
00000000
00000100
00000000
00000001
00000000
00000000
00000000
00000001
00000000
00000010
00000000
00001000
00000000
00000000
,
00000000
00010000
00000000
00010000
00000000
00001000
00000000
00001000
00000000
00000000
00000000
00000000
00000000
00000000
00000000
00000000
,
01000000
00010000
10000000
00000000
01000000
10000000
00010000
00000000
,
00100000
00100000
00001000
00001000
00010000
00001000
00010000
00000000
,
00000100
00001000
00000001
00000000
00000100
00000001
00001000
00000000
,
00000010
00000010
00000100
00000100
00000020
00000000
00000000
00000030
,
00010000
00001000
00010000
00001000
00011000
00000000
00000000
00011000
,
00000000
00010000
01000000
10000000
10000000
00000000
00000000
10010000
,
00000000
10000000
01000000
00100000
00100000
00000000
00000000
00000000
,
00010000
01000000
00001000
00100000
00000000
00001000
00000000
00010000
,
00000000
00001000
00001000
00000000
00011000
00000000
00000000
00011000
,
00000000
00001000
00000100
00000001
00000001
00000000
00000000
00001001
,
00000000
00000001
00000100
00000010
00000010
00000000
00000000
00000000
,
00001000
00000100
00010000
00001000
00000000
00010000
00001000
00010000
,
00000000
00001000
00010000
00001000
02000000
00000000
00000000
00000000
,
00000000
03000000
00200000
00000000
,
00000000
00000000
00000000
00000000
00300000
00000000
00000000
00000000
01000000
00000000
00000000
01000000
00000000
00000000
01000000
00000000
,
10010000
00000000
00000000
00000000
;

//---------------dance-double - ----------------
#NOTES:
     dance-double:
     :
     Hard:
     8:
     :
00000000
00000000
00000000
00000000
,
00000000
00000000
00000000
00000000
,
00000000
00000000
00000000
00000000
,
00000000
00000000
00000000
00000000
,
00000001
00000000
00000101
00000000
,
00000100
00001000
00011000
00000000
,
00010000
00000000
00000000
01000000
00000000
00000000
10000000
00000000
00100000
00000000
00000000
01000000
00000000
00000000
00010000
00000000
,
00100000
00000000
00000000
01000000
00000000
00000000
10000000
00000000
00100000
00000000
00000000
01000000
00000000
00000000
00001000
00000000
,
00011000
00010100
00000110
00000000
,
00000001
00000000
00000000
00000100
00000000
00001000
00000100
00000010
,
00000000
00000000
00010000
00000000
,
00001000
00000000
00011000
00000000
,
10010000
00000000
00000000
00000000
10000000
00000000
01000000
01000000
,
00100000
00000000
00000000
00000000
00101000
00000000
00000000
00010000
,
00001000
00000000
00000000
00001000
00000010
00000000
00000000
00000010
,
00000001
00000000
00001001
00000000
,
00000001
00000010
00000100
00000000
00000010
00000001
00000100
00000000
,
00001000
00010000
01000000
10000000
00000000
00010000
10000000
00000000
,
10100000
00000000
00101000
00000000
,
00011000
00000000
00000000
00000000
00000000
00000000
01000000
00000000
00000000
00100000
00000000
00000000
01010000
00000000
00000000
00000000
,
00010000
00100000
10000000
01000000
00100000
01000000
10000000
00100000
,
00010000
00001000
00000010
00001000
00010000
00001000
01000000
00000000
,
00100000
01000000
00001000
01000000
00100000
00010000
00001000
00010000
,
01000000
10000000
01000000
00010000
00001000
00010000
00000100
00000000
,
00000010
00000001
00001000
00000001
00000010
00000100
00010000
00001000
,
00000100
00000010
00010000
00001000
00000100
00000001
00000010
00000000
,
00000100
00010000
00001000
01000000
00001000
00010000
00000100
00010000
,
00001000
00100000
00001000
00010000
00000010
00010000
00001000
00000000
,
01000000
00010000
01000000
00000000
00010000
01000000
00010000
00000000
,
10000000
01000000
00010000
00001000
00010000
00000100
00000010
00000000
,
00000001
00000100
00000001
00000000
00000100
00000001
00000100
00000000
,
00000010
00010000
00000010
00001000
00000001
00000010
00000100
00000000
,
00010000
00001000
00010000
00001000
00010000
00001000
00010000
00000100
,
00000010
00000100
00000010
00000001
00000100
00000001
00000100
00001000
,
00010000
00001000
00010000
00001000
00010000
00001000
00010000
00001000
,
01001000
00000000
00000000
01010000
00000000
00100000
10000000
01000000
,
00100000
00000000
01000000
00100000
00010000
01000000
00001000
00010000
,
01000000
00000000
00010000
00001000
00010000
00000100
00000001
00000100
,
00001000
00000000
00001001
00000000
00000010
00000100
00000001
00000010
,
00000001
00001000
00000100
00000010
00000100
00010000
00001000
00000000
,
00011000
00000000
00010000
00001000
01000000
00010000
00100000
01000000
,
00010000
00000000
01000000
10000000
00100000
01000000
00001000
00010000
,
00001000
00000000
00011000
00000000
00010000
00000100
00000010
00000002
,
00000000
00002003
00000000
00003002
00000000
00002003
00000001
00003000
,
00001001
00000000
00000000
00000000
00000000
00000100
00000001
00001000
00000001
00000000
00000000
00000100
00000000
00001000
00010000
00001000
,
01000000
00000000
00000000
00000000
00110000
00000000
00000000
00000000
10100000
00000000
00000000
00000000
10000000
00000000
01000000
00100000
,
00010000
00000000
00000000
00000000
00000000
10000000
01000000
10000000
00100000
00000000
00000000
00010000
00000000
00001000
00010000
00000010
,
00001000
00000000
00000000
00000000
00000101
00000000
00000000
00000000
00001100
00000000
00000000
00000000
00000001
00000000
00000010
00000100
,
00001000
00000000
00000001
00000000
00000100
00000000
00000001
00000000
00000010
00000100
00001000
00000000
00000001
00000100
00001000
00000000
,
00010000
00000000
00100000
00000000
01000000
00000000
00010000
00000000
00100000
01000000
10000000
00000000
00100000
01000000
00001000
00000000
,
00010000
00001000
01000000
00000000
00100000
10000000
01000000
00000000
00100000
00001000
00010000
00001000
01000000
00100000
10000000
00000000
,
01000000
00100000
00001000
00010000
00000010
00001000
00000100
00000000
00002002
00000000
00000000
00000000
00000000
00000000
00003003
00000000
,
00000010
00000001
00000100
00001000
00010000
01000000
10000000
00100000
01000000
00000000
00010000
00000000
10000000
00000000
01000000
00000000
,
00100000
00001000
00010000
00100000
00010000
00001000
01000000
00001000
,
00010000
01000000
10000000
00010000
00100000
00000000
00101000
00000000
,
01000000
10000000
00100000
01000000
00001000
00010000
00000100
00000010
,
00000001
00000100
00000001
00001000
00000100
00000010
00000001
00000100
,
00001000
00010000
00001000
00100000
01000000
10000000
01000000
00100000
,
00001000
00010000
00000010
00010000
00001000
00000000
00010100
00000000
,
00000010
00000001
00000010
00000001
00000000
00000100
00001000
00010000
,
00000000
00001000
00100000
01000000
20000000
00000000
00000000
00000000
,
00000000
00000000
30000000
00100000
02000000
00000000
00000000
00000000
,
00000000
00000000
00000000
00000000
03000000
00000000
00001000
00000000
00010000
00000000
00000000
00100000
00000000
00000000
10000000
00000000
,
10010000
00000000
00000000
00000000
;

//---------------dance-double - ----------------
#NOTES:
     dance-double:
     :
     Challenge:
     8:
     :
00000000
00000000
00000000
00000000
,
00000000
00000000
00000000
00000000
,
00000000
00000000
00000000
00000000
,
00000000
00000000
00000000
00000000
,
00010000
00010000
00010000
00010000
,
00001000
00001000
00001000
00001000
,
00000010
00000001
00000100
00000000
00000010
00001000
00000100
00000000
,
00010000
00001000
00010000
00001000
00010000
00000000
01001000
00000000
,
00010000
00100000
10000000
01000000
,
00010000
00001000
00000010
00000001
,
00000100
00001000
00010000
00100000
,
00100000
10000000
01000000
10000000
00010000
00000000
01010000
00000000
,
00011000
00000000
00000000
00000000
00000100
00000000
00000001
00000001
,
00000001
00000000
00000010
00000000
00000100
00000000
00010000
00001000
,
00001000
00000000
00000000
01000000
00100000
00000000
00000000
00001000
,
00010000
00000000
00000010
00001001
,
00000010
00000001
00000100
00001000
00010000
00001000
00000100
00000000
,
00001000
00010000
00100000
10000000
01000000
00010000
00001000
00000000
,
00000010
00001000
00000100
00000000
00000010
00000001
00000100
00000000
,
00000001
00000100
00001000
00010000
00001000
00010000
01000000
00000000
,
10000000
00010000
01000000
00100000
00010000
00001000
00010000
00000000
,
00001000
00000010
00000100
00001000
00000010
00000100
00000001
00000000
,
00000010
00000100
00001000
00000100
00010000
00001000
00100000
00000000
,
00010000
10000000
01000000
00010000
00001000
00010000
01000000
00000000
,
00010000
00001000
00000100
00000001
00000010
00000100
00001000
00000000
,
00000010
00000100
00001000
00010000
00001000
00100000
01000000
00000000
,
00100000
00001000
00010000
00001000
00000010
00000001
00000100
00000000
,
00000010
00001000
00000100
00000000
00010100
00000000
00011000
00000000
,
00100000
10000000
01000000
00000000
10000000
01000000
00010000
00000000
,
00000010
00001000
00000100
00000000
00000001
00000100
00001000
00000000
,
00001000
00010000
01000000
00000000
10000000
00100000
01000000
00000000
,
00001000
00010000
00100000
00000000
00010000
00000000
00011000
00000000
,
00000010
00001000
00000100
00000000
00000001
00000010
00000100
00000000
,
00010000
00001000
00100000
00010000
10000000
00000000
01010000
00000000
,
00100000
10000000
01000000
00000000
00010000
00001000
00010000
00000000
,
00001000
00000100
00000001
00000010
00000100
00000000
00011000
00000000
,
00010100
00000000
00000010
00000001
00000100
00000001
00001000
00000000
,
00010100
00000000
00001000
00010000
01000000
10000000
00010000
00000000
,
11000000
00000000
10000000
00100000
01000000
00010000
01000000
00000000
,
00101000
00000000
00010000
00001000
00000100
00000000
00000110
00000000
,
00000110
00000000
00000001
00000100
00001000
00100000
00010000
00000000
,
01010000
00000000
10000000
01000000
00100000
00001000
00010000
00000000
,
00011000
00000000
00000010
00000001
00000100
00001000
00000100
00000000
,
00001000
00100000
01000000
00010000
00001000
01000000
00100000
00010000
,
00001000
00000000
00001000
00000000
00000100
00000100
00000001
00000000
,
00000100
00000000
00001000
00000000
00010000
00010000
01000000
00000000
,
00100000
00010000
01000000
00000000
00100000
10000000
01000000
00000000
,
10000000
01000000
00010000
01000000
00100000
00010000
00001000
00000000
,
00001000
00000010
00000001
00000100
00001000
00010000
00001000
01000000
,
00100000
10000000
01000000
00000000
00100000
00001000
00010000
00000000
00000100
00001000
00000100
00000000
00000010
00000000
00001001
00000000
,
00000010
00000100
00000010
00000000
00010000
00001000
00010000
00000000
00010000
01000000
00100000
10000000
01000000
00100000
00010000
00000000
,
00010000
10000000
01000000
00000000
00010000
00001000
00010000
00000000
00000010
00000000
00000010
00000000
00000010
00000000
00001000
00000000
,
00000100
00000100
00000100
00010000
00011000
00000000
00000010
00000001
,
00000100
00000010
00000100
00000000
00000101
00000000
00000010
00001000
,
00000100
00010000
00001000
00000000
01001000
00000000
00100000
00010000
,
10000000
00100000
01000000
00000000
00001000
00010000
00100000
10000000
,
01000000
00010000
01000000
00000000
11000000
00000000
00010000
01000000
,
00010000
00100000
00001000
00000000
00010100
00000000
00000100
00000010
,
00000001
00000100
00001000
00000000
00010000
00001000
01000000
00000000
,
00010000
10000000
01000000
00000000
00100000
00001000
00010000
00000100
,
00000010
00000001
00000100
00000001
00000200
00000000
00000000
00000000
,
00000000
00000300
00002000
00000000
,
00000000
00000000
00000000
00000000
00003000
00000000
00000000
00000000
00010000
00000000
00000000
00100000
00000000
00000000
10000000
00000000
,
01000000
00000000
00000000
00000000
;
