#TITLE:Pacemaker;
#ARTIST:GRIDLOK and Silver;
#BANNER:Pacemaker.png;
#BACKGROUND:Pacemaker-bg.png;
#CDTITLE:./CDTITLES/Song Pack 17.png;
#MUSIC:Pacemaker.ogg;
#SAMPLESTART:1.348;
#SAMPLELENGTH:15;
#DISPLAYBPM:172;
#BPMS:0=164.384,4=171.958,276=177.34;

//---------------dance-single - ----------------
#NOTES:
     dance-single:
     :
     Beginner:
     1:
     :
0000
0000
0000
0000
,
0000
0000
0000
0000
,
0000
0000
0000
0000
,
0000
0000
0000
0000
,
0000
0000
0000
0000
,
0010
0000
0000
0000
,
1000
0000
0000
0000
,
0001
0000
0000
0000
,
0100
0000
0000
0000
,
0020
0000
0000
0030
,
0000
0000
0000
0000
,
0200
0000
0000
0300
,
0000
0000
0000
0000
,
0002
0000
0000
0003
,
0000
0000
0000
0000
,
1000
0000
0000
0000
,
0010
0000
0000
0000
,
0100
0000
0100
0000
,
0001
0000
0100
0000
,
0010
0000
0010
0000
,
1000
0000
0010
0000
,
0001
0000
0001
0000
,
1000
0000
1000
0000
,
1000
0000
1000
0000
,
0010
0000
0010
0000
,
0100
0000
0100
0000
,
0001
0000
0100
0000
,
1000
0000
1000
0000
,
0001
0000
1000
0000
,
0010
0000
0010
0000
,
1000
0000
0010
0000
,
0100
0000
0100
0000
,
0100
0100
0100
0100
,
0100
0000
0000
0000
,
0010
0010
0010
0000
,
0010
0000
0000
0000
,
1000
1000
1000
0000
,
1000
0000
0000
0000
,
0001
0001
0001
0000
,
0001
0000
0000
0000
,
0010
0010
0010
0000
,
0020
0000
0000
0030
,
0000
0000
0000
0000
,
0200
0000
0000
0300
,
0000
0000
0000
0000
,
0002
0000
0000
0003
,
0000
0000
0000
0000
,
1000
0000
0000
0000
,
0010
0000
0000
0000
,
1000
1000
1000
0000
,
0001
0001
0001
0000
,
0010
0000
0010
0000
,
0100
0100
0100
0000
,
0010
0010
0010
0000
,
1000
1000
1000
0000
,
0001
0000
0001
0000
,
1000
1000
1000
0000
,
0001
0000
0001
0000
,
1000
0000
0001
0000
,
0100
0000
0100
0000
,
0010
0000
0100
0000
,
0001
0000
0001
0000
,
1000
0000
0001
0000
,
0010
0000
0010
0000
,
0010
0010
0010
0010
,
0020
0000
0000
0000
,
0030
0000
0000
0000
,
1000
1000
1000
0000
;

//---------------dance-single - ----------------
#NOTES:
     dance-single:
     :
     Easy:
     4:
     :
0000
0000
0000
0000
,
0000
0000
0000
0000
,
0000
0000
0000
0000
,
0000
0000
0000
0000
,
0000
0000
0000
0000
,
0010
0000
1000
0000
,
0001
0010
0100
1000
,
0010
0000
0100
0000
,
0001
0001
0001
0001
,
0100
0000
0000
0000
,
0010
0000
0000
0000
,
1000
0000
0001
0000
,
1000
0000
0010
0000
,
0100
0100
0010
0010
,
0100
0100
0001
0001
,
1000
1000
0100
0100
,
0010
0010
0010
0000
,
1000
0100
1000
0010
,
0100
0000
0100
0000
,
0001
1000
0001
0100
,
0010
0000
0010
0000
,
0100
0001
0010
0100
,
1000
0000
0001
0000
,
0001
1000
0010
0100
,
0100
0000
0010
0000
,
0001
1000
0010
0100
,
0001
0001
0001
0001
,
1000
0000
0010
0100
,
0001
0010
0100
1000
,
0010
0000
0100
0001
,
1000
0100
1000
0010
,
0100
0000
0010
1000
,
0010
0001
0010
1000
,
0100
0000
0010
0000
,
0001
0000
0010
0000
,
0100
0000
1000
0000
,
0010
1000
0100
0010
,
0001
0000
1000
0000
,
0001
0000
0100
0000
,
0010
0000
0100
0000
,
0010
1000
0100
1000
,
0010
0000
0000
0000
,
0100
0000
0100
0000
,
0001
0000
0001
0000
,
1000
0000
0001
0000
,
1000
1000
0010
0010
,
0100
0100
0001
0001
,
0010
0010
0100
0100
,
1000
1000
1000
1000
,
0010
0100
0001
0100
,
0010
0001
0010
0000
,
1000
0100
1000
0010
,
0001
0010
1000
0000
,
1000
0100
0001
0100
,
1000
0010
0100
0000
,
0010
0100
0001
0010
,
0001
1000
0100
0010
,
0001
0001
0001
0001
,
2000
0000
3000
0000
,
0010
0010
0010
0010
,
0200
0000
0300
0000
,
0001
0001
0001
0001
,
2000
0000
3000
0000
,
0100
0100
0100
0100
,
0020
0000
0030
0000
,
0001
0001
0001
0001
,
0020
0000
0030
0000
,
1000
1000
1000
0000
;

//---------------dance-single - ----------------
#NOTES:
     dance-single:
     :
     Medium:
     6:
     :
0000
0000
0000
0000
,
0000
0000
0000
0000
,
0000
0000
0000
0000
,
0000
0000
0000
0000
,
0000
0000
0000
0000
,
0010
0000
1000
0000
0010
0000
0100
0001
,
0001
0000
0010
0000
0001
0000
1000
0100
,
0100
0000
0010
0000
0100
0000
1000
0001
,
0002
0000
0003
0100
0200
0000
0300
0010
,
0020
0000
0000
0000
,
0130
0000
0100
0000
,
0001
0000
0001
0000
,
1000
0000
1000
0000
,
0100
0100
0001
0001
,
0100
0100
1000
1000
,
1001
0101
1001
1100
,
0010
0001
0010
0001
1000
0100
1000
0100
,
0001
0100
1000
1010
,
0011
0100
1000
1100
,
0101
0010
1000
0011
,
1010
0100
0001
1100
,
0101
0000
0010
0000
0001
0000
1000
0100
,
0100
0000
0010
0000
0001
0000
0100
0010
,
0010
0000
1000
0000
0001
0000
0010
0100
,
0100
0000
0010
0000
0001
0000
1000
0010
,
0110
0000
1000
0100
0010
0000
0001
1000
,
0100
0000
0010
0100
1000
0000
0001
1000
,
0001
0000
0100
0010
1000
0000
0001
0100
,
0010
0000
0100
0001
1000
0000
0100
0010
,
0110
0000
0001
0100
1000
0000
1000
0100
,
0001
0000
0010
0001
1000
0100
1000
0100
,
1000
0000
0001
0010
1000
0000
1000
0010
,
0001
0000
0100
0001
1000
0010
1000
0010
,
1001
0200
0010
0010
,
0302
0100
1000
1000
,
0023
1000
0100
0100
,
0032
0100
1000
1000
,
0203
1000
0010
0010
,
0302
0010
1000
1000
,
0023
0001
0100
0100
,
0032
1000
0100
0103
,
2002
0000
0000
3000
,
0100
0000
0100
0000
,
0010
0000
0010
0000
,
0100
0000
0100
0000
,
0013
0100
1000
0010
,
0002
0023
2030
3200
,
0310
0100
0010
0100
1000
0001
1000
0001
,
0100
0001
1000
0100
1000
0001
0100
0001
,
1000
0010
0001
0101
,
1100
0010
0001
0011
,
1010
0100
0001
1100
,
0101
0010
1000
0011
,
1010
0000
0100
0000
1000
0000
0001
0010
,
0010
0000
0100
0000
1000
0000
0010
0100
,
0100
0000
0001
0000
1000
0000
0100
0010
,
0010
0000
0100
0000
1000
0000
0001
0100
,
0110
0000
0001
0010
0100
0000
1000
0001
,
0010
0000
0100
0010
0001
0000
1000
0001
,
1000
0000
0010
0100
0001
0000
1000
0010
,
0100
0000
0010
1000
0001
0000
0010
0100
,
0110
0000
1000
0010
0001
0000
0001
0010
,
1000
0000
0100
1000
0001
0010
0001
0010
,
0001
0000
1000
0100
0001
0000
0001
0100
,
1000
0000
0010
1000
0001
0100
0001
0100
,
0002
0000
0000
0000
,
0003
0000
0000
0000
,
0010
0010
0010
0010
;

//---------------dance-single - ----------------
#NOTES:
     dance-single:
     :
     Hard:
     8:
     :
0000
0000
0000
0000
,
0000
0000
0000
0000
,
0000
0000
0000
0000
,
0000
0000
0000
0000
,
0000
0000
0000
0000
,
0100
0000
1000
0000
0010
0010
0101
0000
,
1000
0000
0010
0000
0100
0100
0011
0000
,
1000
0000
0010
0000
0100
0100
1010
0000
,
0100
0000
0001
0000
0010
0010
1001
0100
,
0200
0000
0000
0000
,
0001
0000
0001
0000
,
0010
0000
0010
0000
,
1000
0000
1300
0000
,
0101
1100
0101
1100
,
0011
1010
0011
1010
,
0100
0001
0010
0100
1000
0010
0100
0001
,
0010
0001
0100
0010
1000
0100
0010
0001
,
1000
0000
0110
0000
0001
0100
0010
1000
,
0001
0000
0110
0000
1000
0010
0100
0001
,
0020
0000
0000
0000
0032
0000
0000
0000
0203
0000
0000
1000
0000
0000
0010
0000
,
0302
0000
0000
0000
0023
0000
0000
0000
0230
0000
0000
0001
0000
0000
0010
0000
,
1300
0000
0110
0000
1000
0100
0010
0001
,
1000
0000
0110
0000
0001
0100
0010
1000
,
0002
0000
0000
0000
0203
0000
0000
0000
0320
0000
0000
0001
0000
0000
0100
0000
,
2030
0000
0000
0000
3200
0000
0000
0000
0320
0000
0000
1000
0000
0000
0100
0000
,
0031
0000
0110
1000
0001
0010
0100
0000
,
1000
0000
0110
0001
1000
0010
0100
0000
,
1010
0000
0100
0001
1000
0010
0100
0000
,
0011
0000
0100
1000
0001
0010
0100
0000
,
1000
0010
1000
0020
0100
0100
0130
0000
,
0001
0100
0001
0200
0010
0010
0310
0000
,
1000
0100
1000
0010
0100
0001
0010
0001
,
0100
0010
1000
0010
0100
0000
1001
0000
,
0020
0000
0000
0000
0000
0000
0000
0000
1030
0000
0000
1010
0000
0000
0002
0000
,
0000
0000
0000
0000
0013
0000
0000
0000
0011
0000
0000
0110
0000
0000
0100
0000
,
2000
0000
0000
0000
3010
0000
0000
0000
0110
0000
0000
0101
0000
0000
2000
0000
,
0000
0000
0000
0000
3010
0000
0000
0000
0101
0000
0000
0011
0000
0000
0010
0000
,
0200
0000
0000
0000
1300
0000
0000
0000
1010
0000
0000
1100
0000
0000
0100
0000
,
0020
0000
0000
0000
0031
0000
0000
0000
0101
0000
0000
0011
0000
0000
0100
0000
,
2000
0000
0000
0000
3001
0000
0000
0000
0101
0000
0000
0110
0000
0000
1010
0000
,
0100
0001
0010
0100
1000
0100
0010
0001
,
0220
0000
0000
0030
,
1000
0000
0001
0000
,
1000
0000
0001
0000
,
1000
0000
0301
1000
,
1001
1001
1001
1001
,
0011
1010
0101
1100
,
0001
1000
0001
1000
0001
1000
0001
1000
,
0010
0100
0001
0010
0100
1000
0010
1000
,
1001
0000
0101
0000
1000
0001
0100
0010
,
0100
0000
1010
0000
0100
0001
0010
0100
,
0010
0000
1100
0000
0001
0010
0100
1000
,
0100
0000
1010
0000
0001
0100
0010
1000
,
0010
0100
0110
0000
1000
0010
0100
0001
,
0010
0001
1001
0000
0100
1000
0010
0100
,
0001
0100
0110
0000
1000
0001
0100
0010
,
1000
0001
1001
0000
0001
1000
1001
0000
,
0010
0000
1000
0000
0100
0000
1000
0000
0001
0000
0000
0001
0000
0000
0001
0000
,
1000
0000
0100
0000
0010
0000
0001
0000
1000
0000
0000
1000
0000
0000
1000
0000
,
0001
0000
0100
0000
0010
0000
1000
0000
0100
0000
0000
0100
0000
0000
0100
0000
,
1000
0000
0001
0000
0010
0000
0100
0000
1000
0000
0000
1000
0000
0000
1000
0000
,
0100
0000
0010
0000
0001
0000
1000
0000
0010
0000
0000
0010
0000
0000
0010
0000
,
0100
0000
0001
0000
1000
0000
0010
0000
0100
0000
0000
0100
0000
0000
0100
0000
,
0001
0010
0011
0000
0100
1000
1010
0000
,
0110
0001
1000
0010
0100
0001
0010
0100
,
2002
0000
0000
3003
,
0000
0000
0000
0000
,
0200
0010
0010
0010
,
0300
0000
0000
0000
;

//---------------dance-double - ----------------
#NOTES:
     dance-double:
     :
     Beginner:
     1:
     :
00000000
00000000
00000000
00000000
,
00000000
00000000
00000000
00000000
,
00000000
00000000
00000000
00000000
,
00000000
00000000
00000000
00000000
,
00000000
00000000
00000000
00000000
,
00001000
00000000
00000000
00000000
,
00010000
00000000
00000000
00000000
,
00000100
00000000
00000000
00000000
,
00001000
00000000
00000000
00000000
,
00000020
00000000
00000000
00000030
,
00000000
00000000
00000000
00000000
,
00000002
00000000
00000000
00000003
,
00000000
00000000
00000000
00000000
,
00000200
00000000
00000000
00000300
,
00000000
00000000
00000000
00000000
,
00000010
00000000
00000000
00000000
,
00010000
00000000
00000000
00000000
,
00001000
00000000
00001000
00000000
,
01000000
00000000
00010000
00000000
,
10000000
00000000
10000000
00000000
,
00100000
00000000
01000000
00000000
,
10000000
00000000
10000000
00000000
,
00010000
00000000
00010000
00000000
,
00100000
00000000
00100000
00000000
,
00001000
00000000
00001000
00000000
,
00010000
00000000
00010000
00000000
,
00000100
00000000
00000010
00000000
,
00000100
00000000
00000100
00000000
,
00001000
00000000
00000001
00000000
,
00000100
00000000
00000100
00000000
,
00000010
00000000
00001000
00000000
,
00000100
00000000
00000100
00000000
,
00010000
00010000
00010000
00010000
,
00010000
00000000
00000000
00000000
,
00001000
00001000
00001000
00000000
,
00001000
00000000
00000000
00000000
,
00100000
00100000
00100000
00000000
,
00100000
00000000
00000000
00000000
,
01000000
01000000
01000000
00000000
,
01000000
00000000
00000000
00000000
,
00010000
00010000
00010000
00000000
,
00020000
00000000
00000000
00030000
,
00000000
00000000
00000000
00000000
,
20000000
00000000
00000000
30000000
,
00000000
00000000
00000000
00000000
,
00200000
00000000
00000000
00300000
,
00000000
00000000
00000000
00000000
,
01000000
00000000
00000000
00000000
,
00010000
00000000
00000000
00000000
,
00100000
00100000
00100000
00000000
,
00001000
00001000
00001000
00000000
,
00010000
00000000
00010000
00000000
,
00000100
00000100
00000100
00000000
,
00001000
00001000
00001000
00000000
,
00000001
00000001
00000001
00000000
,
00000100
00000000
00000100
00000000
,
00000010
00000010
00000010
00000000
,
00010000
00000000
00010000
00000000
,
00001000
00000000
00010000
00000000
,
00001000
00000000
00001000
00000000
,
00100000
00000000
00010000
00000000
,
01000000
00000000
01000000
00000000
,
00100000
00000000
10000000
00000000
,
00010000
00000000
00010000
00000000
,
01000000
01000000
01000000
01000000
,
02000000
00000000
00000000
00000000
,
03000000
00000000
00000000
00000000
,
00010000
00010000
00010000
00000000
;

//---------------dance-double - ----------------
#NOTES:
     dance-double:
     :
     Easy:
     4:
     :
00000000
00000000
00000000
00000000
,
00000000
00000000
00000000
00000000
,
00000000
00000000
00000000
00000000
,
00000000
00000000
00000000
00000000
,
00000000
00000000
00000000
00000000
,
00000001
00000000
00001000
00000000
,
00000100
00000010
00000100
00000000
,
00010000
00000000
00001000
00000000
,
00100000
00100000
00100000
00100000
,
00010000
00000000
00000000
00000000
,
10000000
00000000
00000000
00000000
,
00100000
00000000
01000000
00000000
,
00010000
00000000
00100000
00000000
,
00001000
00001000
00010000
00010000
,
00000100
00000100
00001000
00001000
,
00000010
00000010
00000100
00000100
,
00000001
00000001
00000001
00000000
,
00001000
00000100
00010000
00001000
,
00010000
00000000
00010000
00000000
,
00001000
00100000
00001000
01000000
,
00100000
00000000
00010000
00000000
,
10000000
01000000
00100000
00010000
,
00100000
00000000
00001000
00000000
,
00010000
00000100
00000010
00001000
,
00001000
00000000
00000010
00000000
,
00000100
00000001
00001000
00000001
,
00000010
00000010
00000010
00000010
,
00000100
00000000
00010000
00001000
,
00100000
00010000
01000000
00100000
,
10000000
00000000
00010000
01000000
,
00100000
10000000
00010000
10000000
,
00100000
00000000
01000000
00001000
,
00010000
00001000
00010000
00000100
,
00001000
00000000
00000010
00000000
,
00001000
00000000
00000001
00000000
,
00000100
00000000
00010000
00000000
,
01000000
10000000
00100000
10000000
,
01000000
00000000
00100000
00000000
,
10000000
00000000
00010000
00000000
,
01000000
00000000
00100000
00000000
,
00010000
00100000
00001000
00010000
,
00000100
00000000
00000000
00000000
,
00001000
00000000
00001000
00000000
,
00000010
00000000
00000010
00000000
,
00001000
00000000
00000001
00000000
,
00000100
00000100
00000010
00000010
,
00010000
00010000
00001000
00001000
,
00010000
00010000
00000100
00000100
,
00010000
00010000
00010000
00010000
,
00001000
00100000
00010000
10000000
,
00100000
01000000
00010000
00000000
,
10000000
00100000
10000000
00010000
,
00100000
00010000
10000000
00000000
,
00100000
01000000
00001000
00010000
,
00000100
00001000
00000010
00000000
,
00000100
00000010
00000100
00000001
,
00000010
00000001
00000100
00000010
,
00001000
00001000
00001000
00001000
,
00000200
00000000
00000300
00000000
,
00010000
00010000
00010000
00010000
,
00002000
00000000
00003000
00000000
,
00100000
00100000
00100000
00100000
,
00020000
00000000
00030000
00000000
,
01000000
01000000
01000000
01000000
,
00002000
00000000
00003000
00000000
,
00010000
00010000
00010000
00010000
,
00002000
00000000
00003000
00000000
,
00000100
00000100
00000100
00000000
;

//---------------dance-double - ----------------
#NOTES:
     dance-double:
     :
     Medium:
     6:
     :
00000000
00000000
00000000
00000000
,
00000000
00000000
00000000
00000000
,
00000000
00000000
00000000
00000000
,
00000000
00000000
00000000
00000000
,
00000000
00000000
00000000
00000000
,
10000000
00000000
00010000
00000000
10000000
00000000
01000000
00100000
,
00100000
00000000
00010000
00000000
10000000
00000000
00010000
01000000
,
01000000
00000000
00100000
00000000
00010000
00000000
00001000
00010000
,
00020000
00000000
00030000
00001000
00002000
00000000
00003000
00000100
,
00000200
00000000
00000000
00000000
,
00000301
00000000
00000100
00000000
,
00001000
00000000
00000100
00000000
,
00000001
00000000
00000010
00000000
,
00000100
00000100
00010000
00010000
,
00001000
00001000
01000000
01000000
,
01100000
01100000
10100000
10100000
,
10000000
01000000
10000000
01000000
00100000
01000000
00100000
00010000
,
10000000
01000000
00100000
00110000
,
00101000
00001000
00010000
00010010
,
00001010
00000100
00000001
00000011
,
00001010
00000001
00000010
00001100
,
00000101
00000000
00001000
00000000
00000010
00000000
00000100
00000010
,
00000010
00000000
00001000
00000000
00000100
00000000
00010000
00000100
,
00000100
00000000
00010000
00000000
00001000
00000000
01000000
00001000
,
00001000
00000000
00100000
00000000
00010000
00000000
01000000
00010000
,
10010000
00000000
10000000
00010000
00100000
00000000
00010000
10000000
,
01000000
00000000
00100000
00010000
01000000
00000000
00001000
00010000
,
00001000
00000000
00000100
00001000
00000010
00000000
00001000
00000001
,
00000010
00000000
00000100
00001000
00000001
00000000
00000100
00000010
,
00000110
00000000
00001000
00000100
00000001
00000000
00000100
00001000
,
00000001
00000000
00000100
00000010
00000100
00000001
00000100
00001000
,
00010000
00000000
00010000
01000000
10000000
00000000
01000000
10000000
,
00010000
00000000
00100000
01000000
00100000
10000000
00100000
00010000
,
10010000
02000000
00100000
00100000
,
03002000
00100000
00010000
00010000
,
00023000
00000100
00001000
00001000
,
00030200
00001000
00000010
00000010
,
00002300
00000001
00000010
00000010
,
00003002
00000100
00001000
00001000
,
00000203
00001000
00000010
00000010
,
00002300
00100000
00010000
00013000
,
00022000
00000000
00000000
00003000
,
00001000
00000000
00100000
00000000
,
00001000
00000000
01000000
00000000
,
00001000
00000000
00100000
00000000
,
00031000
00010000
01000000
10000000
,
00200000
00320000
00230000
20300000
,
30010000
10000000
00010000
10000000
00100000
01000000
00100000
01000000
,
00001000
00010000
00001000
00010000
00000100
00000010
00000100
00000010
,
00000001
00001000
00000001
00000101
,
00001001
00000100
00010000
00010100
,
00011000
00100000
00001000
00110000
,
01100000
10000000
00010000
01010000
,
10010000
00000000
01000000
00000000
00100000
00000000
10000000
00010000
,
00010000
00000000
00100000
00000000
00001000
00000000
00010000
00000100
,
00000100
00000000
00000010
00000000
00000001
00000000
00001000
00000010
,
00000010
00000000
00000100
00000000
00000001
00000000
00001000
00000001
,
00001001
00000000
00000100
00001000
00000100
00000000
00010000
00001000
,
00010000
00000000
01000000
00010000
01000000
00000000
10000000
00010000
,
10000000
00000000
00100000
10000000
00010000
00000000
01000000
00001000
,
00010000
00000000
00000100
00001000
00000001
00000000
00000010
00000100
,
00000110
00000000
00001000
00000100
00000001
00000000
00000100
00001000
,
00000010
00000000
00000100
00000001
00000100
00000001
00000100
00001000
,
00010000
00000000
00010000
01000000
10000000
00000000
01000000
10000000
,
00010000
00000000
00100000
01000000
00100000
10000000
00100000
10000000
,
10010000
00000000
00000000
00000000
,
00000000
00000000
00000000
00000000
,
00001000
00001000
00001000
00001000
;

//---------------dance-double - ----------------
#NOTES:
     dance-double:
     :
     Hard:
     8:
     :
00000000
00000000
00000000
00000000
,
00000000
00000000
00000000
00000000
,
00000000
00000000
00000000
00000000
,
00000000
00000000
00000000
00000000
,
00000000
00000000
00000000
00000000
,
00100000
00000000
00010000
00000000
01000000
00010000
01010000
00000000
,
00100000
00000000
10000000
00000000
01000000
10000000
11000000
00000000
,
00100000
00000000
00001000
00000000
00010000
00001000
00011000
00000000
,
01000000
00000000
00001000
00000000
00010000
00000100
00001100
00000100
,
00020000
00000000
00000000
00000000
,
00001000
00000000
00032000
00000000
,
00000100
00000000
00003200
00000000
,
00000001
00000000
00000302
00000000
,
00001003
00001010
00000110
00001010
,
00010000
00110000
01100000
00110000
,
00001000
00010000
00001000
00000100
00000001
00000100
00001000
00010000
,
01000000
10000000
01000000
00010000
00001000
00000100
00000010
00001000
,
00000001
00000000
00001001
00000000
00001000
00000001
00000100
00000010
,
00002000
00000000
00003200
00000000
00010300
00001000
01000000
00010000
,
00200000
00000000
00000000
00000000
00320000
00000000
00000000
00000000
10030000
00000000
00000000
01000000
00000000
00000000
00100000
00000000
,
00020000
00000000
00000000
00000000
20030000
00000000
00000000
00000000
31000000
00000000
00000000
00010000
00000000
00000000
00001000
00000000
,
00020000
00000000
00032000
00000000
00013000
00000100
00001000
00000001
,
00000020
00000000
00000230
00000000
00001300
00000001
00000010
00000100
,
00002000
00000000
00000000
00000000
00003020
00000000
00000000
00000000
00000130
00000000
00000000
00000001
00000000
00000000
00000100
00000000
,
00002000
00000000
00000000
00000000
00023000
00000000
00000000
00000000
01030000
00000000
00000000
10000000
00000000
00000000
00100000
00000000
,
01100000
00000000
00100000
10000000
00100000
01000000
00010000
00000000
,
01010000
00000000
01000000
00010000
01000000
00100000
00010000
00000000
,
00011000
00000000
00010000
00001000
00010000
00000100
00001000
00000000
,
00001010
00000000
00000010
00001000
00000010
00000200
00000301
00000000
,
00000010
00000001
00001000
00000200
00010000
00010000
00010300
00000000
,
00001000
01000000
00010000
20000000
00100000
00100000
30100000
00000000
,
10000000
00010000
01000000
00000000
00001000
00010000
00000100
00000000
,
00000010
00000001
00001000
00000100
00000010
00000000
00001001
00000000
,
00000100
00000000
00000000
00000000
00001000
00000000
00000000
00000000
00000020
00000000
00000000
00002030
00000000
00000000
00003200
00000000
,
00010000
00000000
00000000
00000000
00001300
00000000
00000000
00000000
00000200
00000000
00000000
00020300
00000000
00000000
00032000
00000000
,
01000000
00000000
00000000
00000000
00013000
00000000
00000000
00000000
02000000
00000000
00000000
03200000
00000000
00000000
20300000
00000000
,
01000000
00000000
00000000
00000000
30010000
00000000
00000000
00000000
02000000
00000000
00000000
03002000
00000000
00000000
00203000
00000000
,
00010000
00000000
00000000
00000000
00301000
00000000
00000000
00000000
00020000
00000000
00000000
00030020
00000000
00000000
00002030
00000000
,
00000100
00000000
00000000
00000000
00003001
00000000
00000000
00000000
00000020
00000000
00000000
00000032
00000000
00000000
00002003
00000000
,
00000010
00000000
00000000
00000000
00003100
00000000
00000000
00000000
00020000
00000000
00000000
00032000
00000000
00000000
01003000
00000000
,
00010000
00010000
10000000
10000000
00100000
00100000
01000000
01000000
,
20020000
00000000
00000000
30030000
,
01100000
00000000
11000000
00000000
,
01010000
00000000
00101000
00000000
,
00010100
00000000
00001010
00000000
,
00000002
00000203
00002300
00023000
,
02030000
23000000
30200000
01300000
,
10000000
01000000
00010000
00100000
00010000
01000000
00001000
00010000
,
00000100
00001000
00000010
00001000
00000100
00000001
00000100
00001000
,
00001002
00000000
00000103
00000000
00000010
00000001
00000100
00001000
,
00010000
00000000
00101000
00000000
00010000
01000000
10000000
00100000
,
01000000
00000000
00110000
00000000
00100000
10000000
01000000
00010000
,
00001000
00000000
00010100
00000000
00001000
00000010
00000001
00000100
,
00000010
00001000
00000002
00000000
00000103
00001000
00000100
00000010
,
00010000
00001000
00200000
00000000
01300000
00010000
01000000
00100000
,
00001000
00010000
00000020
00000000
00000130
00000001
00000100
00001000
,
00010000
00100000
00110000
00000000
00001000
00000010
00001010
00000000
,
00001000
00000000
00010000
00000000
01000000
00000000
10000000
00000000
00100000
00000000
00000000
00010000
00000000
00000000
00100000
00000000
,
10000000
00000000
01000000
00000000
00100000
00000000
00010000
00000000
01000000
00000000
00000000
10000000
00000000
00000000
01000000
00000000
,
00010000
00000000
00100000
00000000
00001000
00000000
00010000
00000000
00000010
00000000
00000000
00000100
00000000
00000000
00000010
00000000
,
00001000
00000000
00000100
00000000
00000010
00000000
00000001
00000000
00000100
00000000
00000000
00001000
00000000
00000000
00000100
00000000
,
00000001
00000000
00001000
00000000
00000100
00000000
00010000
00000000
00001000
00000000
00000000
01000000
00000000
00000000
00001000
00000000
,
00100000
00000000
00010000
00000000
10000000
00000000
00100000
00000000
01000000
00000000
00000000
10000000
00000000
00000000
01000000
00000000
,
00010000
00100000
00110000
00000000
00000010
00001000
00001010
00000000
,
00001001
00000100
00010000
00001000
01000000
00010000
10000000
01000000
,
20020000
00000000
00000000
30030000
,
00000000
00000000
00000000
00000000
,
02000000
00100000
00100000
00100000
,
03000000
00000000
00000000
00000000
;
