#TITLE:Oblivion (Nevarakka Mix);
#ARTIST:Real Life;
#BANNER:Oblivion (Nevarakka Mix).png;
#BACKGROUND:Oblivion (Nevarakka Mix)-bg.png;
#CDTITLE:./CDTITLES/Dance Dance Revolution ULTRAMIX4.png;
#MUSIC:Oblivion (Nevarakka Mix).ogg;
#SAMPLESTART:72.456;
#SAMPLELENGTH:15;
#DISPLAYBPM:140;
#BPMS:0=139.85,4=140;

//---------------dance-single - ----------------
#NOTES:
     dance-single:
     :
     Beginner:
     1:
     :
0000
0000
0000
0000
,
0000
0000
0000
0000
,
0000
0000
0000
0000
,
0000
0000
0000
0000
,
0000
0000
0000
0000
,
0000
0000
0000
0000
,
1000
0000
0000
0000
,
0000
0000
0000
0000
,
0010
0000
0000
0000
,
0000
0000
0000
0000
,
0100
0000
0000
0000
,
0010
0010
0000
0000
,
1000
0000
0000
0000
,
0001
0001
0000
0000
,
1000
0000
0000
0000
,
0100
0100
0000
0000
,
0010
0000
0000
0000
,
0001
0001
0000
0000
,
0001
0000
0000
0000
,
1000
0000
1000
0000
,
1000
0000
0010
0000
,
1000
0000
0000
0000
,
0000
0000
0000
0000
,
0001
0000
0001
0000
,
0001
0000
0010
0000
,
0001
0000
0000
0000
,
0000
0000
0000
0000
,
1001
0000
0000
0000
,
0000
0000
0000
0000
,
1000
0000
0010
0000
,
1000
0000
0100
0000
,
1000
0000
1000
0000
,
1000
0000
0001
0000
,
1000
0000
0000
0000
,
0000
0000
0000
0000
,
0020
0000
0000
0000
,
0000
0000
0000
0030
,
0010
0000
0000
0000
,
0000
0000
0000
0000
,
2000
0000
0000
0000
,
0000
0000
0000
3000
,
1000
0000
0000
0000
,
0000
0000
0000
0000
,
1000
1000
1000
0000
,
0010
0000
0010
0000
,
1000
1000
1000
0000
,
0001
0000
0001
0000
,
0100
0100
0100
0000
,
0010
0000
0010
0000
,
0100
0100
0100
0000
,
0001
0000
1000
0000
,
0010
0000
0010
0000
,
1000
0000
1000
0000
,
0001
0001
0001
0000
,
1000
0000
1000
0000
,
0010
0000
0100
0000
,
0010
0000
0100
0000
,
0001
0001
0001
0000
,
1000
0000
1000
0000
,
0001
0000
1000
0000
,
0010
0000
1000
0000
,
0001
0000
1000
0000
,
0100
0000
1000
0000
,
0010
0000
1000
0000
,
0001
0000
0100
0000
,
0010
0000
0010
0000
,
0010
0000
0010
0000
,
0010
0000
0000
0000
;

//---------------dance-single - ----------------
#NOTES:
     dance-single:
     :
     Easy:
     2:
     :
0000
0000
0000
0000
,
0000
0000
0000
0000
,
0000
0000
0000
0000
,
0000
0000
0000
0000
,
0000
0000
0000
0000
,
0000
0000
0000
0000
,
2000
0000
0000
0000
,
0000
0000
0000
3000
,
0002
0000
0000
0000
,
0000
0000
0000
0003
,
1000
0000
1000
0000
,
0010
0000
0000
0000
,
1000
0000
1000
0000
,
0000
0000
0000
0000
,
1000
0000
0001
0000
,
0100
0000
0000
0000
,
0010
0000
0010
0000
,
1000
0000
0000
0000
,
0001
0000
0000
0000
,
0100
0100
0010
0100
,
0010
0000
0000
0000
,
1000
0000
0000
0000
,
0001
0000
0000
0000
,
0100
0100
0010
0100
,
0001
0000
0000
0000
,
0010
0000
0000
0000
,
1000
0000
0000
0000
,
1001
0000
0000
0000
,
1001
0000
0000
0000
,
0010
0010
0010
0000
,
0100
0000
0000
0000
,
0001
0001
1000
0001
,
0010
0000
0000
0000
,
0100
0000
0000
0000
,
0010
0000
0000
0000
,
2000
0000
0000
0000
,
3000
0000
0000
0000
,
0002
0000
0000
0000
,
0003
0000
0000
0000
,
0200
0000
0000
0000
,
0300
0000
0000
0000
,
0020
0000
0000
0000
,
0030
0000
0000
0000
,
1000
0001
1000
0000
,
0010
0000
0000
0000
,
1000
0010
0100
0000
,
0100
0000
0000
0000
,
0001
1000
0010
0000
,
0010
0000
0000
0000
,
1000
0100
0010
0000
,
0010
0000
0000
0000
,
0001
0100
0001
0000
,
1000
0000
0010
0000
,
1000
0001
0100
0000
,
0010
0000
0100
0000
,
0010
1000
0010
0000
,
0100
0000
0001
0000
,
1000
0001
0010
0000
,
0010
0000
0000
0000
,
0001
0000
0001
0000
,
0001
0000
1001
0000
,
1000
0000
1000
0000
,
0010
0000
1000
0000
,
0001
0000
1000
0000
,
0001
0000
1001
0000
,
0010
0000
1000
0000
,
0010
0000
0100
0000
,
0110
0000
0000
0000
;

//---------------dance-single - ----------------
#NOTES:
     dance-single:
     :
     Medium:
     4:
     :
0000
0000
0000
0000
,
0000
0000
0000
0000
,
0000
0000
0000
0000
,
0000
0000
0000
0000
,
0000
0000
0000
0000
,
0000
0000
0000
0000
,
1001
1000
0000
0010
0000
1000
0000
0001
,
0000
0100
0000
0010
0000
1000
0000
0001
,
0000
0100
0000
0010
0000
1000
0000
0100
,
0000
0010
0000
0002
0000
0000
0003
0000
,
1000
0000
0100
0000
1000
0001
0100
0000
,
0001
0100
0010
0000
,
0001
0000
0100
0000
0010
0100
0001
0000
,
1000
0010
0100
0001
,
0100
0000
0010
0000
1000
0100
0010
0000
,
1000
0001
0100
0000
,
0010
0000
0010
0000
1000
0001
0100
0000
,
0001
0010
0100
1000
,
0020
0000
0000
0030
,
1000
0010
0100
0000
0010
0000
1000
0000
,
0100
0001
0010
1000
,
0002
0000
0000
2000
0000
0000
0000
0000
,
0000
0000
3003
0000
,
1000
0100
0010
0000
0001
0000
1000
0000
,
0010
1000
0010
0100
,
0002
0000
0000
2000
0000
0000
0000
0000
,
3003
0000
0000
0000
0000
0000
1000
0001
,
2000
0010
0000
3010
,
0200
0000
0001
0301
,
1000
0001
0100
0000
0010
0100
1000
0200
,
0000
0000
0300
0000
,
0001
0000
1000
0001
0100
0000
0010
0000
,
1000
0001
0100
0010
,
2000
0000
0000
0002
0000
0000
0000
0000
,
0000
0000
3003
0000
,
0002
0000
0000
0000
,
0000
0000
0000
0000
,
0000
0000
0000
0003
,
0000
1000
0100
1000
,
0020
0000
0000
0000
,
0000
0100
1000
0130
,
0002
0000
0000
0000
,
0000
0000
0003
0000
,
1000
0100
0010
0000
0001
0010
0100
0000
,
1000
0001
0100
0000
0010
0010
0010
0000
,
0100
0010
1000
1010
,
0100
0101
0000
0000
,
1000
0001
0100
0000
0010
1000
0100
0000
,
0100
1000
0010
0000
0000
0100
0100
0100
,
0010
0000
1000
0100
0010
0001
1000
0000
,
0001
0100
0000
0010
0000
1000
0000
0100
,
0000
0010
0000
0100
0000
0011
0000
0100
,
0000
0010
0000
1000
0000
0101
0000
1000
,
0000
0001
0000
0010
0000
1001
0000
1000
,
0000
0100
0000
0010
0000
0110
0000
1000
,
0000
0001
0000
0010
0000
1001
0000
0100
,
0000
0010
0000
1000
0000
1100
0000
0010
,
0000
0001
0000
1000
0000
0001
0000
0100
,
0000
0020
0000
0000
0000
0000
0030
0000
,
0010
0010
0100
0001
,
1000
0100
0010
0001
,
1001
0001
0100
0010
,
0100
0001
1000
0000
,
1010
1000
0100
0010
,
1000
0001
0100
0010
,
0110
0100
0001
0010
,
0100
1000
0001
1000
,
1001
0000
0000
0000
;

//---------------dance-single - ----------------
#NOTES:
     dance-single:
     :
     Hard:
     7:
     :
0000
0000
0000
0000
,
0000
0000
0000
0000
,
0000
0000
0000
0000
,
0000
0000
0000
0000
,
0000
0000
0000
0000
,
0000
0000
0000
0000
,
0001
2000
0000
3100
0000
0020
0000
0031
,
0000
0020
0000
0031
0000
0200
0000
0310
,
0000
2000
0000
3001
0000
0020
0000
1030
,
0000
0020
0000
0002
0000
0000
0033
0000
,
1001
0000
1100
0100
0000
0010
0100
0000
,
1000
0001
0100
0001
0010
0100
1000
0000
,
1001
0000
0011
0001
0000
1000
0100
0000
,
0010
0001
0100
0010
1000
0100
0010
0000
,
0110
0000
1001
1000
0000
0001
0100
0000
,
0010
1000
0100
1000
0010
0100
0001
0000
,
1010
0000
0101
0001
0000
1000
1100
0000
,
1000
1000
0001
0001
1000
0010
0100
0001
,
2002
0000
0000
3003
,
1000
0100
0010
0001
0011
0000
0011
0000
,
0101
1100
1010
1010
,
1000
0100
0001
0010
,
2000
0100
0010
3001
,
0001
0010
0100
1000
1100
0000
1100
0000
,
1010
0110
0101
0101
,
0001
0100
1000
0010
,
0002
0100
1000
0013
,
1000
0101
0010
1100
,
1000
1010
0010
1001
,
0010
0000
0010
0000
0001
0100
0010
0000
,
0110
0000
0000
0000
,
1000
0100
0010
0000
0001
0000
0001
0000
,
0100
0000
0010
0000
1000
0010
0000
1000
,
0000
0200
0000
0000
0000
0000
0300
0000
,
0000
0101
1001
0011
,
1002
0100
0000
0100
,
0000
0100
0000
0103
,
0020
1000
0000
1000
,
0000
1000
0000
1030
,
0200
0010
0000
0010
,
0000
0010
0000
0310
,
2002
0000
0000
0000
,
0000
3003
1001
0000
,
1000
0000
0000
1000
0010
0000
0000
0010
0100
0000
0000
0100
0001
0000
0000
0001
,
1000
0000
0000
1000
0010
0000
0000
0010
1000
0000
0000
0000
1001
0000
0000
0000
,
0110
0000
0000
0100
0010
0000
0000
0010
1000
0000
0000
1000
0100
0000
0000
0100
,
0010
0000
0000
0010
0001
0000
0000
0001
0100
0000
0000
0000
0101
0000
0000
0000
,
0011
0000
0000
0001
1000
0000
0000
1000
0001
0000
0000
0001
0100
0000
0000
0100
,
0001
0000
0000
0001
0010
0000
0000
0010
0100
0000
0000
0000
0110
0000
0000
0000
,
1100
0000
0000
1000
0100
0000
0000
0100
0010
0000
0000
0010
0001
0000
0000
0001
,
1000
0000
0000
1000
0100
0000
0000
0100
0010
0000
0000
0000
0011
0000
0000
0000
,
1000
0100
0001
0100
1000
0001
0100
0010
,
1000
0100
1000
0100
0010
0001
1000
0000
,
1100
0101
1010
0011
,
0012
0100
0010
0103
,
0001
0010
1000
0010
0001
1000
0010
0100
,
0001
0010
0001
0010
0100
1000
0001
0000
,
0011
0101
1100
1010
,
0120
1000
0100
1030
,
0100
0000
0010
0001
0000
0000
0000
0200
0000
0000
0310
0000
1000
0000
0000
0200
,
0000
0000
1300
0000
0001
0000
0000
0020
0000
0000
0130
0000
1000
0000
0000
0000
,
1000
0000
0001
0100
0000
0000
0000
0020
0000
0000
1030
0000
0100
0000
0000
0020
,
0000
0000
0130
0000
1000
0000
0000
0002
0000
0000
1003
0000
0100
0000
0000
0000
,
1100
0000
1000
0001
0000
0000
0000
2000
0000
0000
3100
0000
0010
0000
0000
0002
,
0000
0000
1003
0000
0010
0000
0000
0200
0000
0000
0310
0000
1000
0000
0000
0000
,
1010
0000
0010
0100
0000
0000
0000
0002
0000
0000
1003
0000
0100
0000
0000
0000
,
0010
1000
0001
0000
0010
0001
1000
0000
0100
0000
1000
0000
0100
0000
0010
0000
,
1001
0000
0000
0000
;

//---------------dance-double - ----------------
#NOTES:
     dance-double:
     :
     Beginner:
     1:
     :
00000000
00000000
00000000
00000000
,
00000000
00000000
00000000
00000000
,
00000000
00000000
00000000
00000000
,
00000000
00000000
00000000
00000000
,
00000000
00000000
00000000
00000000
,
00000000
00000000
00000000
00000000
,
00001000
00000000
00000000
00000000
,
00000000
00000000
00000000
00000000
,
00100000
00000000
00000000
00000000
,
00001000
00000000
00000000
00000000
,
00010000
00000000
00000000
00000000
,
00000100
00000100
00000000
00000000
,
00001000
00000000
00000000
00000000
,
00000010
00000010
00000000
00000000
,
00001000
00000000
00000000
00000000
,
00000001
00000001
00000000
00000000
,
00000100
00000000
00000000
00000000
,
00000010
00000010
00000000
00000000
,
00010000
00000000
00000000
00000000
,
00001000
00000000
00001000
00000000
,
00001000
00000000
00100000
00000000
,
00010000
00000000
00000000
00000000
,
00000000
00000000
00000000
00000000
,
01000000
00000000
01000000
00000000
,
01000000
00000000
00010000
00000000
,
10000000
00000000
00000000
00000000
,
00000000
00000000
00000000
00000000
,
10010000
00000000
00000000
00000000
,
00000000
00000000
00000000
00000000
,
10000000
00000000
00010000
00000000
,
00100000
00000000
00001000
00000000
,
00010000
00000000
00010000
00000000
,
00010000
00000000
00000100
00000000
,
00001000
00000000
00000000
00000000
,
00000000
00000000
00000000
00000000
,
00000020
00000000
00000000
00000000
,
00000000
00000000
00000000
00000030
,
00000010
00000000
00000000
00000000
,
00000000
00000000
00000000
00000000
,
00000200
00000000
00000000
00000000
,
00000000
00000000
00000000
00000300
,
00000100
00000000
00000000
00000000
,
00000000
00000000
00000000
00000000
,
00001000
00001000
00001000
00000000
,
00000100
00000000
00000100
00000000
,
00010000
00010000
00010000
00000000
,
00001000
00000000
00001000
00000000
,
01000000
01000000
01000000
00000000
,
00010000
00000000
00010000
00000000
,
01000000
01000000
01000000
00000000
,
00100000
00000000
10000000
00000000
,
01000000
00000000
01000000
00000000
,
00010000
00000000
00010000
00000000
,
01000000
01000000
01000000
00000000
,
00010000
00000000
00010000
00000000
,
00001000
00000000
00000010
00000000
,
00000001
00000000
00001000
00000000
,
00000010
00000010
00000010
00000000
,
00000100
00000000
00000100
00000000
,
00000010
00000000
00010000
00000000
,
00001000
00000000
01000000
00000000
,
00010000
00000000
00100000
00000000
,
01000000
00000000
10000000
00000000
,
00010000
00000000
01000000
00000000
,
00001000
00000000
00010000
00000000
,
00000100
00000000
00000100
00000000
,
00000100
00000000
00000100
00000000
,
00000100
00000000
00000000
00000000
;

//---------------dance-double - ----------------
#NOTES:
     dance-double:
     :
     Easy:
     3:
     :
00000000
00000000
00000000
00000000
,
00000000
00000000
00000000
00000000
,
00000000
00000000
00000000
00000000
,
00000000
00000000
00000000
00000000
,
00000000
00000000
00000000
00000000
,
00000000
00000000
00000000
00000000
,
00002000
00000000
00000000
00000000
,
00000000
00000000
00000000
00003000
,
00000200
00000000
00000000
00000000
,
00000000
00000000
00000000
00000300
,
00010000
00000000
00010000
00000000
,
00001000
00000000
00000000
00000000
,
00100000
00000000
00100000
10000000
,
00000000
00000000
00000000
00000000
,
00010000
00000000
00100000
00000000
,
00001000
00000000
00000000
00000000
,
00010000
00000000
00010000
00000000
,
00000100
00000000
00000000
00000000
,
00010000
00000000
00000000
00000000
,
00000010
00000010
00000100
00000010
,
00001000
00000000
00000000
00000000
,
00000001
00000000
00000000
00000000
,
00000100
00000000
00000000
00000000
,
00000010
00000010
00010000
00000010
,
00001000
00000000
00000000
00000000
,
00000100
00000000
00000000
00000000
,
00010000
00000000
00000000
00000000
,
00011000
00000000
00000000
00000000
,
00011000
00000000
00000000
00000000
,
00001000
00001000
00001000
00000000
,
00100000
00000000
00000000
00000000
,
00010000
00010000
01000000
00100000
,
10000000
00000000
00000000
00000000
,
01000000
00000000
00000000
00000000
,
00010000
00000000
00000000
00000000
,
00002000
00000000
00000000
00000000
,
00003000
00000000
00000000
00000000
,
00000020
00000000
00000000
00000000
,
00000030
00000000
00000000
00000000
,
00000002
00000000
00000000
00000000
,
00000003
00000000
00000000
00000000
,
00002000
00000000
00000000
00000000
,
00003000
00000000
00000000
00000000
,
00000010
00010000
00000010
00000000
,
00001000
00000000
00000000
00000000
,
00000100
00010000
00001000
00000000
,
00100000
00000000
00000000
00000000
,
00010000
10000000
01000000
00000000
,
00100000
00000000
00000000
00000000
,
00001000
00000010
00000100
00000000
,
00001000
00000000
00000000
00000000
,
00000001
00000100
00000010
00000000
,
00010000
00000000
00001000
00000000
,
00100000
00010000
01000000
00000000
,
00100000
00000000
10000000
00000000
,
01000000
00100000
00010000
00000000
,
01000000
00000000
00001000
00000000
,
00010000
00000100
00001000
00000000
,
00000010
00000000
00000000
00000000
,
00000010
00000000
00000010
00000000
,
00000010
00000000
00000110
00000000
,
00000100
00000000
00000100
00000000
,
00000001
00001000
00000000
00000000
,
00000100
00000000
00010000
00000000
,
10000000
00000000
10010000
00000000
,
00100000
00000000
00001000
00000000
,
00010000
00000000
00001000
00000000
,
00011000
00000000
00000000
00000000
;

//---------------dance-double - ----------------
#NOTES:
     dance-double:
     :
     Medium:
     5:
     :
00000000
00000000
00000000
00000000
,
00000000
00000000
00000000
00000000
,
00000000
00000000
00000000
00000000
,
00000000
00000000
00000000
00000000
,
00000000
00000000
00000000
00000000
,
00000000
00000000
00000000
00000000
,
00001000
00010000
00000000
00001000
00000000
00010000
00000000
00001000
,
00000000
00100000
00000000
00010000
00000000
00100000
00000000
00010000
,
00000000
10000000
00000000
00010000
00000000
10000000
00000000
01000000
,
00000000
00100000
00000000
00020000
00000000
00000000
00030000
00000000
,
00100000
00001000
00010000
00000100
,
00001000
00000001
00001001
00000000
,
00000001
00000010
00000100
00000000
00010000
00000000
00001000
00000000
,
00100000
00010000
10000000
01000000
,
10000000
01000000
00010000
00001000
,
00000010
00000001
00001001
00000000
,
00001000
00000100
00010000
00000000
00001000
00000000
00100000
00000000
,
00010000
10000000
00010000
00000000
,
20020000
00000000
00000000
30030000
,
00100000
01000000
00010000
00000000
00100000
00000000
00001000
00000000
,
00010000
00000100
00001000
00000010
,
00002000
00000000
00000000
00000002
00000000
00000000
00000000
00000000
,
00000000
00000000
00003003
00000000
,
00000010
00001000
00000100
00000000
00010000
00000000
00001000
00000000
,
00100000
00010000
01000000
00100000
,
20000000
00000000
00000000
00200000
00000000
00000000
00000000
00000000
,
00000000
30300000
00000000
00000000
00000000
00000000
10000000
01000000
,
11000000
00010000
00100000
00001000
,
00010000
00000000
00000100
00000100
,
00001000
00000000
00000001
00000010
00000100
00000000
00001000
00000000
,
00001100
00000000
00000000
00000000
,
00001000
00010000
00001000
00000000
00100000
00000000
00010000
00000000
,
10000000
01000000
00100000
00010000
,
02000000
00000000
00000000
00200000
00000000
00000000
00000000
00000000
,
00000000
00000000
03300000
00000000
,
00002000
00000000
00000000
00000000
,
00000000
00000000
00000000
00000000
,
00000000
00000000
00000000
00003000
,
00000000
00010000
00000100
00001000
,
00000020
00000000
00000000
00000000
,
00000000
00000000
00000000
00000030
,
00002000
00000000
00000000
00000000
,
00000000
00000000
00000000
00003000
,
00000001
00000100
00000000
00000010
00000000
00001000
00000000
00000100
,
00000000
00010000
00000000
00001000
00000000
00100000
00010000
00000000
,
10000000
01000000
00000000
00100000
00000000
00001000
00000000
00010000
,
00000000
00000100
00000000
00001000
00000000
00000010
00000100
00000000
,
00000001
00001000
00000000
00000100
00000000
00010000
00000000
00001000
,
00000000
00100000
00000000
00001000
00000000
01000000
00010000
00100000
,
01000000
10000000
00000000
00010000
00000000
01000000
00000000
00100000
,
00000000
01000000
00000000
10000000
00000000
01000000
00000000
00000000
,
00010000
01000000
00001000
00000000
00010000
00000100
00001000
00000000
,
00000010
00000100
00000001
00000000
,
00000010
00001000
00000100
00000000
00010000
00001000
00010000
00000000
,
00011000
00100000
00010000
01000000
,
00100000
10000000
01000000
00000000
00100000
00001000
00010000
00000000
,
00000100
00001000
00000010
00010000
,
00000100
00001000
00000010
00010000
,
00001000
01000000
00100000
00000000
,
10000000
01000000
00100000
00000000
00010000
00001000
00000100
00000000
,
00000010
00000001
00001000
00000100
,
00000010
00000001
00000100
00000000
00000010
00010000
00001000
00000000
,
01000000
00000000
00100000
00000000
10000000
10000000
10100000
00000000
,
10000000
00010000
00100000
00000000
00001000
00100000
00010000
00000000
,
01000000
00001000
00010000
00000100
,
00001000
00000100
00000010
00000001
,
00001000
00000100
00010000
00001000
00010000
00001000
00100000
00000000
,
00011000
00000000
00000000
00000000
;

//---------------dance-double - ----------------
#NOTES:
     dance-double:
     :
     Hard:
     7:
     :
00000000
00000000
00000000
00000000
,
00000000
00000000
00000000
00000000
,
00000000
00000000
00000000
00000000
,
00000000
00000000
00000000
00000000
,
00000000
00000000
00000000
00000000
,
00000000
00000000
00000000
00000000
,
00000010
00001000
00000000
00000100
00000000
00010000
00000000
00001000
,
00000000
00100000
00000000
00010000
00000000
00100000
00000000
01000000
,
00000000
10000000
00000000
00010000
00000000
00100000
00000000
00001000
,
00000000
00020000
00000000
00002000
00000000
00000000
00033000
00000000
,
00011000
00010000
00000100
00000000
00001000
00000100
00000010
00000000
,
00000001
00001000
00000100
00010000
00001000
00100000
00010000
00000000
,
00110000
00010000
01000000
00000000
00100000
10000000
01000000
00000000
,
10000000
01000000
00010000
00001000
00000010
00000001
00001000
00000000
,
00001001
00000000
00001000
00000100
00000000
00000100
00020000
00000000
,
00031000
00100000
00010000
01000000
00100000
10000000
00010000
00000000
,
10010000
00000000
00100000
00001000
00000000
00010000
00000200
00000000
,
00001300
00000100
00000010
00000001
00001000
00000010
00000200
00000000
,
00000000
00000000
00000300
00000000
,
00000001
00000100
00000010
00001000
00000100
00010000
00001000
00100000
,
00010000
01000000
00100000
10000000
00010000
10000000
00000000
10010000
,
00000000
01010000
00000000
00011000
00000000
00001100
00000000
00000000
,
00000000
00000000
00000000
00000000
,
00001000
00000100
00000010
00000001
00001000
00000100
00010000
00001000
,
00100000
00010000
01000000
00100000
10000000
00010000
00000000
10010000
,
00000000
00110000
00000000
10100000
00000000
01100000
00000000
00000000
,
00000000
00000000
00000000
00000000
00000000
00000000
00100000
00001000
,
00010000
00011000
00000100
00001000
,
00000010
00000001
00000100
00000100
,
00000100
00010000
00001000
00100000
00010000
10000000
01000000
00200000
,
00000000
00000000
00300000
00000000
,
10000000
01000000
00100000
00001000
00000010
00000001
00000100
00000010
,
00001000
00000100
00010000
00001000
00010000
00001000
00000000
00011000
,
00000000
01010000
00000000
11000000
00000000
10100000
00000000
00000000
,
00000000
01000000
00001000
00010000
,
00000200
00001000
00000000
00001000
,
00000000
00001000
00000000
00001300
,
00000020
00000100
00000000
00000100
,
00000000
00000100
00000000
00000130
,
00000002
00001000
00000000
00001000
,
00000000
00001000
00000000
00001003
,
00002200
00000000
00000000
00000000
,
00000000
00000000
00003300
00000000
,
00001000
00010000
01000000
00100000
00010000
10000000
01000000
00100000
,
00010000
00001000
00000100
00000010
00000001
00000000
00001001
00000000
,
00000001
00000100
00001000
00010000
,
00001000
00010000
00100000
10000000
,
00100000
10000000
00010000
00100000
00001000
00010000
00000010
00001000
,
00000100
00001000
00000100
00000010
00000001
00000000
00000011
00000000
,
00001000
00000100
00010000
00001000
,
00100000
00010000
10000000
00010000
,
10010000
00000000
10010000
00000000
10010000
00000000
10000000
01000000
,
00010000
00001000
00000010
00000001
00000010
00000100
00001000
00000000
,
00000001
00000100
00000010
00001000
00000100
00010000
00001000
01000000
,
00100000
00010000
00100000
10000000
01000000
00100000
00010000
00000000
,
00101000
00000000
00101000
00000000
00101000
00000000
00001000
00010000
,
00000100
00001000
00000100
00000010
00000001
00000010
00000001
00000000
,
00000001
00001000
00000010
00001000
00000100
00010000
00001000
00000000
,
00011000
00110000
10010000
01100000
,
00010000
00000000
00100000
00001000
00000000
00000000
00000000
00010000
00000000
00000000
00001000
00000000
00010000
00000000
00000000
00000100
,
00000000
00000000
00001000
00000000
00000100
00000000
00000000
00000010
00000000
00000000
00000001
00000000
00000010
00000000
00000000
00000000
,
00000011
00000000
00000001
00001000
00000000
00000000
00000000
00000100
00000000
00000000
00010000
00000000
00001000
00000000
00000000
00100000
,
00000000
00000000
00010000
00000000
10000000
00000000
00000000
01000000
00000000
00000000
10000000
00000000
00100000
00000000
00000000
00000000
,
10100000
00000000
10000000
01000000
00000000
00000000
00000000
00100000
00000000
00000000
00001000
00000000
00010000
00000000
00000000
00000100
,
00000000
00000000
00001000
00000000
00000100
00000000
00000000
00001000
00000000
00000000
00000100
00000000
00000010
00000000
00000000
00000000
,
00000110
00000000
00000010
00000001
00000000
00000000
00000000
00001000
00000000
00000000
00000100
00000000
00000010
00000000
00000000
00000000
,
00000001
00000010
00000001
00000000
00001000
00000010
00001000
00000000
00000100
00000000
00010000
00000000
00001000
00000000
00010000
00000000
,
00101000
00000000
00000000
00000000
;
