#TITLE:No Parking On the Dance Floor;
#ARTIST:Midnight Star;
#BANNER:No Parking On the Dance Floor.png;
#BACKGROUND:No Parking On the Dance Floor-bg.png;
#CDTITLE:./CDTITLES/Dance Dance Revolution ULTRAMIX4.png;
#MUSIC:No Parking On the Dance Floor.ogg;
#SAMPLESTART:32.564;
#SAMPLELENGTH:15;
#DISPLAYBPM:127;
#BPMS:0=125.654,12=125,20=125.109,36=125.436,52=125.217,84=125.326,116=125.109,132=125.326,148=125.217,164=125.326,180=125.217,196=125,212=114.65;

//---------------dance-single - ----------------
#NOTES:
     dance-single:
     :
     Beginner:
     1:
     :
0000
0000
0000
0000
,
0000
0000
0000
0000
,
0000
0000
0000
0000
,
0000
0000
0000
0000
,
0000
0000
0000
0000
,
1000
0000
0000
0000
,
1000
0000
0000
0000
,
0001
0000
0000
0000
,
0001
0000
0000
0000
,
1000
0000
1000
0000
,
1000
0000
0000
0000
,
0002
0000
0000
0003
,
0001
0000
0000
0000
,
0010
0000
0010
0000
,
0010
0000
0000
0000
,
0100
0000
0100
0000
,
0100
0000
0000
0000
,
1000
1000
0000
0000
,
0000
0001
0001
0000
,
1000
0000
1000
0000
,
0010
0010
0010
0000
,
0100
0000
0100
0000
,
0000
0001
0001
0000
,
1000
0000
1000
0000
,
0001
0001
0001
0000
,
1000
1000
0000
1000
,
0000
1000
0000
0000
,
0001
0001
0000
0010
,
0000
0010
0000
0000
,
0100
0100
0000
0010
,
0000
0010
0000
0000
,
0001
0001
0000
1000
,
2000
0000
0000
3000
,
1000
0000
1000
0000
,
1000
0000
0000
0000
,
0001
0000
0001
0000
,
0001
0000
0000
0000
,
0010
0000
0010
0000
,
0010
0000
0000
0000
,
0100
0000
0100
0000
,
0100
0000
0000
0000
,
0001
0001
0000
0001
,
0000
0001
0000
0000
,
1000
1000
0000
0100
,
0000
0100
0000
0000
,
0010
0010
0000
0100
,
0000
0100
0000
0000
,
1000
1000
0000
0001
,
0002
0000
0000
0000
0000
0000
0000
0000
0000
0000
0000
0000
0000
0000
0000
0000
0000
0000
0000
0000
0000
0000
0000
0003
0000
0000
0000
0000
0000
0000
0000
0000
,
0001
0000
1000
0000
,
1000
0000
0001
0000
,
1000
0000
1000
0000
,
1000
0000
0000
0000
;

//---------------dance-single - ----------------
#NOTES:
     dance-single:
     :
     Easy:
     3:
     :
0000
0000
0000
0000
,
0000
0000
0000
0000
,
0000
0000
0000
0000
,
0000
0000
0000
0000
,
0000
0000
0000
0000
,
0001
0000
0001
0000
,
1000
0000
1000
0000
,
0002
0000
0000
0003
,
0000
0000
0000
0000
,
1000
1000
1000
0000
,
0001
0001
0001
0000
,
0020
0030
0200
0300
,
1000
0001
1000
0000
,
0100
0000
0010
0000
,
0010
0010
0100
0000
,
0010
0000
0100
0000
,
0010
0010
0100
0000
,
2000
0000
0000
3000
,
0002
0000
0000
0003
,
2000
0000
0000
3000
,
0001
0001
0001
0000
,
0020
0000
0000
0030
,
0200
0000
0000
0300
,
0020
0000
0000
0030
,
0001
1000
1001
0000
,
1000
1000
0000
0010
,
0000
0100
0001
0001
,
1000
1000
0000
0100
,
0000
0010
0000
0000
,
0001
0001
0000
0010
,
0000
0100
1000
1000
,
0001
0001
0000
1001
,
2002
0000
0000
3003
,
1000
0000
1000
0000
,
0001
0000
0001
0000
,
0010
0100
0010
0000
,
0100
0010
0100
0000
,
1000
0000
0001
0000
,
1000
0001
1000
0000
,
1000
0000
1000
0001
,
2000
0000
0000
3000
,
0001
0001
0000
0010
,
0000
0100
1000
1000
,
0001
0001
0000
0100
,
0000
0010
0000
0000
,
1000
1000
0000
0010
,
0000
0100
0001
0001
,
1000
1000
0000
1001
,
2002
0000
0000
3003
,
0001
0000
0001
0000
,
1000
0000
1000
0000
,
0002
0000
0000
0003
,
0001
0000
0000
0000
;

//---------------dance-single - ----------------
#NOTES:
     dance-single:
     :
     Medium:
     5:
     :
0000
0000
0000
0000
,
0000
0000
0000
0000
,
0000
0000
0000
0000
,
0000
0000
0000
0000
,
0000
0000
0000
0000
,
0020
0000
1030
0200
0000
0000
0310
0002
,
0000
0000
2003
0002
0000
0000
3003
0000
,
0020
0000
0031
0200
0000
0000
0310
2000
,
0000
0002
0000
0000
0000
0000
3003
0000
,
1000
0100
1000
0100
1000
0100
0000
0010
,
0001
0010
0001
0010
0000
0000
0002
0000
,
2003
0000
3100
2000
0000
3200
0000
0310
,
0100
0010
0100
0010
0100
0000
0000
0000
,
0001
0010
0001
0010
0000
0000
0000
1000
,
0100
1000
0100
1000
0100
0000
1000
1000
,
0001
0000
0010
0001
0000
0100
0000
0100
,
0001
0100
0001
0000
0100
0000
0110
0000
,
1000
0000
0001
0100
0002
0000
0000
0003
,
1000
0000
0010
0200
0000
0000
0000
0300
,
0001
0000
0010
0200
0000
0000
0000
0300
,
1000
0100
1000
0100
1000
0000
0001
0001
,
0100
0000
1000
0100
2000
0000
0000
3000
,
0000
0000
0100
0020
0000
0000
0000
0030
,
0001
0000
0100
0020
0000
0000
0000
0030
,
1000
0001
1000
0001
1000
0000
0000
0000
,
0001
1000
0001
1000
0010
0000
0100
0000
,
0010
0000
1010
0000
1000
0001
1000
0001
,
1000
0100
0000
0110
,
0001
0000
0011
0000
0100
0010
0100
0000
,
0001
1000
0001
1000
0100
0000
0010
0000
,
0100
0000
0011
0000
1000
0001
1000
0001
,
0100
0010
0001
1001
,
2002
0000
0000
3003
,
0001
0100
0001
0100
0001
0100
0000
0000
,
0000
1000
0010
1000
0010
0000
1000
0000
,
0000
0001
0010
0001
0010
0001
0000
0000
,
0000
1000
0100
1000
0100
0000
1000
0000
,
0000
0010
0100
0010
0100
0010
0000
0000
,
0000
1000
0001
1000
0001
0000
0000
0000
,
0000
0100
0010
0100
1000
0001
0000
0000
,
0001
1000
0001
0010
0100
0000
0000
0000
,
1000
0001
1000
0001
0100
0000
0010
0000
,
0100
0000
0101
0000
0001
1000
0001
1000
,
0001
0010
0000
0110
,
1000
0000
1100
0000
0010
0100
0010
0000
,
1000
0001
1000
0001
0010
0000
0100
0000
,
0010
0000
1100
0000
0001
1000
0001
1000
,
0010
0100
1000
1001
,
2002
0000
0000
3003
,
0200
0000
0301
0020
0000
0000
0130
2000
,
0000
0000
3002
2000
0000
0000
0000
3003
,
0200
0000
1300
0020
0000
0000
0130
0002
,
0000
2000
0000
0000
0000
0000
0000
3003
;

//---------------dance-single - ----------------
#NOTES:
     dance-single:
     :
     Hard:
     7:
     :
0000
0000
0000
0000
,
0000
0000
0000
0000
,
0000
0000
0000
0000
,
0000
0000
0000
0000
,
0000
0000
0000
0000
,
1002
0000
0013
0002
0000
0000
1003
0020
,
0000
0000
1030
0100
0010
0100
1000
0010
,
0200
0000
0301
0020
0000
0000
0031
0100
,
0000
1000
0001
1000
0001
0000
0011
0000
,
0010
0100
1000
0001
0010
0001
0000
1000
,
0010
0100
0010
1000
0000
0000
0110
0000
,
0110
0000
1000
0200
0000
0320
0000
1030
,
0010
0100
0010
0100
0001
0000
2002
3003
,
1001
0000
1000
0100
0010
0001
0100
0001
,
0010
0100
1000
0010
0100
0000
1000
0100
,
0001
0010
0001
1000
0010
0001
0010
0000
,
1000
0010
1000
0010
0100
0000
1000
0001
,
1001
0000
1000
0100
1000
0000
0110
0001
,
0010
0000
0110
1100
0000
0000
0001
0100
,
1020
0000
0031
0010
1000
0000
1000
0010
,
0100
0001
0100
0010
1000
0000
0100
1000
,
1010
0000
0100
0001
0010
0000
1001
0100
,
0010
0000
0011
0110
0000
0000
1000
0010
,
0021
0000
1030
0010
0001
0000
0110
0010
,
0100
0000
1000
0000
0001
0000
0000
0100
0001
0000
1000
0000
0100
0000
1000
0000
,
1000
0001
0100
0001
1000
0100
1000
0001
,
0100
0000
0110
0001
1000
0100
0010
0001
,
0011
0000
1100
0000
0011
0001
0100
0000
,
1010
1000
0100
0000
0100
1000
0010
0100
,
0001
0010
0001
1000
0010
1000
0001
0010
,
0100
0000
0110
1000
0001
0010
0100
1000
,
0100
0000
0011
0000
0100
0001
1000
0100
,
2000
0000
0010
3002
0100
2003
0010
3100
,
1100
0001
0010
0100
0010
0001
2000
0100
,
3001
1000
0100
0010
0100
1000
0100
0010
,
0100
0001
0010
1000
0010
0001
0200
1000
,
0310
0100
0001
1000
0010
0100
0001
1000
,
0100
1000
0010
0100
0010
1000
0002
0100
,
1003
0001
0100
0010
0100
0001
1000
0100
,
0010
0001
0010
0100
1000
0100
2000
0001
,
3010
0000
0001
0000
1000
0000
0000
0010
1000
0000
0001
0000
0010
0000
0001
0000
,
0001
1000
0010
1000
0001
0010
0001
1000
,
0010
0000
0110
1000
0001
0010
0100
1000
,
1100
0000
0011
0000
1100
1000
0010
0000
,
0101
0001
0010
0000
0010
0001
0100
0010
,
1000
0100
1000
0001
0100
0001
1000
0100
,
0010
0000
0110
0001
1000
0100
0010
0001
,
0010
0000
1100
0000
0010
1000
0001
0010
,
0002
0000
0100
2003
0010
3002
0100
0013
,
2001
0000
3010
2000
0000
0000
3001
0020
,
0000
0000
0031
0100
0010
0100
0001
0010
,
0200
0000
1300
0020
0000
0000
1030
0100
,
1001
0000
0000
0000
;

//---------------dance-double - ----------------
#NOTES:
     dance-double:
     :
     Beginner:
     1:
     :
00000000
00000000
00000000
00000000
,
00000000
00000000
00000000
00000000
,
00000000
00000000
00000000
00000000
,
00000000
00000000
00000000
00000000
,
00000000
00000000
00000000
00000000
,
10000000
00000000
00000000
00000000
,
10000000
00000000
00000000
00000000
,
01000000
00000000
00000000
00000000
,
01000000
00000000
00000000
00000000
,
00010000
00000000
00010000
00000000
,
00010000
00000000
00000000
00000000
,
00002000
00000000
00000000
00003000
,
00001000
00000000
00000000
00000000
,
00000100
00000000
00000100
00000000
,
00000100
00000000
00000000
00000000
,
00000001
00000000
00000001
00000000
,
00000001
00000000
00000000
00000000
,
00001000
00001000
00000000
00000000
,
00000000
00000010
00000010
00000000
,
00000100
00000000
00000100
00000000
,
00001000
00001000
00001000
00000000
,
00010000
00000000
00010000
00000000
,
00000000
00001000
00001000
00000000
,
01000000
00000000
01000000
00000000
,
00010000
00010000
00010000
00000000
,
10000000
10000000
00000000
00100000
,
00000000
00100000
00000000
00000000
,
00010000
00010000
00000000
00001000
,
00000000
00010000
00000000
00000000
,
00000010
00000010
00000000
00000100
,
00000000
00000100
00000000
00000000
,
00000001
00000001
00000000
00000100
,
00000200
00000000
00000000
00000300
,
00000100
00000000
00001000
00000000
,
00001000
00000000
00000000
00000000
,
00010000
00000000
00010000
00000000
,
00010000
00000000
00000000
00000000
,
00001000
00000000
00001000
00000000
,
00001000
00000000
00000000
00000000
,
00010000
00000000
00010000
00000000
,
00010000
00000000
00000000
00000000
,
10000000
10000000
00000000
00100000
,
00000000
00100000
00000000
00000000
,
00010000
00010000
00000000
00001000
,
00000000
00010000
00000000
00000000
,
00000010
00000010
00000000
00000100
,
00000000
00000100
00000000
00000000
,
00000001
00000001
00000000
00000100
,
00000200
00000000
00000000
00000300
,
00000100
00000000
00000100
00000000
,
00000100
00000000
00001000
00000000
,
00010000
00000000
00010000
00000000
,
00010000
00000000
00000000
00000000
;

//---------------dance-double - ----------------
#NOTES:
     dance-double:
     :
     Easy:
     3:
     :
00000000
00000000
00000000
00000000
,
00000000
00000000
00000000
00000000
,
00000000
00000000
00000000
00000000
,
00000000
00000000
00000000
00000000
,
00000000
00000000
00000000
00000000
,
00000020
00000000
00000000
00000030
,
00000002
00000000
00000000
00000003
,
00000200
00000000
00000000
00000300
,
00000000
00000000
00000000
00000000
,
00010000
00010000
00010000
00000000
,
00001000
00001000
00001000
00000000
,
00200000
00300000
02000000
03000000
,
10000000
00010000
01000000
00000000
,
01000000
00000000
00100000
00000000
,
10000000
10000000
01000000
00000000
,
00010000
00000000
00001000
00000000
,
00010000
00010000
00001000
00000000
,
00000020
00000000
00000000
00000030
,
00002000
00000000
00000000
00003000
,
00000002
00000000
00000000
00000003
,
00000100
00000100
00000100
00000000
,
00002000
00000000
00000000
00003000
,
00020000
00000000
00000000
00030000
,
02000000
00000000
00000000
03000000
,
10000000
00010000
10010000
00000000
,
10000000
10000000
00000000
00010000
,
00000000
01000000
00001000
00001000
,
00010000
00010000
00000000
00000010
,
00000000
00000010
00000000
00000000
,
00000001
00000001
00000000
00001000
,
00000000
00000100
00010000
00010000
,
00001000
00001000
00000000
00011000
,
00022000
00000000
00000000
00033000
,
00001000
00000000
00001000
00000000
,
00100000
00000000
00100000
00000000
,
00010000
00100000
00010000
00000000
,
10000000
01000000
10000000
00000000
,
00010000
00000000
01000000
00000000
,
00001000
00010000
00001000
00000000
,
00000100
00000000
00000100
00000010
,
00000020
00000000
00000000
00000030
,
00000001
00000001
00000000
00001000
,
00000000
00000100
00010000
00010000
,
00001000
00001000
00000000
00100000
,
00000000
00100000
00000000
00000000
,
10000000
10000000
00000000
00010000
,
00000000
01000000
00001000
00001000
,
00010000
00010000
00000000
00011000
,
00022000
00000000
00000000
00033000
,
00010000
00000000
00010000
00000000
,
00000010
00000000
00000010
00000000
,
00000200
00000000
00000000
00000300
,
00000100
00000000
00000000
00000000
;

//---------------dance-double - ----------------
#NOTES:
     dance-double:
     :
     Medium:
     6:
     :
00000000
00000000
00000000
00000000
,
00000000
00000000
00000000
00000000
,
00000000
00000000
00000000
00000000
,
00000000
00000000
00000000
00000000
,
00000000
00000000
00000000
00000000
,
00000020
00000000
00000031
00000200
00000000
00000300
00001000
00020000
,
00000000
00000000
00032000
00020000
00000000
00000000
00033000
00000000
,
00200000
00000000
00310000
02000000
00000000
00000000
03100000
20000000
,
00000000
00020000
00000000
00000000
00000000
00000000
30030000
00000000
,
10000000
00010000
01000000
00010000
10000000
01000000
00000000
00010000
,
00001000
00010000
00001000
00010000
00000000
00000000
00000020
00000000
,
00002030
00000000
00003001
00002000
00000000
00003200
00000000
00000310
,
00000100
00000010
00000100
00001000
00000001
00000000
00000000
00000000
,
00000010
00000100
00000010
00000100
00000000
00000000
00000000
00001000
,
00010000
00001000
00010000
00001000
00010000
00000000
00100000
00100000
,
10000000
00000000
00100000
01000000
00000000
00010000
00000000
00001000
,
00010000
00001000
00010000
00000000
00000010
00000000
00000110
00000000
,
00001000
00000000
00000001
00000100
00000002
00000000
00000003
00000000
,
00000100
00000000
00001000
00020000
00000000
00000000
00030000
00000000
,
00001000
00000000
00100000
02000000
00000000
00000000
03000000
00000000
,
10000000
01000000
10000000
01000000
00010000
00000000
00001000
00001000
,
00010000
00000000
00000010
00001000
00000020
00000000
00000000
00000030
,
00000000
00000000
00001000
00000002
00000000
00000000
00000000
00000003
,
00000100
00000000
00001000
00020000
00000000
00000000
00000000
00030000
,
00001000
00010000
01000000
10000000
00010000
00000000
00000000
00000000
,
00100000
10000000
01000000
10000000
00010000
00000000
00001000
00000000
,
00010000
00000000
00011000
00000000
00010000
00001000
00000010
00000001
,
00000100
00000100
00000000
00011000
,
00100000
00000000
00110000
00000000
10000000
00100000
10000000
00000000
,
00100000
00010000
01000000
00100000
10000000
00000000
01000000
00000000
,
00010000
00000000
00011000
00000000
00000010
00001000
00000100
00000001
,
00000100
00000010
00000100
00000110
,
00022000
00000000
00000000
00033000
,
00001000
00010000
01000000
00100000
01000000
10000000
00000000
00000000
,
00000000
10000000
01000000
00010000
00001000
00000000
00010000
00000000
,
00000000
00000100
00000010
00000001
00001000
00000100
00000000
00000000
,
00000000
00000001
00000100
00001000
00010000
00000000
00001000
00000000
,
00000000
00010000
10000000
00100000
01000000
00100000
00000000
00000000
,
00000000
10000000
00010000
10000000
01000000
00000000
00000000
00000000
,
00000000
00010000
00001000
00010000
00000010
00001000
00000000
00000000
,
00000001
00000100
00000001
00001000
00000010
00000000
00000000
00000000
,
00000010
00000001
00000100
00000001
00001000
00000000
00010000
00000000
,
00001000
00000000
00011000
00000000
00001000
00010000
00100000
10000000
,
01000000
01000000
00000000
00011000
,
00000100
00000000
00001100
00000000
00000001
00000100
00000001
00000000
,
00000100
00001000
00000010
00000100
00000001
00000000
00000010
00000000
,
00001000
00000000
00011000
00000000
01000000
00010000
00100000
10000000
,
00100000
01000000
00100000
01100000
,
00022000
00000000
00000000
00033000
,
00200000
00000000
10300000
02000000
00000000
03000000
00010000
00002000
,
00000000
00003000
00020000
00002000
00000000
00000000
00033000
00000000
,
00000020
00000000
00001030
00000200
00000000
00000000
00000310
00000002
,
00000000
00002000
00000000
00000000
00000000
00000000
00003003
00000000
;

//---------------dance-double - ----------------
#NOTES:
     dance-double:
     :
     Hard:
     7:
     :
00000000
00000000
00000000
00000000
,
00000000
00000000
00000000
00000000
,
00000000
00000000
00000000
00000000
,
00000000
00000000
00000000
00000000
,
00000000
00000000
00000000
00000000
,
00000120
00000000
00000031
00000200
00000000
00000000
00001300
00020000
,
00000000
00000000
00031000
00000100
00001000
00010000
01000000
10000000
,
00200000
00000000
10300000
02000000
00000000
00000000
03010000
00001000
,
00000000
00100000
00010000
00001000
00010000
00000000
00010100
00000000
,
00000010
00000001
00000010
00000100
00001000
00010000
00000000
00010000
,
00000010
00001000
00000100
00010000
00000000
00000000
00101000
00000000
,
00110000
00000000
10000000
02000000
00000000
03020000
00000000
00031000
,
00100000
00001000
00010000
00000010
00001000
00000000
00002002
00003003
,
00001001
00000000
00000001
00000010
00001000
00010000
00001000
00000010
,
00000001
00000100
00001000
00010000
01000000
00000000
10000000
01000000
,
00010000
00001000
00010000
01000000
10000000
00100000
01000000
00000000
,
00001000
00010000
00000010
00001000
00000100
00000000
00000010
00000001
,
00000101
00000000
00000100
00001000
00010000
00000000
00110000
01000000
,
10000000
00000000
01010000
01001000
00000000
00000000
00001000
00000010
,
00001010
00000000
00001000
00000010
00000001
00000000
00000001
00000100
,
00000010
00000100
00001000
00010000
00100000
00000000
10000000
01000000
,
11000000
00000000
10000000
00010000
00100000
00000000
00101000
00010000
,
00100000
00000000
01001000
01010000
00000000
00000000
00010000
01000000
,
10000000
00000000
00100000
10000000
01000000
00000000
01100000
01000000
,
00010000
00000000
00001000
00000000
00010000
00000000
00000000
00000010
00001000
00000000
00000100
00000000
00000010
00000000
00000001
00000000
,
00000100
00000001
00000100
00001000
00010000
00001000
00010000
01000000
,
10000000
00000000
00110000
00010000
10000000
01000000
00010000
00001000
,
00011000
00000000
00010010
00000000
00000011
00000001
00000100
00000000
,
00001100
00001000
00000010
00000000
00001000
00010000
01000000
10000000
,
00100000
10000000
00100000
00010000
00001000
00010000
00001000
00000010
,
00000001
00000000
00001100
00001000
00000001
00000100
00001000
00010000
,
00011000
00000000
00101000
00000000
00100000
10000000
01000000
00010000
,
02000000
00000000
10000000
03200000
01000000
00320000
00100000
01030000
,
01010000
00100000
10000000
00100000
00010000
00001000
00020000
00001000
,
00030100
00001000
00000010
00000001
00000100
00000010
00000100
00001000
,
00010000
00001000
00100000
00010000
00100000
00010000
20000000
00100000
,
31000000
00010000
00001000
00010000
00001000
00010000
00000010
00001000
,
00000100
00000010
00000001
00000100
00000001
00000100
00002000
00010000
,
01003000
00010000
01000000
00100000
10000000
01000000
00010000
00001000
,
00000100
00000010
00001000
00000010
00000100
00001000
00020000
00100000
,
00130000
00000000
01000000
00000000
00010000
00000000
00000000
00010000
10000000
00000000
01000000
00000000
00100000
00000000
10000000
00000000
,
00100000
10000000
00100000
00010000
00001000
00010000
00001000
00000010
,
00000001
00000000
00001100
00001000
00000001
00000010
00001000
00010000
,
00011000
00000000
01001000
00000000
11000000
10000000
00100000
00000000
,
00110000
00010000
01000000
00000000
00010000
00001000
00000010
00000001
,
00000100
00000001
00000100
00001000
00010000
00001000
00010000
01000000
,
10000000
00000000
00110000
00010000
10000000
00100000
00010000
00001000
,
00011000
00000000
00010100
00000000
00000100
00000001
00000010
00001000
,
00000020
00000000
00000001
00000230
00000010
00002300
00000100
00003010
,
00001002
00000000
00000103
00002000
00000000
00000000
00013000
02000000
,
00000000
00000000
13000000
00100000
01000000
00100000
10000000
01000000
,
00020000
00000000
00031000
00000200
00000000
00000000
00000301
00001000
,
00001001
00000000
00000000
00000000
;
