#TITLE:No Good (Start the Dance);
#ARTIST:Prodigy;
#BANNER:No Good (Start the Dance).png;
#BACKGROUND:No Good (Start the Dance)-bg.png;
#CDTITLE:./CDTITLES/Dance Dance Revolution ULTRAMIX4.png;
#MUSIC:No Good (Start the Dance).ogg;
#SAMPLESTART:14.935;
#SAMPLELENGTH:15;
#DISPLAYBPM:145;
#BPMS:0=144,4=145;

//---------------dance-single - ----------------
#NOTES:
     dance-single:
     :
     Beginner:
     1:
     :
0000
0000
0000
0000
,
0000
0000
0000
0000
,
0000
0000
0000
0000
,
0000
0000
0000
0000
,
0000
0000
0000
0000
,
1000
0000
0000
0000
,
0000
0000
0000
0000
,
0001
0000
0000
0000
,
0100
0000
0000
0000
,
1000
0000
1000
0000
,
0000
0001
0001
0000
,
0000
0001
0001
0000
,
0000
0010
0010
0000
,
0010
0000
0000
0000
,
0100
0000
0000
0000
,
0010
0000
0000
0000
,
1000
0000
1000
0000
,
1000
0000
0000
0000
,
0001
0000
0000
0000
,
1000
0000
0000
0000
,
0010
0000
0010
0000
,
0010
0000
0000
0000
,
0000
0000
0000
0100
,
0100
0000
0000
0000
,
0001
0000
0000
0000
,
1000
0000
0000
0000
,
0000
0000
0000
0100
,
0100
0000
0000
0000
,
0001
0000
0000
0000
,
1001
0000
0000
0000
,
0100
0000
0000
0000
,
0010
0000
0000
0000
,
1000
0000
1000
0000
,
1000
0000
0000
0000
,
0001
0000
0000
0000
,
0100
0000
0000
0000
,
0001
0000
1000
0000
,
0001
0000
1000
1000
,
0000
0000
0010
0000
,
0010
0000
0000
0000
,
0100
0000
0100
0000
,
0001
0000
0001
0001
,
0000
0000
0100
0000
,
0100
0000
0000
0000
,
1000
0000
1000
0000
,
1000
0000
0000
0000
,
0010
0000
0000
0000
,
0100
0000
0000
0000
,
0001
0000
0001
0000
,
0001
0000
0000
0000
,
0010
0000
0000
0000
,
0100
0000
0000
0000
,
1000
0000
1000
0000
,
1000
0000
0000
0000
,
0001
0000
0000
0000
,
1000
0000
0000
0000
,
0010
0000
0010
0000
,
0010
0000
0000
0000
,
0001
0000
0000
0000
,
1000
0000
0000
0000
,
0100
0000
0100
0000
,
0110
0000
0000
0000
;

//---------------dance-single - ----------------
#NOTES:
     dance-single:
     :
     Easy:
     4:
     :
0000
0000
0000
0000
,
0000
0000
0000
0000
,
0000
0000
0000
0000
,
0000
0000
0000
0000
,
0000
0000
0000
0000
,
0100
0010
0100
0000
,
0001
0000
1000
0000
,
0100
0100
0010
0000
,
0001
0000
1000
0000
,
0000
0100
0001
0000
,
0000
0100
1000
0000
,
0000
0001
0010
0000
,
0000
1000
0010
0000
,
0001
0100
0001
0000
,
1000
0000
0100
0000
,
0010
0100
0100
0000
,
1000
0010
1000
0000
,
0001
0100
0001
0000
,
0100
0000
0010
0000
,
1000
0001
0001
0000
,
0100
0010
0100
0000
,
1000
1001
0000
0000
,
0001
2000
0000
0000
,
3001
1001
0000
0000
,
1000
0002
0000
0000
,
0103
0110
0000
0000
,
0010
0200
0000
0000
,
0310
0110
0000
0100
,
1001
0000
0000
0000
,
0100
0001
0100
1000
,
0100
0000
0001
0000
,
0010
1000
0010
0001
,
0010
0000
0001
0000
,
1000
0010
0100
0001
,
1000
0000
0100
0000
,
0001
0100
0010
1000
,
0001
0000
0000
0000
,
1001
0100
0100
0100
,
0200
0300
0020
0030
,
2000
3000
0002
0003
,
0200
0300
0020
0030
,
1000
1000
0001
0100
,
0010
1000
0001
0000
,
0001
0000
0010
0000
,
0200
0000
0000
0300
,
1000
0010
1000
0000
,
0001
0100
0100
0000
,
0010
0001
0010
1000
,
0010
0000
0100
0000
,
0001
0010
0001
0000
,
1000
0100
0100
0000
,
0100
1000
0100
0001
,
0100
0000
1000
0000
,
0010
0100
0010
0000
,
0001
0000
1000
0000
,
0100
0010
0010
0000
,
0001
0010
0001
0000
,
1000
0001
1000
0000
,
0100
0000
0010
0000
,
1000
0001
0001
0000
,
0100
0001
0100
1000
,
1001
0000
0000
0000
;

//---------------dance-single - ----------------
#NOTES:
     dance-single:
     :
     Medium:
     6:
     :
0000
0000
0000
0000
,
0000
0000
0000
0000
,
0000
0000
0000
0000
,
0000
0000
0000
0000
,
0000
0000
0000
0000
,
0010
1000
1000
0001
,
0100
0010
0100
0100
,
0010
1000
1000
0001
,
0100
0010
0100
0100
,
0001
0010
0000
0000
0110
0000
0000
0000
,
1000
0010
0000
0000
1001
0000
0000
0000
,
1000
0100
0000
0000
0011
0000
0000
0000
,
0001
0100
0000
0000
1010
0000
0000
0000
,
0001
0000
0100
0000
0100
0000
0001
1000
,
0000
0100
0010
0100
,
1100
0100
0101
0000
,
0100
0000
0010
0000
1000
0001
0100
0000
,
1000
0000
0100
0000
0100
0000
1000
0001
,
0000
0100
0010
0100
,
0101
0100
1100
0000
,
0100
0000
0010
0000
0001
1000
0100
0000
,
0010
0020
0000
1000
,
0000
0000
0001
0000
0000
0000
1030
0010
,
0100
0200
0000
0001
,
0000
1000
0000
0301
,
1000
2000
0000
0010
,
0000
0000
0100
0000
0000
0000
3010
1000
,
0001
0002
0000
0100
,
0103
0000
0000
0000
,
0010
0100
0010
0000
0101
0000
0000
0000
,
1000
0100
0000
0000
1100
0000
0000
0000
,
0001
1000
0001
0000
0110
0000
0000
0000
,
0010
0100
0000
0000
1001
0000
0000
0000
,
0010
0100
0010
0000
0101
0000
0001
0000
,
1000
0100
0000
0000
1100
0000
0000
0000
,
0001
1000
0001
0000
0110
0000
0010
0000
,
1001
0000
0000
0000
,
2000
0010
3002
0100
,
2003
0000
0010
0000
3010
0100
0010
0000
,
1000
0100
1000
0000
0001
0000
0101
0000
,
1000
1100
0001
0101
,
1000
0010
1000
0000
0001
0000
0100
0001
,
0100
0010
0110
1000
,
0010
0001
0010
0000
0100
1000
0100
0000
,
0100
0110
0001
0000
,
1000
0100
1000
0000
1001
0000
0001
0100
,
0001
0001
0101
1000
,
0010
0100
0010
0000
0100
0000
0001
0010
,
0001
0001
0101
1000
,
0100
0010
0100
0000
0010
0000
0001
1000
,
0001
0100
0110
1000
,
1000
0001
1000
0000
0100
0000
1000
0001
,
1000
0000
0001
0010
0001
0010
0001
0000
,
0001
0000
0100
0000
0100
0000
0001
1000
,
0000
0100
0010
0100
,
1100
0100
0101
0000
,
0100
0000
0010
0000
1000
0001
0100
0000
,
1000
0000
0100
0000
0100
0000
1000
0001
,
0000
0100
0010
0100
,
0101
0100
1100
0000
,
0100
0000
0010
0000
0001
1000
0100
0000
,
0020
0000
0000
0030
;

//---------------dance-single - ----------------
#NOTES:
     dance-single:
     :
     Hard:
     8:
     :
0000
0000
0000
0000
,
0000
0000
0000
0000
,
0000
0000
0000
0000
,
0000
0000
0000
0000
,
0000
0000
0000
0000
,
0101
0000
1000
0000
0001
0100
0001
0100
,
0010
1000
0100
0010
0100
0010
1000
0010
,
0110
0000
0001
0000
1000
0010
1000
0010
,
0100
0001
0010
0100
1000
0000
0101
0000
,
1100
2000
0000
0000
0020
0000
0000
3000
,
0000
0000
0200
0000
0000
0030
0000
0000
0002
0000
0000
0300
0000
0000
1000
0000
,
0000
0000
0020
0000
0000
0003
0000
0000
0100
0000
0030
0000
0001
0000
0000
0000
,
1000
0010
0000
0001
0100
0000
0010
0000
,
1100
0000
0000
0000
0010
0000
0000
0000
1000
0000
1000
0001
0000
0000
0100
0000
,
0000
0000
0010
0000
0100
0000
0010
0000
1000
0000
0000
0101
0000
0000
0000
0000
,
2001
0000
0000
0000
0010
0000
0000
0000
0001
0000
0000
3010
0000
0000
0000
0000
,
0101
0000
0000
0000
1010
0000
0000
0000
0001
0000
1000
0100
0000
0000
0000
0000
,
0110
0000
0000
0000
0100
0000
0000
0000
1000
0000
1000
0010
0000
0000
0100
0000
,
0000
0000
0001
0000
0010
0000
0001
0000
1000
0000
0000
1010
0000
0000
0000
0000
,
0120
0000
0000
0000
1000
0000
0000
0000
0100
0000
0000
1030
0000
0000
0000
0000
,
0011
0000
0000
0000
1100
0000
0000
0000
0001
0000
0100
0010
0000
0000
0000
0000
,
0200
0000
0010
0000
0000
1000
0000
0302
,
0000
0000
0100
0000
0000
1003
1000
0110
,
0201
0000
0001
0000
0000
1000
0000
0320
,
0000
0000
0001
0000
0000
1030
0000
1010
,
0210
0000
0001
0000
0000
1000
0000
0302
,
0000
0000
0100
0000
0000
1003
0000
0110
,
1020
0000
0100
0000
0000
1000
0000
0000
,
0230
0000
0000
0300
,
0001
0100
0100
0010
0100
0000
1000
1010
,
0000
0001
1000
0100
0010
0000
0001
0100
,
0010
0010
1000
0010
1000
0000
0001
0011
,
0000
0010
0001
1000
0100
0000
0000
0000
,
1000
0010
0010
0100
0001
0010
0100
0010
,
0000
0001
1000
1000
0100
0000
0010
0100
,
0100
1000
0010
0100
0001
0100
0010
1000
,
2002
0000
0000
3003
,
1010
1100
1001
0011
,
0110
0000
1000
0100
0010
0001
0001
0100
,
0010
1000
1000
0010
1000
0100
0010
0010
,
0010
0001
0010
0001
1000
1000
0010
0010
,
0100
0100
0001
0100
0010
0010
1000
0001
,
0100
0010
1000
1000
0010
0100
0001
0010
,
0010
0001
0001
0100
0100
0110
0100
0010
,
1000
1010
1001
0001
0100
0010
1000
1000
,
1100
0000
0100
0000
0010
1000
0001
0000
,
0100
0010
0010
1000
0100
0010
0001
0100
,
1010
0000
1000
0000
0001
0100
0010
0000
,
1000
0100
0100
0010
1000
0010
0011
0000
,
0101
0000
0010
1000
0100
0100
1000
0010
,
0100
0100
0001
0010
0100
0100
0010
0000
,
0011
0000
1000
0010
0100
0001
0001
0010
,
0100
1000
1000
0001
0010
0001
0001
1000
,
1100
0000
0000
0000
0010
0000
0000
0000
1000
0000
1000
0001
0000
0000
0100
0000
,
0000
0000
0010
0000
0100
0000
0010
0000
1000
0000
0000
0101
0000
0000
0000
0000
,
2001
0000
0000
0000
0010
0000
0000
0000
0001
0000
0000
3010
0000
0000
0000
0000
,
0101
0000
0000
0000
1010
0000
0000
0000
0001
0000
1000
0100
0000
0000
0000
0000
,
0110
0000
0000
0000
0100
0000
0000
0000
1000
0000
1000
0010
0000
0000
0100
0000
,
0000
0000
0001
0000
0010
0000
0001
0000
1000
0000
0000
1010
0000
0000
0000
0000
,
0120
0000
0000
0000
1000
0000
0000
0000
0100
0000
0000
1030
0000
0000
0000
0000
,
0010
0000
0100
0000
0001
0000
1000
0000
0001
0000
0001
0100
0000
0000
0000
0000
,
1001
0000
0000
0000
;

//---------------dance-double - ----------------
#NOTES:
     dance-double:
     :
     Beginner:
     1:
     :
00000000
00000000
00000000
00000000
,
00000000
00000000
00000000
00000000
,
00000000
00000000
00000000
00000000
,
00000000
00000000
00000000
00000000
,
00000000
00000000
00000000
00000000
,
00001000
00000000
00000000
00000000
,
00010000
00000000
00000000
00000000
,
01000000
00000000
00000000
00000000
,
10000000
00000000
00000000
00000000
,
00010000
00000000
00000000
00000000
,
00000000
00100000
00100000
00000000
,
00000000
00000000
00001000
00000000
,
00000000
00000010
00000010
00000000
,
00000010
00000000
00000000
00000000
,
00000001
00000000
00000000
00000000
,
00001000
00000000
00000000
00000000
,
00010000
00000000
00000000
00000000
,
00100000
00000000
00000000
00000000
,
10000000
00000000
00000000
00000000
,
01000000
00000000
00000000
00000000
,
00010000
00000000
00000000
00000000
,
00002000
00000000
00000000
00003000
,
00000000
00000000
00000000
00000001
,
00000001
00000000
00000000
00000000
,
00000010
00000000
00000000
00000000
,
00002000
00000000
00000000
00003000
,
00000000
00000000
00000000
00010000
,
00010000
00000000
00000000
00000000
,
01000000
00000000
00000000
00000000
,
10000000
00000000
00000000
00000000
,
00100000
00000000
00000000
00000000
,
00010000
00000000
00000000
00000000
,
00001000
00000000
00000100
00000000
,
00001000
00000000
00000000
00000000
,
00010000
00000000
00000000
00000000
,
00100000
00000000
00000000
00000000
,
00010000
00000000
00000000
00000000
,
00001000
00001000
00001000
00000000
,
00011000
00000000
00000000
00000000
,
00000100
00000000
00000000
00000000
,
00000001
00000000
00000000
00000000
,
00001000
00001000
00000000
00000000
,
00010000
00010000
00000000
00000000
,
00100000
00100000
00000000
00000000
,
10000000
00000000
00000000
00000000
,
00010000
00000000
00000000
00000000
,
01000000
00000000
00000000
00000000
,
00001000
00000000
00000000
00000000
,
00010000
00000000
00010000
00000000
,
00001000
00000000
00000000
00000000
,
00000100
00000000
00000000
00000000
,
00000001
00000000
00000000
00000000
,
00000010
00000000
00000000
00000000
,
00001000
00000000
00000000
00000000
,
00010000
00000000
00000000
00000000
,
01000000
00000000
01000000
00000000
,
10000000
00000000
00000000
00000000
,
00010000
00000000
00000000
00000000
,
00001000
00000000
00000000
00000000
,
00010000
00000000
00000000
00000000
,
00000100
00000000
00000100
00000000
,
00001001
00000000
00000000
00000000
;

//---------------dance-double - ----------------
#NOTES:
     dance-double:
     :
     Easy:
     4:
     :
00000000
00000000
00000000
00000000
,
00000000
00000000
00000000
00000000
,
00000000
00000000
00000000
00000000
,
00000000
00000000
00000000
00000000
,
00000000
00000000
00000000
00000000
,
01000000
10000000
00010000
01000000
,
00010000
00000000
10000000
00000000
,
01000000
00010000
00001000
00010000
,
00001000
00000000
00000100
00000000
,
00000001
00001000
00000001
00000000
,
00000000
00010000
00001000
00000000
,
10000000
00010000
10000000
00000000
,
00000000
00001000
00010000
00000000
,
00001000
00000100
00000001
00000010
,
00000010
00000000
00000100
00000000
,
00010000
00001000
00010000
00000000
,
00010000
01000000
00100000
00000000
,
00010000
01000000
10000000
01000000
,
01000000
00000000
00010000
00000000
,
00100000
00010000
00100000
00000000
,
00001000
00010000
00001000
00000000
,
00000010
00000001
00000000
00000100
,
00000000
00001000
00000000
00010000
,
01000000
00010000
00000000
00001000
,
00000000
00000100
00000000
00000001
,
00000010
00000001
00000000
00000100
,
00000000
00001000
00000000
00010000
,
01000000
00010000
00000000
00000010
,
00002000
00000000
00000000
00003000
,
00000001
00001000
00000001
00001000
,
00000001
00000000
00000100
00000000
,
00010000
00001000
00010000
00001000
,
00010000
00000000
01000000
00000000
,
10000000
00100000
01000000
00000000
,
00010000
00100000
00010000
00000000
,
00100000
00001000
00010000
00001000
,
00011000
00000000
00000000
00000000
,
00000001
00000100
00000001
00001000
,
00001001
00000000
00000100
00000000
,
00001000
00000000
00010000
00000000
,
01000000
00000000
10000000
00000000
,
00010000
00100000
00001000
00010000
,
00011000
00000000
00010000
00000000
,
00001000
00000000
00000100
00000000
,
00000002
00000000
00000000
00000003
,
00001000
00000100
00000100
00000000
,
00010000
00001000
00001000
00000000
,
01000000
00010000
10000000
00010000
,
10000000
00000000
01000000
00000000
,
00010000
00100000
00100000
00000000
,
00001000
00010000
00010000
00000000
,
00000100
00001000
00000001
00001000
,
00000001
00000000
00000100
00000000
,
00001000
00000100
00000001
00000010
,
00000010
00000000
00000100
00000000
,
00010000
00001000
00010000
00000000
,
00010000
01000000
00100000
00000000
,
00010000
01000000
10000000
01000000
,
01000000
00000000
00010000
00000000
,
00100000
00010000
00100000
00000000
,
00001000
00010000
00001000
00000000
,
00011000
00000000
00000000
00000000
;

//---------------dance-double - ----------------
#NOTES:
     dance-double:
     :
     Medium:
     6:
     :
00000000
00000000
00000000
00000000
,
00000000
00000000
00000000
00000000
,
00000000
00000000
00000000
00000000
,
00000000
00000000
00000000
00000000
,
00000000
00000000
00000000
00000000
,
00000001
00001000
00000001
00000100
,
00000010
00010000
00001000
00000000
,
00011000
00000000
01010000
00000000
,
10000000
00010000
10000000
00100000
,
01000000
00001000
00010000
00000000
,
00000100
00000010
00000000
00000000
00001001
00000000
00000000
00000000
,
00000001
00000100
00001000
00000000
,
00100000
01000000
00000000
00000000
10010000
00000000
00000000
00000000
,
01000000
00000000
01000000
00000000
01000000
00000000
00010000
00100000
,
00000000
00100000
00001000
00000000
00001000
00000000
00001000
00000000
,
00010000
00000100
00001000
00000000
,
00000010
00000000
00000010
00000000
00001000
00000001
00001000
00000000
,
00000100
00000000
00000100
00000000
00000100
00000000
00001000
00000010
,
00000000
00000010
00010000
00000000
00010000
00000000
00010000
00000000
,
00001000
00000000
01000000
00000000
00010000
01000000
00010000
00000000
,
01000000
00000000
01000000
00000000
00100000
10000000
00100000
00000000
,
01010000
00000000
02000000
00000000
00000000
03001000
00000000
00000000
,
00010000
00000000
00002000
00000000
00000000
00103000
00000000
00001000
,
00010000
00000000
00000200
00000000
00000000
00001300
00000000
00000000
,
00001000
00000000
00000002
00000000
00000000
00001003
00000000
00000010
,
00000100
00000000
00020000
00000000
00000000
00031000
00000000
00000000
,
00100000
00000000
00020000
00000000
00000000
01030000
00000000
00100000
,
10000000
00000000
02000000
00000000
00000000
03100000
00000000
00000000
,
00021000
00000000
00000000
00030000
,
00001000
00000100
00000000
00000001
00001000
00000000
00000100
00000000
,
00000010
00000001
00000000
00000000
00000100
00000000
00001000
00000000
,
00010000
00001000
00000000
00010000
01000000
00000000
00100000
00000000
,
00010000
10000000
00000000
00100000
01000000
00000000
00010000
00000000
,
00100000
00001000
00000000
00010000
01000000
00000000
00010000
00000000
,
00001000
00000100
00000000
00000001
00001000
00000000
00000100
00000000
,
00000010
00000001
00000000
00000100
00001000
00000000
00010000
00000000
,
00011000
00000000
00000000
00000000
,
00200000
01000000
01000000
01000000
,
00310000
10000000
00010000
10000000
,
01000000
00010000
00001000
00010000
,
00000010
00000100
00000010
00000100
,
00000001
00001000
00000100
00000000
00000100
00000000
00000100
00010000
,
00001000
00001000
00001000
00100000
,
00001000
01000000
00010000
00000000
00010000
00000000
00010000
10000000
,
01000000
10000000
01000000
10000000
01000000
00000000
00010000
00000000
,
00001000
00000100
00001000
00000100
,
00000001
00001000
00000100
00010000
,
01000000
00100000
01000000
00100000
,
00010000
10000000
01000000
00100000
,
00001000
00010000
00000000
00001000
00000100
00000000
00000001
00000010
,
00000000
00001000
00010000
00000000
00100000
10000000
00000000
01000000
,
01000000
01000000
00000000
00010000
00001000
00000000
00000100
00000001
,
00000000
00000010
00000001
00000100
00000001
00001000
00000100
00000000
,
00000100
00000000
00000100
00000000
00000100
00000000
00001000
00000010
,
00000000
00000010
00010000
00000000
00010000
00000000
00010000
00000000
,
00001000
01000000
00010000
00000000
,
01000000
00000000
01000000
00000000
00010000
10000000
00010000
00000000
,
01000000
00000000
01000000
00000000
01000000
00000000
00010000
00100000
,
00000000
00100000
00001000
00000000
00001000
00000000
00001000
00000000
,
00010000
00000000
00001000
00000000
00001000
00000100
00001000
00000000
,
00000100
00000000
00000100
00000000
00000010
00000001
00000010
00000000
,
00001001
00000000
00000000
00000000
;

//---------------dance-double - ----------------
#NOTES:
     dance-double:
     :
     Hard:
     8:
     :
00000000
00000000
00000000
00000000
,
00000000
00000000
00000000
00000000
,
00000000
00000000
00000000
00000000
,
00000000
00000000
00000000
00000000
,
00000000
00000000
00000000
00000000
,
10000000
00000000
00000000
00000000
00010000
00000000
00000000
00100000
00000000
01000000
00000000
00000000
00010000
00000000
00001000
00000000
,
00000100
00000000
00000000
00000000
00000001
00000000
00000000
00001000
00000000
00000010
00000000
00000000
00000100
00000000
00000001
00000000
,
00000100
00000000
00000000
00000000
00001000
00000000
00000000
00010000
00000000
00100000
00000000
00000000
10000000
00000000
00100000
00000000
,
01000000
00000000
00000000
00000000
00010000
00000000
00000000
00100000
00000000
01000000
00000000
00000000
00010000
00000000
00001000
00000000
,
00000100
00000001
00000000
00000001
00000011
00000000
00000000
00001000
,
00000100
00010000
00000000
00000100
00001100
00000000
00000010
00000001
,
00000100
00001000
00000000
00100000
00101000
00000000
00010000
01000000
,
10000000
00100000
00000000
01000000
01100000
00000000
10000000
01000000
,
00100000
01000000
00001000
00010000
,
00001000
00000000
00000100
00000000
00000001
00000000
00000010
00000000
00000100
00000000
00000000
00010100
00000000
00000000
00000000
00000000
,
00010000
00000000
00000000
00000000
00000100
00000000
00000000
00000000
00001000
00000000
00000000
00000010
00000000
00000000
00000000
00000000
,
00001000
00000000
00000001
00000000
00001000
00000000
00000100
00000000
00010000
00000000
00001000
00010000
00000000
00000000
00000000
00000000
,
01000000
20000000
30100000
01000000
,
00010000
00000000
01000000
00000000
00001000
00000000
00010000
00000000
00000100
00000000
00000000
00000110
00000000
00000000
00000000
00000000
,
00000001
00000000
00000000
00000000
00001000
00000000
00000000
00000000
00000100
00000000
00000000
00010000
00000000
00000000
00000000
00000000
,
00001000
00000000
00010000
00000000
01000000
00000000
00100000
00000000
00010000
00000000
01000000
00010000
00000000
00000000
00000000
00000000
,
20000000
00000000
30100000
00000000
01000000
00010000
00000000
00100000
,
00000000
01000000
00010000
00000000
00000000
00100000
00001000
00011000
,
00010100
00000000
00001000
00000000
00000010
00000100
00000000
00000001
,
00000000
00001000
00000110
00000000
00000000
00000001
00001000
00000100
,
00002000
00000000
00003010
00000000
00000100
00000001
00000000
00000010
,
00000000
00000100
00000001
00000000
00000000
00000100
00010000
00011000
,
01001000
00000000
00010000
00000000
10000000
01000000
00000000
00010000
,
00000000
00000000
00000000
00000000
00001000
00000000
00000000
00000000
00000100
00000000
00000001
00000100
00000000
00000000
00000000
00000000
,
00000010
00010000
00000000
00011000
00001000
00000000
00010000
00000000
,
00100000
10000000
00010000
01000000
00100000
00000000
11000000
00000000
,
01000000
00010000
00000000
00011000
00001000
00000000
00000100
00000000
,
00000001
00001000
00000010
00000100
00000001
00000000
00000101
00000000
,
00000100
00001000
00000000
00011000
00010000
00000000
01000000
00000000
,
00100000
01000000
00010000
01000000
10000000
00000000
01100000
00000000
,
10000000
00010000
00000000
01010000
00010000
00000000
00100000
00001000
,
00020000
00000000
00000000
00030000
,
00001000
00011000
00001000
00001010
,
00000110
00000000
00000100
00000000
00001000
00000100
00000010
00010000
,
00001000
00000100
00000001
00000010
00000100
00000010
00000100
00001000
,
00000100
00010000
00001000
00010000
01000000
00100000
00010000
00000000
,
10000000
10000000
01000000
00100000
00010000
01000000
00001000
00001000
,
00010000
00010000
00000010
00000100
00001000
00000100
00000001
00000001
,
00001000
00001000
00000100
00000010
00000001
00001000
00001000
00000010
,
00000010
00000100
00001000
00010000
00001000
00010000
00100000
00000000
,
01000000
00000000
00000000
00000000
00010000
00000000
00000000
00000000
00100000
00000000
00000000
00000000
01000000
00100000
00000000
00010000
,
10000000
00000000
00000000
00000000
01000000
00000000
00000000
00000000
00001000
00000000
00000000
00000000
00010000
00001000
00010000
00000000
,
00000100
00000000
00000000
00000000
00001000
00000000
00000000
00000000
00000001
00000000
00000000
00000000
00000010
00000100
00000000
00001000
,
00000001
00000000
00000100
00000000
00000010
00000010
00000010
00001010
,
00010010
00000000
00000000
00000000
00010000
00000000
00000000
00000000
00001000
00000000
00000000
00000000
00000100
00000001
00000000
00001000
,
00000100
00000000
00000000
00000000
00001000
00000000
00000000
00000000
00000001
00000000
00000000
00000000
00001000
00000100
00001000
00000000
,
00000001
00000000
00000000
00000000
00000100
00000000
00000000
00000000
00001000
00000000
00000000
00000000
00010000
00001000
00000000
00010000
,
00000100
00010000
00001000
00000000
01000000
01000000
01000000
01100000
,
01010000
01000000
00001000
00010000
,
00001000
00000000
00000100
00000000
00000001
00000000
00000010
00000000
00000100
00000000
00000000
00010100
00000000
00000000
00000000
00000000
,
00010000
00000000
00000000
00000000
00000100
00000000
00000000
00000000
00001000
00000000
00000000
00000010
00000000
00000000
00000000
00000000
,
00001000
00000000
00000001
00000000
00001000
00000000
00000100
00000000
00010000
00000000
00001000
00010000
00000000
00000000
00000000
00000000
,
01000000
10000000
00100000
01000000
,
00010000
00000000
01000000
00000000
00001000
00000000
00010000
00000000
00000100
00000000
00000000
00000110
00000000
00000000
00000000
00000000
,
00000001
00000000
00000000
00000000
00001000
00000000
00000000
00000000
00000100
00000000
00000000
00010000
00000000
00000000
00000000
00000000
,
00001000
00000000
00010000
00000000
01000000
00000000
00100000
00000000
00010000
00000000
01000000
00010000
00000000
00000000
00000000
00000000
,
00022000
00000000
00000000
00033000
;
