#TITLE:Nervous Excited Delighted;
#ARTIST:Z.O.N.K.;
#BANNER:Nervous Excited Delighted.png;
#BACKGROUND:Nervous Excited Delighted-bg.png;
#CDTITLE:./CDTITLES/Dance Dance Revolution ULTRAMIX4.png;
#MUSIC:Nervous Excited Delighted.ogg;
#SAMPLESTART:17.26;
#SAMPLELENGTH:15;
#DISPLAYBPM:97;
#BPMS:0=97.485;

//---------------dance-single - ----------------
#NOTES:
     dance-single:
     :
     Beginner:
     1:
     :
0000
0000
0000
0000
,
0000
0000
0000
0000
,
0000
0000
0000
0000
,
1000
0000
0000
0000
,
0010
0000
0000
0000
,
0001
0000
0000
0000
,
0100
0000
0000
0000
,
1000
0000
0100
0000
,
1000
0000
0100
0000
,
0010
0000
0001
0000
,
0010
0000
0001
0000
,
0100
0000
0010
0000
,
0100
0000
0010
0000
,
1000
0000
1000
0000
,
0001
0000
0001
0000
,
0000
0010
0000
1000
,
0000
0010
0000
0001
,
0001
0001
0000
1000
,
1000
1000
0000
0010
,
0010
0010
0000
0100
,
0100
0100
0000
0000
,
0001
0000
1000
0000
,
0002
0000
0000
0003
,
0001
0000
0100
0000
,
1000
0000
0100
0000
,
0001
0000
0001
0000
,
1000
0000
1000
0000
,
0010
0000
0010
0000
,
0100
0000
0100
0000
,
0001
0000
1000
0000
,
0001
0000
0010
0000
,
0100
0000
1000
0000
,
0001
0000
1000
0000
,
1001
0000
0100
0000
,
0020
0000
0000
0030
,
0010
0000
1000
0000
,
0001
0000
1000
0000
,
0000
0001
0000
1000
,
0000
0001
0000
1000
,
0000
0100
0000
0010
,
0000
0001
0000
1000
,
1000
0000
0010
0000
,
0100
0000
0001
0000
,
1000
0000
0100
0000
,
0010
0000
0001
0000
,
1000
1000
1000
0000
;

//---------------dance-single - ----------------
#NOTES:
     dance-single:
     :
     Easy:
     3:
     :
0000
0000
0000
0000
,
0000
0000
0000
0000
,
0000
0000
0000
0000
,
0010
0000
1000
0000
,
0100
0000
1000
0010
,
0100
0000
0001
0000
,
0010
0000
0001
0100
,
0010
2000
3000
0001
,
0010
0100
1000
0100
,
0010
0002
0003
1000
,
0010
0100
0001
0100
,
0010
2000
3000
0001
,
0010
1000
0010
0001
,
0100
0020
0030
1000
,
0100
0001
0100
1000
,
0002
0003
0200
0300
,
0020
0030
2000
3000
,
0001
0001
1000
1000
,
0001
0001
1000
1000
,
0100
0100
0010
0010
,
0100
0100
0010
0010
,
0001
0100
0010
1000
,
0002
0003
2000
3000
,
0100
0100
0010
0001
,
1000
1000
0001
0001
,
1001
0000
0110
0000
,
0001
0100
0001
0100
,
0110
0000
1001
0000
,
0010
1000
0010
1000
,
1001
0100
0000
0010
,
0000
1000
0000
0100
,
0000
0001
0000
0010
,
0000
1000
0000
0001
,
1000
0100
0010
0001
,
2000
3000
0100
1000
,
0001
0100
0001
1000
,
0100
0010
0001
1000
,
1001
0000
0110
0000
,
0002
0003
2000
3000
,
0010
0010
0100
0100
,
0010
0010
0100
0100
,
0001
0010
1000
0100
,
0001
0100
1000
0010
,
0001
1000
0100
0010
,
0001
1000
0010
0100
,
1001
1001
1001
0000
;

//---------------dance-single - ----------------
#NOTES:
     dance-single:
     :
     Medium:
     5:
     :
0000
0000
0000
0000
,
0000
0000
0000
0000
,
0000
0000
0000
0000
,
1000
0001
0210
0301
,
0002
1003
1000
0100
,
0010
0001
1002
0103
,
0200
0310
0010
1000
,
1001
0100
0001
0011
,
1000
1100
0001
0101
,
1000
0010
0100
0101
,
1000
1010
0001
0011
,
0100
1001
0010
0110
,
0100
0000
1001
0000
0010
0100
0010
0100
,
0001
1001
0001
0110
,
1000
0000
1001
0000
0010
1000
0100
0010
,
0001
1000
1000
0000
1000
0010
0010
0000
,
0010
0100
0100
0000
0100
0001
0001
1000
,
1001
1010
1001
1001
,
0101
0101
1001
0101
,
1010
0110
1010
1010
,
1100
1001
1100
1100
,
1001
0000
0001
0100
1000
0000
0001
0010
,
1000
0000
0001
0000
0100
0001
0010
0100
,
1000
1001
0100
0101
,
1000
0000
1100
0000
0010
0001
0100
0010
,
2000
3100
0002
0103
,
1000
0010
0100
0000
0001
1000
0100
0000
,
0002
0013
2000
3010
,
0100
0001
1000
0000
0100
0010
0001
0000
,
1000
0000
1001
0000
0100
0001
1000
0000
,
0100
0000
1001
0000
0100
1000
0001
0000
,
0010
0000
1100
0000
0001
0010
0100
0000
,
1000
0000
0101
0000
1000
0010
0100
0000
,
0001
0000
0010
0001
0100
0000
1000
0100
,
0001
0001
0000
0001
1000
1000
0000
0100
,
0010
0010
0000
0001
1000
1000
0010
0100
,
0001
0001
0000
0010
0100
0100
1000
0001
,
1000
0001
0000
0100
0010
0100
0000
0001
,
0010
0100
0000
0001
0100
1000
0000
0010
,
1000
0010
0000
0100
0001
0100
0000
0010
,
1000
0100
0000
0010
0100
1000
0001
1000
,
1001
0000
0010
0000
1001
1000
0010
0000
,
0101
0000
0010
0000
0101
0100
0010
0000
,
1100
0000
0010
0000
1100
0100
0010
0000
,
1010
0000
0100
0000
1010
0010
0100
0001
,
1001
0110
1001
0000
;

//---------------dance-single - ----------------
#NOTES:
     dance-single:
     :
     Hard:
     7:
     :
0000
0000
0000
0000
,
0000
0000
0000
0000
,
0000
0000
0000
0000
,
0010
0000
0000
0000
0001
0000
1000
0100
1000
0000
0000
0000
0010
0000
0001
0100
,
0001
0000
0000
0000
0010
0000
1000
0100
1000
0000
0010
0000
0100
0000
0001
0000
,
2000
0000
0000
0000
3001
0000
1000
0010
0100
0000
0000
0000
1000
0000
0001
0010
,
0100
0000
0000
0000
0001
0000
1000
0100
0010
0000
0001
0000
1000
0000
0100
0000
,
2000
3020
0130
0210
,
0302
0000
0000
0000
0013
0000
1000
0001
0010
0000
0100
0000
1000
0000
0100
0000
,
0020
0032
1003
2001
,
3020
0000
0000
0000
0130
0000
1000
0010
0100
0000
0001
0000
0100
0000
0010
0000
,
2000
3200
0301
0201
,
0320
0000
0000
0000
0031
0000
0100
1000
0001
0000
0010
0000
0100
0000
0010
0000
,
0002
2003
3010
0201
,
0320
0000
0000
0000
1030
0000
0100
0010
1000
0000
0100
0000
0010
0000
0001
0000
,
2000
0000
0000
0000
3010
0000
0100
1000
0200
0000
0000
0000
0301
0000
0010
0100
,
0020
0000
0000
0000
1030
0000
0010
0001
0100
0000
0010
0000
1000
0000
0001
0000
,
1000
1000
0110
0001
1000
1000
1001
0000
,
0010
0010
1001
0100
0010
0010
0110
0000
,
1000
1000
0101
0010
1000
1000
0011
0000
,
0100
0100
1010
0001
0100
0100
0011
0000
,
0200
0000
1300
0001
0200
0000
0310
1000
,
0002
0000
0103
0010
1000
0001
1100
0000
,
0010
0001
0101
0000
0100
1000
1010
0000
,
0100
0001
0011
0000
0010
1000
1100
0010
,
1001
0000
0102
0000
0010
0010
0100
0103
,
1001
0000
2100
0000
0010
0010
0100
3100
,
1001
0000
0210
0000
0001
0001
1000
1300
,
1001
0000
0120
0000
1000
1000
0001
0031
,
1001
0100
0011
0000
0001
0100
1010
0000
,
1000
0001
1100
0010
0001
1000
0101
0000
,
1000
0010
0101
0000
0001
0010
1100
0000
,
0001
1000
0101
0010
1000
0001
1100
0000
,
1010
0101
0011
0101
,
1010
0000
1100
0000
0011
0000
1001
0100
,
0010
1000
0100
1000
0001
0100
0011
0000
,
1001
0000
1100
0000
0011
1000
0001
0010
,
0100
1001
0000
0010
0100
1001
0000
0001
,
0100
0011
0000
1000
0010
1100
0000
0001
,
1100
0010
0000
1000
0011
0100
0000
0010
,
1000
0010
0100
0001
0010
0001
0100
0010
,
2001
0001
3001
0010
0200
1000
1300
0020
,
0100
0100
0130
0001
2000
0010
3010
0200
,
0001
0001
0301
0010
0200
1000
1300
0020
,
0100
0100
0130
0001
0200
0010
0310
1000
,
0011
1010
0011
0000
;

//---------------dance-double - ----------------
#NOTES:
     dance-double:
     :
     Beginner:
     1:
     :
00000000
00000000
00000000
00000000
,
00000000
00000000
00000000
00000000
,
00000000
00000000
00000000
00000000
,
10000000
00000000
00000000
00000000
,
00100000
00000000
00000000
00000000
,
00010000
00000000
00000000
00000000
,
00001000
00000000
00000000
00000000
,
00010000
00000000
00001000
00000000
,
00000010
00000000
00000001
00000000
,
00001000
00000000
00000100
00000000
,
00000010
00000000
00001000
00000000
,
00010000
00000000
00100000
00000000
,
01000000
00000000
00010000
00000000
,
10000000
00000000
00100000
00000000
,
01000000
00000000
00100000
00000000
,
00000000
00010000
00000000
00001000
,
00000000
00000100
00000000
00000001
,
00000001
00000001
00000000
00001000
,
00001000
00001000
00000000
00000100
,
00000100
00000100
00000000
00010000
,
00010000
00010000
00000000
00000000
,
00001000
00000000
00100000
00000000
,
00020000
00000000
00000000
00030000
,
00010000
00000000
10000000
00000000
,
00100000
00000000
01000000
00000000
,
00010000
00000000
00100000
00000000
,
00001000
00000000
00010000
00000000
,
00000100
00000000
00010000
00000000
,
00001000
00000000
01000000
00000000
,
00010000
00000000
00100000
00000000
,
00001000
00000000
00010000
00000000
,
00000100
00000000
00001000
00000000
,
00000010
00000000
00000100
00000000
,
00000110
00000000
00000001
00000000
,
00002000
00000000
00000000
00003000
,
00001000
00000000
00000100
00000000
,
00010000
00000000
00001000
00000000
,
00000000
01000000
00000000
00100000
,
00000000
10000000
00000000
00010000
,
00000000
00100000
00000000
01000000
,
00000000
00010000
00000000
00001000
,
00001000
00000000
00010000
00000000
,
00000100
00000000
00001000
00000000
,
00000010
00000000
00000100
00000000
,
00000001
00000000
00001000
00000000
,
00000001
00000001
00000001
00000000
;

//---------------dance-double - ----------------
#NOTES:
     dance-double:
     :
     Easy:
     3:
     :
00000000
00000000
00000000
00000000
,
00000000
00000000
00000000
00000000
,
00000000
00000000
00000000
00000000
,
00001000
00000000
00010000
00000000
,
01000000
00000000
10000000
00100000
,
00010000
00000000
00001000
00000000
,
00000100
00000000
00000001
00000010
,
00001000
00020000
00030000
00100000
,
01000000
00100000
00010000
00001000
,
00100000
00020000
00030000
10000000
,
01000000
00010000
00001000
00000100
,
00000001
00000020
00000030
00000100
,
00010000
00001000
00010000
00000010
,
00001000
00000200
00000300
00010000
,
00001000
00100000
00010000
10000000
,
00200000
00300000
02000000
03000000
,
00020000
00030000
20000000
30000000
,
01000000
01000000
00010000
00010000
,
00001000
00001000
00000100
00000100
,
00000010
00000010
00001000
00001000
,
00000001
00000001
00001000
00001000
,
00000100
00010000
00001000
01000000
,
00020000
00030000
20000000
30000000
,
00010000
00010000
10000000
10000000
,
00100000
01000000
00001000
00010000
,
00011000
00000000
00000110
00000000
,
00000001
00000100
00001000
00010000
,
00011000
00000000
01100000
00000000
,
10000000
01000000
00010000
00001000
,
00011000
00001000
00000000
00000100
,
00000000
00000001
00000000
00000010
,
00000000
00001000
00000000
00010000
,
00000000
01000000
00000000
10000000
,
00100000
01000000
00100000
00010000
,
00002000
00003000
00010000
00000100
,
00001000
00000100
00000010
00000001
,
00001000
00000010
00000100
00000010
,
00000110
00000000
00011000
00000000
,
00200000
00300000
02000000
03000000
,
10000000
10000000
00010000
00010000
,
01000000
01000000
00100000
00100000
,
00010000
00001000
00000100
00001000
,
00010000
00100000
01000000
00100000
,
00010000
00001000
00000010
00001000
,
00010000
01000000
00100000
01000000
,
10010000
10010000
10010000
00000000
;

//---------------dance-double - ----------------
#NOTES:
     dance-double:
     :
     Medium:
     5:
     :
00000000
00000000
00000000
00000000
,
00000000
00000000
00000000
00000000
,
00000000
00000000
00000000
00000000
,
00000100
00002001
00003010
00000002
,
00000103
00001010
00000100
00010000
,
00001000
00012000
00103000
00020000
,
01030000
10010000
00100000
10000000
,
01000000
00110000
10000000
01000000
,
00010000
00011000
00001000
00000100
,
00000001
00001100
00001000
00000001
,
00000100
00001100
00010000
00001000
,
00100000
01010000
00010000
10000000
,
01000000
01100000
00010000
01000000
,
00001000
00011000
00010000
00000100
,
00001000
00000101
00000010
00001000
,
00000100
00011000
00100000
00010000
,
10000000
01100000
00010000
01000000
,
00100000
00100000
00100000
00000000
10000000
10000000
10000000
00000000
,
00010000
01000000
00001000
00010000
00001000
00001000
00010000
00010000
,
00000100
00000100
00000100
00000000
00001000
00001000
00001000
00000000
,
00000001
00000010
00000100
00001000
00000010
00000010
00010000
00010000
,
00011000
00000000
00001000
00100000
00001000
00000000
00010000
00000100
,
00010000
00000000
00001000
00000000
01000000
00010000
10000000
00000000
,
01000000
10000000
01000000
00000000
00100000
00010000
10000000
00000000
,
00010000
01000000
00010000
00000000
00100000
10000000
00010000
00100000
,
00002000
00013000
00000200
00000310
,
00000001
00001000
00000001
00000000
00000100
00001000
00010000
00000000
,
00002000
00103000
02000000
13000000
,
00100000
01000000
00100000
00000000
10000000
00010000
00100000
00001000
,
00010000
00000000
00011000
00000000
00001000
00000100
00001000
00000000
,
00000010
00000100
00000010
00000000
00001000
00000001
00000100
00000000
,
00001000
00000000
00011000
00000000
00100000
00010000
00100000
00000000
,
01000000
10000000
01000000
00000000
10000000
00010000
00100000
00000000
,
00001000
00000000
00010000
00001000
00000100
00000000
00001000
00010000
,
00100000
00010000
00000000
00001000
00000100
00000010
00000000
00001000
,
00000001
00001000
00000000
00000100
00000010
00000010
00000100
00010000
,
00001000
00001000
00000000
01000000
00010000
00010000
01000000
00100000
,
10000000
00010000
00000000
00100000
01000000
10000000
00000000
00010000
,
01000000
00100000
00000000
00010000
00001000
00010000
00000000
00000100
,
00001000
00000010
00000000
00000100
00000010
00001000
00000000
00000100
,
00000010
00001000
00000000
00010000
00001000
00010000
00100000
01000000
,
01100000
00000000
10000000
00000000
10010000
01000000
00010000
00000000
,
00011000
00000000
00001000
00000000
00011000
00000100
00001000
00000000
,
00000110
00000000
00000001
00000000
00001001
00000100
00001000
00000000
,
00000110
00000000
00001000
00000000
00000110
00001000
00010000
00001000
,
00101000
00110000
01100000
00000000
;

//---------------dance-double - ----------------
#NOTES:
     dance-double:
     :
     Hard:
     7:
     :
00000000
00000000
00000000
00000000
,
00000000
00000000
00000000
00000000
,
00000000
00000000
00000000
00000000
,
00000010
00000000
00000000
00000000
00000001
00000000
00001000
00000001
00001000
00000000
00000000
00000000
00000100
00000000
00010000
00001000
,
00010000
00000000
00000000
00000000
00100000
00000000
00010000
00100000
00001000
00000000
00010000
00000000
01000000
00000000
10000000
00000000
,
00020000
00000000
00000000
00000000
10030000
00000000
00100000
01000000
00100000
00000000
00000000
00000000
00010000
00000000
00001000
00010000
,
00001000
00000000
00000000
00000000
00000010
00000000
00001000
00000100
00010000
00000000
00001000
00000000
00000100
00000000
00000001
00000000
,
00001000
00000110
00000001
00000110
,
00001000
00010000
00001000
00000100
00001000
00010000
00100000
10000000
,
00010000
01100000
10000000
01100000
,
00010000
00001000
00010000
01000000
00010000
00001000
00000010
00000001
,
00001000
00000101
00000010
00001100
,
00000010
00000100
00010000
00001000
01000000
00100000
10000000
00010000
,
00100000
11000000
00100000
01010000
,
00100000
01000000
00001000
00010000
00000100
00000010
00000001
00001000
,
00000001
00000000
00000000
00000100
00000000
00000000
00001000
00000000
00010000
00000000
00000000
00000100
00000000
00000000
00010000
00000000
,
00001000
00000000
00000000
01000000
00000000
00000000
00001000
00000000
00010000
00000000
01000000
00000000
10000000
00000000
00010000
00000000
,
10000000
00000000
10000000
00000000
00010000
01000000
00100000
10000000
00000000
10000000
00010000
00000000
01000000
00000000
00000000
00000000
,
00001000
00000000
00001000
00000000
00010000
00000000
00000100
00001000
00000000
00000000
00000010
00000000
00001000
00000000
00000100
00000010
,
00000001
00000000
00001000
00000000
00000001
00000000
00000100
00000000
00000010
00001000
00000000
00001000
00000100
00000000
00010000
00001000
,
00100000
00000000
00010000
00000000
10000000
00000000
00100000
00000000
01000000
00010000
00000000
00010000
00100000
00000000
00000000
00000000
,
01000000
01000000
11000000
00010000
01000000
01000000
01010000
00001000
,
00010000
00010000
00011000
00000000
00000100
00000000
00001001
00000001
,
00000100
00001000
00011000
00010000
01000000
10000000
10010000
00000000
,
10010000
10000000
00100000
00010000
00011000
00001000
00000010
00000001
,
00001001
00000000
00000210
00000000
00001000
00001000
00010000
00010300
,
00011000
00000000
02001000
00000000
00010000
00010000
00100000
03100000
,
10100000
00000000
12000000
00000000
00100000
00100000
00010000
03010000
,
00011000
00000000
00010020
00000000
00001000
00001000
00000100
00000130
,
00001000
00001000
00000110
00000000
00000001
00000001
00001100
00000000
,
00010000
00000100
00011000
01000000
00011000
00000100
00011000
00000000
,
00100000
00100000
01010000
00000000
10000000
10000000
00110000
00000000
,
00001000
00100000
00011000
00000010
00011000
00100000
00011000
00000010
,
00021000
00000000
00031000
00000100
00000002
00000000
00000103
00002000
,
00010000
00013000
01000000
10000000
10000000
00000000
00010000
00100000
,
00010000
10000000
00100000
01000000
00001000
01000000
00010000
00100000
,
10000000
00100000
00001000
00010000
00011000
00000000
00001100
00000000
,
00000101
00001000
00000000
00000010
00001000
00001100
00000000
00010000
,
00000010
00011000
00000000
00001000
01000000
00011000
00000000
00100000
,
00010000
11000000
00000000
00010000
10000000
01100000
00000000
00100000
,
00010000
00001000
00000010
00000001
00000100
00001000
00000100
00000001
,
00002000
00003200
00020300
00032000
,
01003000
02000000
00100000
03200000
00010000
00320000
00001000
00031000
,
00000100
00000001
00000010
00000001
00001000
00000010
00001000
00000001
,
00000100
00001000
00010000
01000000
10000000
00010000
01000000
00001000
,
00010100
00101000
00011000
00000000
;
