#TITLE:My Side Of the City;
#ARTIST:Beulah;
#BANNER:My Side Of the City.png;
#BACKGROUND:My Side Of the City-bg.png;
#CDTITLE:./CDTITLES/Dance Dance Revolution ULTRAMIX4.png;
#MUSIC:My Side Of the City.ogg;
#SAMPLESTART:8.164;
#SAMPLELENGTH:15;
#DISPLAYBPM:132;
#BPMS:0=135.977,20=135.338,32=134.831,52=135.338,64=136.364,68=131.627,76=135.338,84=133.581,92=134.579,100=133.829,108=136.622,116=130.672,124=132.597,132=131.387,140=130.199,148=128.114,160=130.435,164=130.909,172=127.66,180=126.316,184=130.435,188=128.114,192=125,196=135.721;

//---------------dance-single - ----------------
#NOTES:
     dance-single:
     :
     Beginner:
     2:
     :
0000
0000
0000
0000
,
0000
0000
0000
0000
,
0000
0000
0000
0000
,
1000
0000
0000
0000
,
0010
0000
0000
0000
,
0100
0100
0000
0000
,
0001
0000
1000
0000
,
0010
0010
0000
0000
,
1000
0000
0001
0000
,
0100
0100
0000
0000
,
0001
0000
0010
0000
,
0100
0100
0000
0000
,
1000
0000
0001
0000
,
1000
1000
1000
1000
,
1000
0000
0000
0000
,
0010
0010
0010
0010
,
0010
0000
0000
0000
,
0100
0100
0000
0000
,
0001
0000
0100
0000
,
0010
0010
0000
0000
,
0010
0000
1000
0000
,
0001
0001
0000
0000
,
1000
0000
0001
0000
,
1000
1000
0000
0000
,
0100
0000
0100
0000
,
1000
1000
1000
1000
,
1000
0000
0000
0000
,
0010
0010
0010
0010
,
0010
0000
0000
0000
,
0100
0000
0100
0000
,
0001
0000
1000
0000
,
0010
0000
1000
0000
,
0001
0000
0100
0000
,
0001
0000
0010
0000
,
0100
0000
1000
0000
,
0010
0000
0100
0000
,
0001
0000
1000
0000
,
0001
0001
0001
0000
,
1000
1000
1000
0000
,
1000
0000
0001
0000
,
1000
1000
1000
0000
,
0010
0000
0010
0000
,
0100
0000
0100
0000
,
0110
0000
0000
0000
,
1000
1000
1000
0000
,
0001
0000
1000
0000
,
0100
0000
1000
0000
,
0001
0000
1000
0000
,
0010
0010
0010
0000
,
0100
0000
0100
0000
,
0010
0010
0010
0000
,
0100
0000
0001
0000
,
1000
1000
1000
0000
,
1001
0000
0000
0000
;

//---------------dance-single - ----------------
#NOTES:
     dance-single:
     :
     Easy:
     4:
     :
0000
0000
0000
0000
,
0000
0000
0000
0000
,
0000
0000
0000
0000
,
0010
1000
0010
0000
,
0100
0100
0100
0000
,
0001
0001
1000
0001
,
0100
0010
1000
0000
,
1000
1000
0001
1000
,
0100
1000
0010
0000
,
0100
0100
0010
0100
,
0001
0010
0100
0000
,
1000
1000
0010
0000
,
0000
1000
0001
1000
,
1000
1000
0010
0010
,
0000
0000
0001
0001
,
0100
0100
0001
0001
,
1000
0000
0001
0000
,
1000
1000
0010
0100
,
0001
0001
1000
0000
,
0001
0001
0010
0001
,
0010
0001
0100
0000
,
0010
0010
1000
0100
,
1000
0010
0100
0000
,
0001
0001
1000
0000
,
0000
1000
0001
0100
,
0010
0010
1000
1000
,
0000
0000
0100
0100
,
0010
0010
1000
1000
,
0010
0000
1000
0000
,
0100
0000
0100
0100
,
0001
0000
1000
1000
,
0010
0010
0010
0100
,
0001
0000
0000
0000
,
1000
1000
0001
0000
,
1000
1000
0010
0100
,
0100
0000
0010
0010
,
1000
0000
0000
0000
,
0001
1000
0001
1000
,
0010
1000
0010
0000
,
0001
1000
0001
1000
,
0001
0100
0001
0000
,
0010
0000
0010
0000
,
0010
1000
0010
0100
,
0001
0000
0001
0000
,
1000
0000
1000
0000
,
1001
0000
0110
0000
,
1001
0000
0000
0000
,
0001
0001
1000
1000
,
0010
0000
0000
0000
,
0100
0100
0010
0000
,
0100
0001
1000
0000
,
0100
0100
0010
0000
,
1000
0001
1000
0000
;

//---------------dance-single - ----------------
#NOTES:
     dance-single:
     :
     Medium:
     5:
     :
0000
0000
0000
0000
,
0000
0000
0000
0000
,
0000
0000
0000
0000
,
1000
0010
1000
0000
0001
0000
0001
0000
,
1000
0010
0100
0000
0001
0000
0000
0000
,
0001
0100
0001
0000
0100
0000
0010
0000
,
0100
1000
1100
0000
,
0001
0000
1000
0000
0001
0000
1000
0001
,
0000
1000
0100
0000
0010
0001
0000
0000
,
1000
0010
1000
0000
0100
0000
1000
0010
,
0000
1000
0100
1000
0010
0100
0000
0000
,
0100
0001
0100
0000
1001
0000
0000
0000
,
0000
0100
0010
0110
,
0010
1000
0010
1000
,
0010
0000
1000
0000
0001
0100
0001
0100
,
0001
1000
0010
1000
,
0010
0000
0000
0000
,
1000
0010
0100
0000
0001
0000
1000
0100
,
0000
1000
0100
0010
0001
0010
0000
0000
,
0001
0000
0001
0000
0001
0000
1000
0100
,
0000
1000
0100
0010
0001
0010
0000
0000
,
0100
0000
1000
0000
0010
0000
1000
0001
,
0000
0100
0001
0010
0001
0100
0010
0000
,
1000
0001
1000
0000
1001
0000
0000
0000
,
0000
0100
0010
0110
,
0100
0001
0100
0001
,
0100
0000
0001
0000
1000
0010
1000
0010
,
1000
0001
0100
0001
,
0100
0000
0000
0000
,
0001
0000
1000
0000
0010
1000
0100
0000
,
1000
0000
0001
0000
0010
0001
0100
0000
,
0010
0010
0010
0000
0000
0000
1001
0000
,
0110
0000
0000
0000
,
0010
0000
1000
0000
0100
1000
0001
0000
,
0010
0000
0001
0000
0100
0001
1000
0000
,
0100
0100
0100
0000
0000
0000
1001
0000
,
0110
0000
0000
0000
,
1000
0001
1000
0001
,
1000
1100
0001
0101
,
1100
0101
1100
0101
,
1000
0001
1001
0000
0000
0000
0000
0000
,
0010
0000
0100
0000
1000
0100
0010
0100
,
1000
0010
0010
0010
,
1000
0000
2020
0000
0000
3000
0000
0000
,
0100
0100
0100
0130
,
0001
0000
1000
0000
0001
0010
0100
0010
,
0001
0100
0100
0100
,
1001
0100
1001
0100
,
0010
0100
0001
0100
,
0001
0010
0001
0000
1000
0000
1000
0000
,
0010
0100
0010
0000
1000
0000
0001
0000
,
1000
0100
0010
0000
0001
0000
0001
0000
,
0100
0010
1000
0000
0110
0000
0000
0000
;

//---------------dance-single - ----------------
#NOTES:
     dance-single:
     :
     Hard:
     7:
     :
0000
0000
0000
0000
,
0000
0000
0000
0000
,
0000
0000
0000
0000
,
1000
0001
1000
0001
0010
0001
0010
0100
,
1000
0010
0100
0000
1001
0000
0000
0000
,
2000
0100
3010
0000
0100
0000
0001
0010
,
0000
0001
0100
0020
1000
0130
0000
0000
,
0001
0000
1000
0000
0001
0000
1000
0010
,
0000
1000
0100
0020
0001
0130
0000
1000
,
0001
0010
0100
0001
0100
1000
0010
0100
,
0000
0001
0100
0001
0100
0001
0000
1000
,
0010
0100
0001
0100
0010
0000
0100
0000
,
0010
0000
1000
0100
0010
0100
1000
0000
,
0001
0000
0100
0010
1000
0001
0010
0100
,
1000
0001
1000
0010
,
0100
0001
0100
1000
0100
0001
0010
0100
,
1000
0000
0001
0000
0100
0000
0001
0100
,
0020
1000
0130
0001
0100
0000
0010
1000
,
0000
0001
1000
0020
0100
1030
0000
1010
,
0000
0000
0001
0100
1000
0000
0100
0001
,
0000
0010
0100
2000
0100
3010
0000
1010
,
0000
1000
0100
0010
0001
0000
1000
0010
,
0000
0100
0001
0200
0010
0301
0000
1000
,
0001
1000
0001
0000
1000
0000
0100
0000
,
1000
0100
0010
0001
1000
0100
0010
0000
,
0011
1010
1000
0001
,
0110
0000
0110
0000
0001
0100
0010
0000
,
1010
0011
0001
1000
,
0110
0000
0001
0010
0100
1000
0001
0010
,
0100
0000
1000
0001
0000
0001
1000
0000
,
0010
0000
0100
0001
0000
0001
0100
0000
,
0010
2000
3200
0320
,
0032
0000
1003
0000
0010
1000
0100
0010
,
0001
0000
0100
0001
0000
0001
0100
0000
,
0010
1000
0100
0000
1000
0000
0001
0000
,
0100
0010
0000
0110
0000
1000
0001
0100
,
0010
0000
1000
0000
0001
0000
0010
1000
,
0010
0000
0001
0000
0100
0000
1000
0100
,
0001
0000
0010
0000
0100
1000
0100
1000
,
0100
0000
1000
0000
0010
0000
0100
0001
,
0000
0000
1001
0000
1001
0000
0100
0010
,
0100
0001
0010
0100
,
0001
0000
0100
0000
1000
0000
0010
0100
,
0001
0000
1000
0000
0001
0001
0000
0001
,
0100
0100
0000
0100
0010
0010
0100
0001
,
0010
0100
0010
0001
,
0100
0000
0010
0000
1000
0100
0010
0000
,
0101
0000
1100
0000
0001
0100
0010
0000
,
0100
0100
0001
1000
,
1000
0001
1000
0001
0010
0001
0010
0100
,
1000
0010
0100
0001
1000
0000
1001
0000
,
0001
1000
0001
1000
0010
1000
0010
0100
,
0001
0010
0100
1000
0001
0000
0000
0000
;

//---------------dance-double - ----------------
#NOTES:
     dance-double:
     :
     Beginner:
     2:
     :
00000000
00000000
00000000
00000000
,
00000000
00000000
00000000
00000000
,
00000000
00000000
00000000
00000000
,
00000100
00000000
00000000
00000000
,
00010000
00000000
00000000
00000000
,
00001000
00001000
00000000
00000000
,
00010000
00000000
00001000
00000000
,
00100000
00100000
00000000
00000000
,
00010000
00000000
01000000
00000000
,
00100000
00100000
00000000
00000000
,
10000000
00000000
01000000
00000000
,
00100000
00100000
00000000
00000000
,
00010000
00000000
01000000
00000000
,
00001000
00001000
00001000
00001000
,
00001000
00000000
00000000
00000000
,
00010000
00010000
00010000
00010000
,
00010000
00000000
00000000
00000000
,
00000100
00000100
00000000
00000000
,
00001000
00000000
00000001
00000000
,
00000100
00000100
00000000
00000000
,
00000001
00000000
00000010
00000000
,
00000100
00000100
00000000
00000000
,
00001000
00000000
00000100
00000000
,
00010000
00010000
00000000
00000000
,
00001000
00000000
00010000
00000000
,
00001000
00001000
00001000
00001000
,
00001000
00000000
00000000
00000000
,
00100000
00100000
00100000
00100000
,
00100000
00000000
00000000
00000000
,
00010000
00000000
10000000
00000000
,
00100000
00000000
01000000
00000000
,
00010000
00000000
01000000
00000000
,
00100000
00000000
10000000
00000000
,
00010000
00000000
00100000
00000000
,
00001000
00000000
00010000
00000000
,
00000100
00000000
00001000
00000000
,
00000010
00000000
00000100
00000000
,
00000001
00000001
00000001
00000000
,
00000100
00000100
00000100
00000000
,
00000010
00000000
00001000
00000000
,
00000100
00000100
00000100
00000000
,
00010000
00000000
00010000
00000000
,
00001000
00000000
00001000
00000000
,
00011000
00000000
00000000
00000000
,
00001000
00001000
00001000
00000000
,
00100000
00000000
00010000
00000000
,
10000000
00000000
00100000
00000000
,
10000000
00000000
01000000
00000000
,
10000000
10000000
10000000
00000000
,
00010000
00000000
00100000
00000000
,
00001000
00001000
00001000
00000000
,
00010000
00000000
00001000
00000000
,
00010000
00010000
00010000
00000000
,
00011000
00000000
00000000
00000000
;

//---------------dance-double - ----------------
#NOTES:
     dance-double:
     :
     Easy:
     4:
     :
00000000
00000000
00000000
00000000
,
00000000
00000000
00000000
00000000
,
00000000
00000000
00000000
00000000
,
00000100
00000001
00000100
00000000
,
00000010
00000010
00000010
00000000
,
00010000
00010000
00001000
00010000
,
00001000
00100000
00010000
00000000
,
01000000
01000000
00010000
00100000
,
01000000
10000000
00010000
00000000
,
10000000
10000000
00100000
01000000
,
00010000
00100000
00001000
00000000
,
00010000
00010000
00000100
00000000
,
00000000
00001000
00000010
00001000
,
00001000
00001000
00000001
00000001
,
00000000
00000000
00000100
00000100
,
00000010
00000010
00010000
00010000
,
00001000
00000000
00010000
00000000
,
00000100
00000100
00010000
00001000
,
00100000
00100000
00010000
00000000
,
10000000
10000000
01000000
00010000
,
00001000
00000010
00000001
00000000
,
00000001
00000001
00000100
00001000
,
00010000
00100000
10000000
00000000
,
01000000
01000000
10000000
00000000
,
00100000
01000000
00010000
01000000
,
00100000
00100000
01000000
01000000
,
00000000
00000000
00001000
00001000
,
00010000
00010000
00000100
00000100
,
00000010
00000000
00000001
00000000
,
00001000
00000000
00000010
00000010
,
00000100
00000000
00000001
00000001
,
00000010
00000010
00000010
00000100
,
00010000
00000000
00000000
00000000
,
00001000
00001000
01000000
00000000
,
00010000
00010000
10000000
00100000
,
00100000
00000000
01000000
01000000
,
00010000
00000000
00000000
00000000
,
00100000
00001000
00100000
00001000
,
00010000
00001000
00010000
00000000
,
00000100
00001000
00000100
00001000
,
00000010
00000100
00000010
00000000
,
00000100
00000000
00000100
00000000
,
00000001
00001000
00000010
00001000
,
00000001
00000000
00001000
00000000
,
00000100
00000000
00010000
00000000
,
00011000
00000000
00011000
00000000
,
00011000
00000000
00000000
00000000
,
00001000
00001000
01000000
01000000
,
00010000
00000000
00000000
00000000
,
10000000
10000000
01000000
00000000
,
10000000
00100000
01000000
00000000
,
00010000
00010000
00100000
00000000
,
00001000
00010000
00001000
00000000
;

//---------------dance-double - ----------------
#NOTES:
     dance-double:
     :
     Medium:
     5:
     :
00000000
00000000
00000000
00000000
,
00000000
00000000
00000000
00000000
,
00000000
00000000
00000000
00000000
,
00000001
00000100
00000001
00000000
00000100
00000000
00000100
00000000
,
00001000
00010000
00100000
00000000
01000000
00000000
00000000
00000000
,
00010000
10000000
00010000
00000000
00100000
00000000
01000000
00000000
,
10000000
00010000
10010000
00000000
,
10000000
00000000
00100000
00000000
01000000
00000000
00001000
00010000
,
00000000
00000100
00001000
00000000
00000100
00000010
00000000
00000000
,
00000001
00000010
00000001
00000000
00001000
00000000
00000100
00000010
,
00000000
00000001
00000100
00000010
00000100
00000001
00000000
00000000
,
00000100
00010000
01000000
00000000
01100000
00000000
00000000
00000000
,
00000000
10000000
00010000
10010000
,
00010000
01000000
00010000
01000000
,
00010000
00000000
01000000
00000000
00100000
10000000
00100000
10000000
,
00100000
10000000
00010000
00100000
,
00001000
00000000
00000000
00000000
,
00010000
00000100
00001000
00000000
00000010
00000000
00001000
00000100
,
00000000
00000010
00000001
00001000
00000100
00001000
00000000
00000000
,
00000010
00000000
00000010
00000000
00000010
00000000
00001000
00000001
,
00000000
00000100
00001000
00010000
01000000
10000000
00000000
00000000
,
00100000
00000000
10000000
00000000
00010000
00000000
00100000
00010000
,
00000000
01000000
00010000
00100000
01000000
10000000
00100000
00000000
,
01000000
00010000
00100000
00000000
00110000
00000000
00000000
00000000
,
00000000
00100000
00001000
00011000
,
00000100
00001000
00000001
00001000
,
00000001
00000000
00000010
00000000
00000100
00001000
00000100
00001000
,
00000100
00000010
00000001
00000010
,
00000001
00000000
00000000
00000000
,
00001000
00000000
00000100
00000000
00010000
00001000
00000100
00000000
,
00001000
00000000
00010000
00000000
00001000
00010000
01000000
00000000
,
10000000
10000000
10000000
00000000
00000000
00000000
11000000
00000000
,
01010000
00000000
00000000
00000000
,
10000000
00000000
00010000
00000000
00100000
01000000
10000000
00000000
,
01000000
00000000
00010000
00000000
00001000
00000010
00000001
00000000
,
00000100
00000100
00000100
00000000
00000000
00000000
00000110
00000000
,
00001001
00000000
00000000
00000000
,
00000001
00000100
00000010
00000100
,
00000001
00000101
00001000
00001100
,
00011000
00110000
01010000
11000000
,
01000000
00100000
00110000
00000000
00000000
00000000
00000000
00000000
,
10000000
00000000
01000000
00000000
00100000
00010000
01000000
00010000
,
00100000
01000000
01000000
01000000
,
00100000
00110000
00000000
00011000
,
00000000
00001100
00000000
00011000
,
00010000
00000000
00000100
00000000
00000010
00000001
00000100
00000001
,
00000010
00000001
00000001
00000001
,
00001000
00000100
00010000
00000100
,
00001000
00000100
00010000
01000000
,
10000000
00100000
10000000
00000000
00010000
00000000
00010000
00000000
,
10000000
01000000
10000000
00000000
00100000
00000000
01000000
00000000
,
00010000
00100000
00001000
00000000
00010000
00000000
00010000
00000000
,
00000100
00001000
00000001
00000000
00001001
00000000
00000000
00000000
;

//---------------dance-double - ----------------
#NOTES:
     dance-double:
     :
     Hard:
     8:
     :
00000000
00000000
00000000
00000000
,
00000000
00000000
00000000
00000000
,
00000000
00000000
00000000
00000000
,
00000001
00000100
00001000
00010000
00001000
00100000
00010000
01000000
,
00100000
00010000
00100000
00000000
01100000
00000000
00000000
00000000
,
00010000
10000000
01000000
00000000
00100000
00000000
00001000
00010000
,
00000000
00000100
00001000
00000010
00000100
00000001
00000000
00000000
,
00001000
00000000
00000001
00000000
00001000
00000000
00000010
00000100
,
00000000
00000010
00001000
00000100
00000010
00000001
00000000
00000100
,
00001000
01000000
10000000
01000000
00010000
00100000
00001000
00010000
,
00000000
00001000
00100000
00010000
00100000
01000000
00000000
10000000
,
01000000
10000000
00100000
01000000
00010000
00000000
00100000
00000000
,
00001000
00000000
00010000
00001000
00000100
00000001
00000010
00000000
,
00000001
00000000
00000100
00000010
00001000
00000100
00000010
00000001
,
00000010
00000100
00010000
00001000
,
00000100
00000001
00000010
00000100
00010000
00001000
01000000
00010000
,
10000000
00000000
00010000
00000000
10000000
00000000
00100000
01000000
,
10000000
01000000
00010000
00100000
01000000
00000000
00100000
00010000
,
00000000
00100000
00001000
00010000
00000100
00001000
00000000
00001100
,
00000000
00000000
00001000
00000100
00000010
00000000
00000100
00000010
,
00000000
00000001
00000100
00000010
00000100
00000001
00000000
00000011
,
00000000
00000010
00000001
00000100
00000010
00000000
00010000
00001000
,
00000000
01000000
00010000
01000000
00100000
10000000
00000000
00100000
,
01000000
00100000
01000000
00000000
00010000
00000000
00100000
00000000
,
01000000
10000000
00010000
01000000
00100000
00010000
00100000
00000000
,
01100000
11000000
00100000
00010000
,
00110000
00000000
00110000
00000000
00100000
00001000
00010000
00000000
,
00011000
00001100
00001000
00000010
,
00000110
00000000
00000100
00001000
00000010
00000100
00000001
00000010
,
00000100
00000000
00001000
00000010
00000000
00010000
00000100
00000000
,
00010000
00000000
00001000
01000000
00000000
00100000
10000000
00000000
,
11000000
00110000
00011000
01100000
,
10010000
00000000
00010000
00000000
01000000
00100000
10000000
00010000
,
10000000
00000000
01000000
00010000
00000000
00000100
00000010
00000000
,
00000001
00000100
00000010
00000000
00001000
00000000
00000001
00000000
,
00000010
00000100
00000000
00000110
00000000
00001000
00000100
00000010
,
00000001
00000000
00001000
00000000
00000010
00000000
00001000
00000100
,
00010000
00000000
00001000
00000000
00100000
00010000
01000000
00100000
,
10000000
00000000
00010000
00000000
00100000
10000000
00100000
10000000
,
00100000
00000000
10000000
00000000
00010000
00000000
00100000
00001000
,
00000000
00000000
00011000
00000000
00011000
00000000
00000100
00001000
,
00000100
00010000
00001000
00000100
,
00000010
00000000
00010000
00000000
00001000
00000000
00100000
00010000
,
10000000
00000000
00100000
00000000
01000000
01000000
00000000
00010000
,
00100000
00100000
00000000
00001000
00010000
00010000
00000100
00001000
,
00000001
00000100
00000010
00001000
,
00000001
00000000
00001000
00000000
00000010
00000100
00000001
00000000
,
00000011
00000000
00001010
00000000
00010000
00000100
00010000
00000000
,
00001000
00100000
00010000
01000000
,
00100000
10000000
01000000
00010000
00001000
00000010
00000001
00000100
,
00000010
00001000
00000100
00010000
00000010
00000000
00001010
00000000
,
00000100
00000001
00000010
00000100
00001000
00000100
00010000
00001000
,
00100000
00010000
01000000
00100000
10000000
00000000
00000000
00000000
;
