#TITLE:Music Revolution;
#ARTIST:Scumfrog;
#BANNER:Music Revolution.png;
#BACKGROUND:Music Revolution-bg.png;
#CDTITLE:./CDTITLES/Dance Dance Revolution ULTRAMIX4.png;
#MUSIC:Music Revolution.ogg;
#SAMPLESTART:51.529;
#SAMPLELENGTH:15;
#DISPLAYBPM:135;
#BPMS:0=135.084,100=135.338,132=135.084,196=133.581,204=133.333,212=133.169,224=133.333;

//---------------dance-single - ----------------
#NOTES:
     dance-single:
     :
     Beginner:
     1:
     :
0000
0000
0000
0000
,
0000
0000
0000
0000
,
0000
0000
0000
0000
,
0000
0000
0000
0000
,
0000
0000
0000
0000
,
1000
0000
0000
0000
,
1000
0000
0000
0000
,
0001
0000
0000
0000
,
0100
0000
0100
0000
,
0100
0000
0000
0000
,
0001
0000
0000
0000
,
1000
0000
0000
0000
,
0010
0000
0010
0000
,
0010
0000
0000
0000
,
1000
0000
0000
0000
,
0001
0000
0000
0000
,
0100
0000
0100
0000
,
2002
0000
0000
3003
,
0000
0000
0000
0000
,
0000
0000
0001
0000
,
1000
0000
0001
0000
,
2002
0000
0000
3003
,
0000
0000
0000
0000
,
0000
0000
0100
0000
,
0010
0000
0100
0000
,
0110
0000
0000
0000
,
1000
0000
0000
0000
,
0100
0000
0000
0000
,
0010
0000
0010
0000
,
0010
0000
0000
0000
,
0100
0000
0000
0000
,
0001
0000
0000
0000
,
0100
0000
0100
0000
,
0100
0000
0000
0000
,
1000
0000
0000
0000
,
0001
0000
0000
0000
,
1000
0000
1000
0000
,
1000
0000
0000
0000
,
0010
0000
0000
0000
,
0100
0000
0000
0000
,
0001
0001
0001
0000
,
2002
0000
0000
3003
,
0000
0000
0000
0000
,
0000
0000
0001
0000
,
1000
0000
0001
0000
,
2002
0000
0000
3003
,
0000
0000
0000
0000
,
0000
0000
0010
0000
,
0100
0000
0010
0000
,
0110
0000
0000
0000
,
1000
0000
0000
0000
,
0001
0000
0000
0000
,
0100
0000
0100
0000
,
0100
0000
0000
0000
,
0010
0000
0000
0000
,
2002
0000
0000
3003
;

//---------------dance-single - ----------------
#NOTES:
     dance-single:
     :
     Easy:
     2:
     :
0000
0000
0000
0000
,
0000
0000
0000
0000
,
0000
0000
0000
0000
,
0000
0000
0000
0000
,
0000
0000
0000
0000
,
1000
0001
0001
0000
,
0000
0000
0000
0000
,
1000
0000
0000
0000
,
0001
0001
1000
0000
,
0100
0000
0010
0000
,
0100
0000
0010
0000
,
0200
0000
0000
0300
,
0001
0000
0000
0000
,
1000
0000
0001
0000
,
1000
0000
0001
0000
,
2000
0000
0000
3000
,
0100
0000
0000
0000
,
0001
0100
0100
0000
,
0001
0000
1000
0000
,
0001
0000
1000
0000
,
0001
0000
1000
0000
,
1000
0100
0100
0000
,
1000
0000
0010
0000
,
1000
0000
0010
0000
,
1000
0000
0010
0000
,
1001
0000
0000
0100
,
1000
0000
0000
0100
,
0001
0000
0000
0100
,
1000
0000
0010
0000
,
0100
0000
0000
0001
,
0010
0000
0000
1000
,
0010
0000
0000
0000
,
0100
0000
0010
0000
,
1000
1000
0000
1000
,
0000
0001
0000
0001
,
0001
0100
0000
0100
,
0000
0010
0000
0010
,
1000
1000
0000
1000
,
0000
0100
0000
0100
,
0010
0000
0000
0000
,
0001
1000
0001
0000
,
0100
0000
0010
0000
,
0100
0000
0010
0000
,
0200
0000
0000
0300
,
1000
0000
0000
0000
,
0001
0000
1000
0000
,
0001
0000
1000
0000
,
0002
0000
0000
0003
,
0100
0000
0000
0000
,
1001
0000
0000
0000
,
0010
0000
0000
0000
,
1001
0000
0000
0000
,
0100
0000
0000
1000
,
0100
0000
0000
0000
,
0010
0000
0000
0001
,
0100
0000
0100
0000
,
1001
0000
0000
0000
;

//---------------dance-single - ----------------
#NOTES:
     dance-single:
     :
     Medium:
     5:
     :
0000
0000
0000
0000
,
0000
0000
0000
0000
,
0000
0000
0000
0000
,
0000
0000
0000
0000
,
0000
0000
0000
0000
,
0010
0010
1000
0001
,
0000
0110
0000
1100
,
0000
0101
0000
0010
,
0010
1000
0001
0000
,
1000
0100
0100
0010
,
0001
0100
1000
0100
,
0001
0101
1100
0000
,
1000
1100
0101
0000
,
0001
0010
0010
0100
,
1000
0010
0001
0010
,
1000
1010
0011
0001
,
1001
0000
0000
0000
,
0020
0000
0000
1000
0000
0000
0130
0000
,
0200
0000
0000
0001
0000
0000
0310
0000
,
0010
0000
1001
0000
,
0100
0000
0110
0000
,
0002
0000
0000
0100
0000
0000
1003
0000
,
2000
0000
0000
0010
0000
0000
3001
0000
,
0001
0000
0110
0000
,
1000
0000
1001
0000
,
0100
0010
0100
0010
,
1000
0001
1000
0001
,
0100
1100
0100
1100
,
0010
0011
0010
0011
,
1000
0100
1000
0100
,
0001
0010
0001
0010
,
0100
1001
0100
1001
,
0010
0110
0010
0110
,
1000
0000
0001
0000
0100
0100
0100
0000
,
0001
0000
1000
0000
0010
0010
0010
0000
,
1000
0010
0100
0001
,
1000
0010
0100
0001
,
0100
0000
0010
0000
1000
1000
1000
0000
,
0010
0000
0100
0000
0001
0001
0001
0000
,
1001
0000
0000
0000
0000
0000
1000
0010
,
0100
0010
0100
0010
0100
0001
0000
0020
,
0000
0000
0000
1000
0000
0000
0130
0000
,
0200
0000
0000
0001
0000
0000
0310
0000
,
0010
0000
1001
0000
,
0100
0000
0110
0000
,
2000
0000
0000
0100
0000
0000
3001
0000
,
0002
0000
0000
0010
0000
0000
1003
0000
,
1000
0000
0110
0000
,
0001
0000
1001
0000
,
0100
0000
0010
1000
0100
0000
0000
0000
,
0001
0000
1000
0100
0001
0000
0000
0000
,
0010
0000
0100
0001
0010
0000
0000
0000
,
1000
0000
0001
0010
1000
0000
0000
0000
,
0100
0101
1100
0000
,
0100
1100
0101
0000
,
1000
0001
0000
0100
,
1000
0010
0000
1001
;

//---------------dance-single - ----------------
#NOTES:
     dance-single:
     :
     Hard:
     7:
     :
0000
0000
0000
0000
,
0000
0000
0000
0000
,
0000
0000
0000
0000
,
0000
0000
0000
0000
,
0000
0000
0000
0000
,
0010
1000
0010
1000
0100
0010
0000
0000
,
0000
0000
0010
0001
0010
0000
0010
0100
,
0000
0110
1010
0101
,
0010
1000
0010
1000
0010
0100
0000
0101
,
0000
0000
0010
1000
0100
0001
0000
0010
,
0000
0010
0001
0100
1000
0100
0010
0100
,
0000
0010
0000
1000
0000
0001
0000
0100
,
0010
0100
0010
0100
0001
1000
0000
1010
,
0000
0000
0100
0001
0010
1000
0000
0100
,
0000
0100
1000
0010
0001
0010
1000
0100
,
0000
0010
0000
0001
0000
1000
0000
0001
,
0100
0000
0001
0000
0100
0000
0010
0000
0100
0000
0000
0001
0100
0000
0010
0000
,
1000
0000
0000
0100
0000
0000
0100
0000
0000
1000
0000
0000
0010
0000
0000
0000
,
0100
0000
0000
0001
0000
0000
0001
0000
0000
0010
0000
0001
0100
0000
0100
0000
,
0010
0000
0000
1000
0000
0000
1000
0000
0000
0010
0000
0000
0100
0000
0000
0000
,
0001
0000
0100
0000
0001
0000
0000
1000
0100
0000
0010
0000
0100
0000
0010
0000
,
0001
0000
0000
0100
0000
0000
0010
0000
0000
1000
0000
0000
0200
0000
0000
0000
,
0310
0000
0000
0001
0000
0000
0100
0000
0000
0010
0000
1000
0100
0000
1000
0000
,
0010
0000
0000
0100
0000
0000
0001
0000
0000
0100
0000
0000
0020
0000
0000
0000
,
1030
0000
0000
0010
0000
0000
1000
0000
1100
0000
0000
0010
0000
0000
0001
0000
,
0011
0000
1000
0100
0020
0000
0100
0000
,
0130
0000
0001
0010
0200
0000
0010
0000
,
0310
0000
1000
0001
0010
0000
0100
0000
,
0020
0001
1000
0031
,
0100
0000
0010
1000
0200
0000
0010
0000
,
0310
0000
0001
1000
0020
0000
0100
0000
,
0130
0000
0010
1000
0100
0000
0100
0000
,
1001
0000
0000
0000
0000
0000
0020
0000
0000
0000
0000
0000
0000
0030
0000
0000
,
1000
0010
0100
0000
0001
0100
0001
0000
,
0010
0100
1000
0000
0010
0001
0010
0000
,
0200
0010
1000
0310
,
1000
0010
0100
0001
0010
0100
1000
0100
,
0010
0001
1000
0000
0100
0010
0100
0000
,
1000
0010
0100
0000
0001
0010
0001
0000
,
2000
0000
0010
0000
0100
0000
3010
0010
,
0100
0001
0010
0001
0010
0100
0000
1001
,
0000
0000
0010
1000
0100
0000
0001
0100
,
1000
0000
0001
0100
0010
1000
0010
1000
,
0000
0100
0000
0001
0000
1000
0000
0010
,
0100
0001
0100
0001
0100
0010
0000
1010
,
0000
0000
0010
0001
0100
0000
1000
0100
,
0010
0000
1000
0001
0100
1000
0100
1000
,
0000
0100
0000
0001
0000
1000
0000
0010
,
0100
0001
0010
0001
0010
0100
0000
1001
,
0000
0000
0010
1000
0100
0001
0000
0000
,
0000
0000
0100
0001
1000
0010
0000
0000
,
0000
0000
0010
1000
0100
0001
0000
0000
,
0000
0000
0100
0001
1000
0010
0000
0000
,
0110
0000
0100
0010
0100
1000
0000
0000
,
0100
1001
0010
0101
,
0100
1010
0100
1001
,
0100
0020
0000
0000
,
0030
0000
0000
0000
;

//---------------dance-double - ----------------
#NOTES:
     dance-double:
     :
     Beginner:
     1:
     :
00000000
00000000
00000000
00000000
,
00000000
00000000
00000000
00000000
,
00000000
00000000
00000000
00000000
,
00000000
00000000
00000000
00000000
,
00000000
00000000
00000000
00000000
,
10000000
00000000
00000000
00000000
,
00010000
00000000
00000000
00000000
,
00001000
00000000
00000000
00000000
,
00000001
00000000
00000000
00000000
,
00000100
00000000
00000000
00000000
,
00001000
00000000
00000000
00000000
,
00010000
00000000
00000000
00000000
,
01000000
00000000
00000000
00000000
,
10000000
00000000
00000000
00000000
,
00010000
00000000
00000000
00000000
,
00001000
00000000
00000000
00000000
,
00000001
00000000
00000000
00000000
,
00000100
00000000
00000100
00000000
,
00001000
00000000
00001000
00000000
,
00020000
00000000
00000000
00030000
,
00010000
00000000
00000000
00000000
,
01000000
00000000
01000000
00000000
,
00010000
00000000
00010000
00000000
,
00002000
00000000
00000000
00003000
,
00001000
00000000
00000000
00000000
,
00011000
00000000
00000000
00000000
,
00000010
00000000
00000000
00000000
,
00011000
00000000
00000000
00000000
,
00010000
00000000
00001000
00000000
,
00011000
00000000
00000000
00000000
,
00100000
00000000
00000000
00000000
,
00011000
00000000
00000000
00000000
,
00001000
00000000
00010000
00000000
,
01000000
01000000
00000000
00000000
,
00100000
00100000
00000000
00000000
,
00010000
00010000
00000000
00000000
,
00001000
00000000
00001000
00000000
,
00000100
00000100
00000000
00000000
,
00000010
00000010
00000000
00000000
,
00001000
00001000
00000000
00000000
,
00010000
00000000
00000000
00000000
,
01100000
00000000
00000000
00000000
,
10000000
00000000
00000000
00000000
,
01000000
00000000
01000000
00000000
,
00010000
00000000
00010000
00000000
,
00002000
00000000
00000000
00003000
,
00001000
00000000
00000000
00000000
,
00000100
00000000
00000100
00000000
,
00001000
00000000
00001000
00000000
,
00010000
00000000
00000000
00000000
,
01000000
00000000
00000000
00000000
,
00100000
00000000
00000000
00000000
,
00010000
00000000
00000000
00000000
,
00010000
00000000
00000000
00000000
,
00001000
00000000
00000000
00000000
,
00000100
00000000
00000000
00000000
,
00000010
00000000
00000000
00000000
;

//---------------dance-double - ----------------
#NOTES:
     dance-double:
     :
     Easy:
     3:
     :
00000000
00000000
00000000
00000000
,
00000000
00000000
00000000
00000000
,
00000000
00000000
00000000
00000000
,
00000000
00000000
00000000
00000000
,
00000000
00000000
00000000
00000000
,
00001001
00000000
00000000
00000000
,
00000100
00000000
00000000
00000000
,
00001000
00000000
00000000
00000000
,
00010000
00001000
00010000
00000000
,
00011000
00000000
00010000
00000000
,
01000000
00000000
10000000
00000000
,
00100000
00000000
00000000
00000000
,
10000000
00000000
01000000
00000000
,
00010000
00000000
00001000
00000000
,
00010000
00000000
00001000
00000000
,
00000100
00000000
00000000
00000000
,
00000001
00000000
00000010
00000000
,
00000100
00000100
00000100
00000000
,
00010000
00010000
00010000
00000000
,
00001000
00000000
00010000
00000000
,
01000000
00000000
10000000
00000000
,
00010000
00010000
00010000
00000000
,
00100000
00100000
00100000
00000000
,
00001000
00000000
00010000
00000000
,
00001000
00000000
00000100
00000000
,
00000001
00000001
00000001
00000100
,
00001000
00000000
00010000
00000000
,
01000000
00000000
00000000
00000000
,
00100000
00000000
01000000
00000000
,
10000000
10000000
10000000
01000000
,
00010000
00000000
00001000
00000000
,
00000100
00000000
00000000
00000000
,
00000010
00000000
00000100
00000000
,
00000001
00000100
00000001
00000000
,
00001000
00000100
00001000
00000000
,
00010000
00001000
00010000
00000000
,
01000000
00000000
01000000
00000000
,
10000000
01000000
10000000
00000000
,
00010000
01000000
00010000
00000000
,
00001000
00010000
00001000
00000000
,
00011000
00000000
00000000
00000000
,
00010000
00000000
00001000
00000000
,
00000010
00000000
00000001
00000000
,
00000100
00000000
00001000
00000000
,
00010000
00000000
00001000
00000000
,
00010000
00000000
00100000
00000000
,
10000000
00000000
01000000
00000000
,
00010000
00000000
00001000
00000000
,
00010000
00000000
00001000
00000000
,
00000100
00000100
00000100
00000000
,
00000001
00000001
00000001
00000000
,
00001000
00001000
00001000
00000000
,
00010000
00010000
00010000
00000000
,
01000000
01000000
10000000
01000000
,
00010000
00010000
00001000
00010000
,
00001000
00000000
00000100
00000000
,
00000010
00000000
00001001
00000000
;

//---------------dance-double - ----------------
#NOTES:
     dance-double:
     :
     Medium:
     5:
     :
00000000
00000000
00000000
00000000
,
00000000
00000000
00000000
00000000
,
00000000
00000000
00000000
00000000
,
00000000
00000000
00000000
00000000
,
00000000
00000000
00000000
00000000
,
00010000
00001000
00010000
00001000
00010000
00001000
00000000
00000000
,
00000000
00000010
00000001
00000100
,
00001000
00001000
00010000
00010000
,
01000000
00100000
01000000
00100000
01000000
00100000
00000000
00000000
,
10010000
00000000
00000000
02000000
00000000
00000000
00000000
03020000
,
00000000
00000000
00000000
00000000
00031000
00000000
00000000
00011000
,
00000000
00001000
00000100
00000001
,
00000100
00000000
00000000
00000110
00000000
00000000
00000000
00000000
,
00001001
00000000
00000000
00000000
00000200
00000000
00000000
00002300
,
00000000
00000000
00000000
00000000
00013000
00000000
00000000
00011000
,
00000000
00010000
01000000
10000000
,
01000000
00000000
00000000
01100000
00000000
00000000
00000000
00000000
,
10010000
01000000
00000000
01000000
00000000
00010000
00000000
00100000
,
00000000
00100000
00000000
00001000
00000000
00010000
00000000
00000100
,
00000000
00000000
00000020
00000000
,
00000032
00000000
00000000
00000000
00000203
00000000
00000000
00000300
,
00001001
00000100
00000000
00000100
00000000
00001000
00000000
00000010
,
00000000
00000010
00000000
00010000
00000000
00001000
00000000
01000000
,
00000000
00000000
00200000
00000000
,
20300000
00000000
00000000
00000000
32000000
00000000
00000000
03000000
,
01100000
00000000
00100000
00010000
00100000
00000000
00100000
00000000
,
00001000
00000000
00001000
00010000
00001000
00000000
00001000
00000000
,
00000100
00000000
00000100
00000010
00000100
00000000
00000100
00000000
,
00000002
00000000
00000000
00002003
00000000
00000000
00000000
00003000
,
00000110
00000000
00000010
00001000
00000010
00000000
00000010
00000000
,
00010000
00000000
00010000
00001000
00010000
00000000
00010000
00000000
,
01000000
00000000
01000000
00100000
01000000
00000000
01000000
00000000
,
20000000
00000000
00000000
30020000
00000000
00000000
00000000
00000000
,
01030000
00100000
00000000
10000000
01000000
00010000
00000000
00000000
,
00001000
00010000
00000000
00010000
00001000
00000100
00000000
00000000
,
00000010
00000100
00000000
00000001
00000100
00001000
00000000
00000000
,
00002000
00000000
00003000
00000002
00000000
00000000
00000000
00000003
,
00000100
00000010
00000000
00000001
00000100
00001000
00000000
00000000
,
00010000
00001000
00000000
00001000
00010000
01000000
00000000
00000000
,
10010000
00000000
00000000
00000000
00000000
00000000
01000000
00100000
,
01000000
00100000
01000000
00100000
01000000
00100000
00000000
00000000
,
10010000
00000000
00000000
00000000
02000000
00000000
00000000
03020000
,
00000000
00000000
00000000
00000000
00031000
00000000
00000000
00011000
,
00000000
00000000
00000000
00000000
00000000
00000000
00000100
00000010
,
00000100
00000010
00000100
00000010
00000100
00000010
00000000
00001001
,
00000000
00000000
00000000
00000000
00000200
00000000
00000000
00002300
,
00000000
00000000
00000000
00000000
00013000
00000000
00000000
00011000
,
00000000
00000000
00000000
01000000
,
01000000
00100000
10000000
00010000
,
10000000
00000000
00010000
01000000
00010000
00000000
00000000
00000000
,
00000000
00000000
00001000
00010000
00001000
00000000
00000000
00000000
,
00000100
00000000
00000001
00000100
00000001
00000000
00000000
00000000
,
00000000
00000000
00001000
00000010
00001000
00000000
00000000
00000000
,
00010000
00000000
00010000
00100000
00010000
00000000
00000000
00000000
,
00000000
00000000
10000000
01000000
10000000
00000000
00000000
00000000
,
01000000
00000000
00010000
00000000
,
00001000
00000000
00011000
00000000
;

//---------------dance-double - ----------------
#NOTES:
     dance-double:
     :
     Hard:
     7:
     :
00000000
00000000
00000000
00000000
,
00000000
00000000
00000000
00000000
,
00000000
00000000
00000000
00000000
,
00000000
00000000
00000000
00000000
,
00000000
00000000
00000000
00000000
,
01000000
00001000
00010000
00001000
00010000
00000100
00000000
00000000
,
00000000
00000010
00000100
00001000
,
00010000
01000000
00100000
10000000
,
01000000
00010000
00001000
00010000
00001000
00000100
00000000
00000010
,
00000100
00000000
00000001
00001000
00000100
00000000
00000010
00000001
,
00000100
00000000
00001000
00010000
01000000
00000000
10000000
00000000
,
01000000
01100000
00100000
00110000
,
00100000
00001000
00010000
00001000
00000000
00000010
00000001
00001000
,
00000001
00000000
00000010
00000001
00001000
00000000
00000010
00000001
,
00000100
00000000
00001000
00010000
01000000
00000000
10000000
00100000
,
01000000
01100000
01000000
01010000
,
00012000
00000000
00000000
00023000
00000000
00000000
00030000
00000000
,
00000010
00000000
00000000
00000000
00001000
00000000
00001000
00000100
00000000
00000000
00010000
00000000
00011000
00000000
00000000
00000000
,
00010000
01000000
10000000
00000000
00100000
01000000
00100000
00010000
,
00001000
00000000
00000000
00000000
00000100
00000000
00000100
00000001
00000000
00000000
00001000
00000000
00001001
00000000
00000000
00000000
,
00000010
00000000
00000001
00000000
00000100
00000000
00000000
00001000
00010000
00000000
00000000
01000000
00100000
00000000
00010000
00000000
,
01000000
00000000
00000000
00000000
00100000
00000000
00100000
10000000
00000000
00000000
01000000
00000000
01010000
00000000
00000000
00000000
,
00100000
00001000
00010000
00000000
00001000
00000100
00001000
00010000
,
01000000
00000000
00000000
00000000
00010000
00000000
00010000
00001000
00000000
00000000
00001000
00000000
00011000
00000000
00000000
00000000
,
00000100
00001000
00000010
00000100
00000010
00000100
00000001
00000000
,
00000001
00000100
00001000
00010000
,
01100000
10000000
00100000
00000000
01000000
00000000
00010000
00000000
,
00110000
00100000
00001000
00000000
00010000
00000000
00000100
00000000
,
00001001
00000100
00001000
00000000
00001001
00000100
00000001
00000000
,
00000001
00000100
00001000
00010000
,
01010000
01000000
00100000
00000000
01000000
00000000
00010000
00000000
,
11000000
01000000
00010000
00000000
00011000
00001000
00000100
00000000
,
00001002
00000000
00000000
00000200
00000000
00000000
00000303
00000000
,
00000100
00001000
00010000
01000000
00010000
00001000
00000100
00000000
,
00001000
00010000
01000000
10000000
01000000
00010000
00001000
00000000
,
00010000
00001000
00000010
00000000
00001000
00010000
00100000
00000000
,
10000000
01000000
00010000
00001000
00000100
00000001
00000010
00000001
,
00000100
00001000
00010000
01000000
00010000
00001000
00000100
00000000
,
00001000
00010000
01000000
10000000
01000000
00010000
00001000
00000000
,
00010000
00001000
00000010
00000000
00001000
00010000
00100000
00000000
,
01000000
00001000
00010000
00001000
00010000
00000100
00000000
00001001
,
00000000
00000000
00000100
00000001
00001000
00000000
00000100
00010000
,
00001000
00000000
01000000
00100000
10000000
00000000
00010000
00100000
,
00001000
00000000
00010000
00000010
00000100
00000000
00001001
00000001
,
00000100
00001000
00010000
00001000
00010000
01000000
00000000
01100000
,
00000000
00000000
00100000
00010000
10000000
00000000
01000000
00100000
,
00001000
00000000
00010000
00000100
00001000
00000000
00000010
00000100
,
00000001
00000000
00001000
00000100
00010000
00000000
00100000
10000000
,
01000000
00000000
00010000
00001000
,
00000010
00000000
00000001
00000100
00001000
00020000
00000000
00000000
,
00130000
00000000
10000000
01000000
00010000
00002000
00000000
00000000
,
00003010
00000000
00000001
00000100
00001000
00020000
00000000
00000000
,
00130000
00000000
10000000
01000000
00010000
00002000
00000000
00000000
,
00013000
00000000
01000000
00010000
01000000
00020000
00000000
00000000
,
00031000
00000000
00000100
00000001
00000100
00000001
00000000
00000000
,
00000100
00001100
00000000
00001000
,
01000000
01100000
00000000
10010000
;
