#TITLE:More Serotonin;
#ARTIST:Neuroactive;
#BANNER:More Serotonin.png;
#BACKGROUND:More Serotonin-bg.png;
#CDTITLE:./CDTITLES/Dance Dance Revolution ULTRAMIX4.png;
#MUSIC:More Serotonin.ogg;
#SAMPLESTART:15.434;
#SAMPLELENGTH:15;
#BPMS:0=140.028,48=140.002,220=139.987;

//---------------dance-single - ----------------
#NOTES:
     dance-single:
     :
     Beginner:
     1:
     :
0000
0000
0000
0000
,
0000
0000
0000
0000
,
0000
0000
0000
0000
,
0000
0000
0000
0000
,
0000
0000
0000
0000
,
1000
0000
0000
0000
,
1000
0000
0000
0000
,
0001
0000
0000
0000
,
0001
0000
0000
0000
,
0010
0000
0010
0000
,
0010
0000
0000
0000
,
0001
0000
0001
0000
,
0001
0000
0000
0000
,
0100
0000
0100
0000
,
0100
0000
0000
0000
,
0010
0000
0010
0000
,
0010
0000
0000
0000
,
1000
1000
0000
0000
,
0001
0001
0000
0000
,
0001
0001
0000
0000
,
1000
1000
0000
0000
,
0001
0000
0000
0000
,
1000
0000
0000
0000
,
0001
0000
0000
0000
,
1000
0000
0000
0000
,
1001
0000
0000
0000
,
1001
0000
0000
0000
,
1001
0000
0000
0000
,
1001
0000
1001
0000
,
0110
0000
0000
0000
,
0110
0000
0000
0000
,
0110
0000
0000
0000
,
0110
0000
0110
0000
,
2000
0000
0000
3000
,
1000
0000
0000
0000
,
0002
0000
0000
0003
,
0001
0000
0000
0000
,
0010
0000
0000
0000
,
0100
0000
0000
0000
,
0010
0000
0000
0000
,
0100
0000
0000
0000
,
0001
0001
0000
0000
,
1000
1000
0000
0000
,
0001
0001
0000
0000
,
1000
1000
0000
0000
,
1001
0000
0000
0000
,
0000
0000
0000
0000
,
0001
0000
0001
0000
,
1000
0000
1000
0000
,
0010
0010
0000
0000
,
0100
0100
0000
0000
,
0001
0000
0001
0000
,
1000
0000
1000
0000
,
0010
0010
0000
0000
,
0100
0100
0000
0000
,
1001
0000
0000
0000
;

//---------------dance-single - ----------------
#NOTES:
     dance-single:
     :
     Easy:
     3:
     :
0000
0000
0000
0000
,
0000
0000
0000
0000
,
0000
0000
0000
0000
,
0000
0000
0000
0000
,
0000
0000
0000
0000
,
0001
0000
0001
0000
,
1000
0000
1000
0000
,
0010
0000
0010
0000
,
0100
0000
0100
0000
,
0001
1000
0001
0000
,
1000
0001
1000
0000
,
0010
0100
0010
0000
,
0100
0010
0100
0010
,
0100
0000
0001
0100
,
0010
0000
1000
0010
,
0100
0000
0001
0010
,
0001
1000
0010
1000
,
0001
0001
0100
0000
,
1000
1000
0100
0000
,
0001
0001
0100
0000
,
1000
1000
0100
0000
,
0001
0010
0001
0000
,
1000
0100
1000
0000
,
0001
0010
0001
0000
,
0100
1000
0100
0000
,
0010
0100
0010
0000
,
0010
0100
0010
0000
,
0100
0010
0100
0000
,
0010
0100
0110
0000
,
0100
0010
0100
0000
,
0100
0010
0110
0000
,
0001
1000
0001
0000
,
1000
0001
1001
0000
,
1001
0010
0000
0000
,
1001
0100
0000
0000
,
1001
0010
0000
0000
,
1001
0100
0000
0000
,
2000
0000
0000
3000
,
0002
0000
0000
0003
,
0020
0000
0000
0030
,
0200
0000
0000
0300
,
1000
0000
1000
0000
,
0001
0000
0001
0000
,
0010
0100
0010
0100
,
1000
0001
1000
0001
,
1001
0000
0000
0000
,
0000
0000
0000
0000
,
1000
0000
1000
0000
,
0001
0000
0001
0000
,
0010
0100
0010
0000
,
1000
0001
1000
0000
,
0001
0000
0001
0000
,
1000
0000
1000
0000
,
0010
0100
0010
0000
,
1000
0001
1000
0001
,
1001
0000
0000
0000
;

//---------------dance-single - ----------------
#NOTES:
     dance-single:
     :
     Medium:
     6:
     :
0000
0000
0000
0000
,
0000
0000
0000
0000
,
0000
0000
0000
0000
,
0000
0000
0000
0000
,
0000
0000
0000
0000
,
1000
0000
1000
0000
,
0001
0000
1000
0000
,
0010
0000
0100
0000
,
1000
0001
1010
0011
,
1000
0000
0010
0000
1000
0100
0010
0000
,
0001
0000
1000
0000
0001
0010
0100
0000
,
0001
0000
1000
0000
0100
0010
0100
0000
,
0010
0000
0001
0000
1000
0001
0100
0000
,
0010
0000
0100
0000
0001
1000
0010
0000
,
0001
0000
0100
0000
1000
0001
0100
0000
,
0010
0000
0001
0000
1000
0001
0100
0000
,
0001
0000
0100
0000
0010
1000
0001
0000
,
0100
0000
0000
0000
0100
0000
0000
0000
0010
0000
0000
1000
0000
0000
0001
0000
,
0010
0000
0010
0000
0001
0010
0001
0000
,
1000
0000
0000
0000
1000
0000
0000
0000
0100
0000
0000
0010
0000
0000
0001
0000
,
0100
0000
0100
0000
0010
1000
0001
0000
,
0010
0000
0000
0000
0010
0000
0000
0000
0100
0000
0000
1000
0000
0000
0001
0000
,
1000
0000
0001
0000
1000
0010
0100
0000
,
0001
0000
0000
0000
1000
0000
0000
0000
0001
0000
0000
0100
0000
0000
0010
0000
,
1000
0000
1000
0000
0001
1000
0010
0000
,
0100
0000
0000
0000
0101
0000
0000
0000
0001
0000
0000
1000
0000
0000
0010
0000
,
0100
0000
1001
0000
1000
0001
0010
0000
,
0100
0000
0000
0000
0101
0000
0000
0000
0001
0000
0000
0010
0000
0000
0001
0000
,
1000
0000
1100
0000
1000
0001
0100
0000
,
0010
0000
0000
0000
1001
0000
0000
0000
0001
0000
0000
0010
0000
0000
0100
0000
,
1000
0000
1100
0000
1000
0010
0100
0000
,
0001
0000
0000
0000
1001
0000
0000
0000
0001
0000
0000
0010
0000
0000
0100
0000
,
0010
0000
0011
0000
0100
1000
0010
0000
,
0100
0001
2000
0000
0000
0000
3000
0000
,
0001
1000
0020
0000
0000
0000
0030
0000
,
0010
0100
2000
0000
0000
0000
3000
0000
,
0100
0010
0002
0000
0000
0000
0003
0000
,
2000
0010
0000
3010
,
0200
0001
0000
0301
,
2000
0100
0000
3100
,
0020
0001
0000
0031
,
0200
0010
0010
0310
,
0002
1000
1000
1003
,
0200
0001
0001
0301
,
0002
1000
1000
1003
,
0220
0000
0000
0000
,
0000
0000
0000
0330
,
0001
0000
0101
0000
0100
0010
1000
0000
,
0001
0000
0011
0000
0001
1000
0010
0000
,
1000
0000
1010
0000
1000
0001
0100
0000
,
0010
0000
0110
0000
0100
0001
0010
0000
,
1000
0000
0000
0000
0002
0000
0000
0000
0010
0000
0000
0010
0000
0000
0013
0000
,
0000
0000
0000
0000
0200
0000
0000
0000
0001
0000
0000
0001
0000
0000
0301
0000
,
0000
0000
0000
0000
0020
0000
0000
0000
1000
0000
0000
1000
0000
0000
1030
0000
,
0000
0000
0000
0000
0200
0000
0000
0000
0010
0000
0000
0010
0000
0000
0310
0000
,
0120
0000
0000
0000
,
0000
0000
0000
0030
;

//---------------dance-single - ----------------
#NOTES:
     dance-single:
     :
     Hard:
     8:
     :
0000
0000
0000
0000
,
0000
0000
0000
0000
,
0000
0000
0000
0000
,
0000
0000
0000
0000
,
0000
0000
0000
0000
,
0010
1000
0001
0100
,
0010
0001
1000
0100
,
0010
0100
0001
1000
,
0100
0010
0001
1000
,
0010
0001
1000
0000
0001
1000
0100
0000
,
0010
1000
0001
1000
0100
0010
0001
0000
,
0100
0010
0001
0000
1000
0100
0010
0000
,
0010
1000
0100
1000
0010
0100
0001
0000
,
0001
0010
0100
0000
1000
0010
0100
0000
,
0001
0010
0001
0100
0010
1000
0100
0000
,
0100
0010
1000
0000
0100
0010
0001
0000
,
0001
1000
0010
0100
0001
0010
0100
0010
,
0001
0000
0100
0000
1000
0000
0100
0000
0010
0000
0000
1001
0000
0000
0010
0000
,
0100
0000
1000
0000
0001
0000
0010
0000
1000
0000
0000
0110
0000
0000
0001
0000
,
1000
0000
0010
0000
0001
0000
1000
0000
0100
0000
0000
1001
0000
0000
0100
0000
,
0010
0000
0001
0000
1000
0000
0100
0000
0001
0000
0000
0110
0000
0000
1000
0000
,
0001
0010
0000
0000
0001
0000
0100
0000
1000
0000
0010
0000
1000
0000
0000
0000
,
1000
0010
0000
0000
1000
0000
0100
0000
0001
0000
0010
0000
0001
0000
0000
0000
,
0010
0100
0000
0000
1000
0000
0010
0000
0100
0000
0000
0001
0000
0000
0001
0000
,
0010
0000
0100
0000
1000
0000
0001
0000
2000
0000
0000
0002
0000
0000
3003
0000
,
0010
0000
1000
0000
0001
0000
1000
0000
0100
0000
0010
0100
0000
0000
1000
0000
,
0010
0000
0100
0000
0001
0000
0010
0000
0100
0010
0100
0000
1000
0000
0000
0000
,
0010
0000
0001
0000
1000
0000
0001
0000
0100
0000
0010
0100
0000
0000
0001
0000
,
0010
0000
0100
0000
1000
0000
0010
0000
0100
0010
0100
0000
0001
0000
0000
0000
,
1000
0000
0010
0000
0100
0000
0001
0000
1000
0000
0001
1000
0000
0000
0100
0000
,
1000
0000
0001
0000
0010
0000
0001
0000
1000
0001
1000
0000
0100
0000
0000
0000
,
0001
0000
0010
0000
0100
0000
1000
0000
0001
0000
1000
0001
0000
0000
0010
0000
,
0001
0000
1000
0000
0100
0000
1000
0000
0001
1000
0001
0000
0010
0000
0000
0000
,
0010
0100
0002
0000
1000
0000
0103
0000
,
0100
0010
2000
0000
0100
0100
3100
0000
,
0010
0100
0002
0000
1000
0000
0013
0000
,
0010
0100
2000
0000
0010
0010
3010
0000
,
2002
0000
0000
0003
,
3020
0000
0000
0000
,
0230
0000
0320
0000
,
0032
0000
2003
0000
,
3200
0302
0023
2030
,
3002
0203
0320
0032
,
0203
0310
2000
3100
0020
0031
0100
0010
,
0200
0301
1000
0010
0200
0301
0020
0130
,
2000
0002
0000
0000
0000
0000
0000
0000
0000
0000
0000
0000
0000
0000
0000
0000
0000
0000
0000
0000
0000
0000
0000
0000
0000
0000
0000
0000
0000
0000
0000
0000
,
0000
0000
0000
0000
0000
0000
0000
3003
,
1001
0100
0010
0100
0001
0100
1000
0100
,
0001
0010
0100
1000
0100
0010
0001
0100
,
0010
0001
0010
1000
0100
0010
0001
0010
,
1000
0001
0100
0010
0001
0100
1000
0100
,
0010
1000
0100
0010
0001
0100
0001
1000
,
0010
0001
1000
0100
0001
0010
1000
0010
,
0001
0100
0010
0010
1000
0001
0001
0100
,
0010
1000
0100
0001
0010
1000
0010
0100
,
2002
0000
0000
0000
,
0000
0000
0000
0000
0000
3003
0000
0000
;

//---------------dance-double - ----------------
#NOTES:
     dance-double:
     :
     Beginner:
     1:
     :
00000000
00000000
00000000
00000000
,
00000000
00000000
00000000
00000000
,
00000000
00000000
00000000
00000000
,
00000000
00000000
00000000
00000000
,
00000000
00000000
00000000
00000000
,
00001000
00000000
00000000
00000000
,
00001000
00000000
00000000
00000000
,
00010000
00000000
00000000
00000000
,
00010000
00000000
00000000
00000000
,
00001000
00000000
00001000
00000000
,
00001000
00000000
00000000
00000000
,
00010000
00000000
00010000
00000000
,
00010000
00000000
00000000
00000000
,
00000010
00000000
00000010
00000000
,
00000010
00000000
00000000
00000000
,
00000100
00000000
00000100
00000000
,
00000100
00000000
00000000
00000000
,
00000001
00000001
00000000
00000000
,
00001000
00001000
00000000
00000000
,
00000010
00000010
00000000
00000000
,
00010000
00010000
00000000
00000000
,
00001000
00000000
00000000
00000000
,
00010000
00000000
00000000
00000000
,
01000000
00000000
00000000
00000000
,
10000000
00000000
00000000
00000000
,
00100000
00000000
00000000
00000000
,
10000000
00000000
00000000
00000000
,
01000000
00000000
00000000
00000000
,
00010000
00000000
00001000
00000000
,
00010000
00000000
00000000
00000000
,
00000100
00000000
00000000
00000000
,
00000010
00000000
00000000
00000000
,
00000001
00000000
00001000
00000000
,
00000002
00000000
00000000
00000003
,
00000000
00000000
00000000
00000000
,
00000200
00000000
00000000
00000300
,
00000000
00000000
00000000
00000000
,
00002000
00000000
00000000
00003000
,
00010000
00000000
00000000
00000000
,
00001000
00000000
00000000
00000000
,
00100000
00000000
00000000
00000000
,
00010000
00010000
00000000
00000000
,
10000000
10000000
00000000
00000000
,
00100000
00100000
00000000
00000000
,
01000000
01000000
00000000
00000000
,
10010000
00000000
00000000
00000000
,
00000000
00000000
00000000
00000000
,
10000000
00000000
10000000
00000000
,
01000000
00000000
01000000
00000000
,
00010000
00010000
00000000
00000000
,
00001000
00001000
00000000
00000000
,
00000100
00000000
00000100
00000000
,
00000001
00000000
00000001
00000000
,
00000010
00000010
00000000
00000000
,
00000100
00000100
00000000
00000000
,
00001001
00000000
00000000
00000000
;

//---------------dance-double - ----------------
#NOTES:
     dance-double:
     :
     Easy:
     3:
     :
00000000
00000000
00000000
00000000
,
00000000
00000000
00000000
00000000
,
00000000
00000000
00000000
00000000
,
00000000
00000000
00000000
00000000
,
00000000
00000000
00000000
00000000
,
00000020
00000000
00000000
00000030
,
00002000
00000000
00000000
00003000
,
00000200
00000000
00000000
00000300
,
00020000
00000000
00000000
00030000
,
00010000
00001000
00010000
00000000
,
01000000
00100000
01000000
00000000
,
00100000
10000000
01000000
00000000
,
00100000
01000000
00100000
01000000
,
00100000
00000000
00001000
00010000
,
00001000
00000000
00001000
00000100
,
00000001
00000000
00001000
00000001
,
00001000
00000010
00000100
00000010
,
00001000
00001000
00000100
00000000
,
00010000
00010000
00001000
00000000
,
00100000
00100000
00010000
00000000
,
10000000
10000000
01000000
00000000
,
10000000
00100000
10000000
00000000
,
00010000
01000000
00010000
00000000
,
00001000
00010000
00001000
00000000
,
00000100
00001000
00000100
00000000
,
00000001
00000010
00000001
00000000
,
00000001
00000100
00001000
00000000
,
00001000
00010000
01000000
00000000
,
00100000
01000000
01100000
00000000
,
10000000
00010000
10000000
00000000
,
01000000
00100000
01100000
00000000
,
00010000
00001000
00010000
00000000
,
00001000
00010000
00011000
00000000
,
00000020
00000000
00000000
00000030
,
00002000
00000000
00000000
00003000
,
00000200
00000000
00000000
00000300
,
00011000
00000000
00000000
00000000
,
01100000
00000000
00000000
00000000
,
10010000
00000000
00000000
00000000
,
00011000
00000000
00000000
00000000
,
00001001
00000000
00000000
00000000
,
00000001
00000000
00000001
00000000
,
00001000
00000000
00001000
00000000
,
00000010
00000100
00000010
00000100
,
00001000
00010000
00001000
00010000
,
00011000
00000000
00000000
00000000
,
00000000
00000000
00000000
00000000
,
00100000
00000000
00100000
00000000
,
01000000
00000000
01000000
00000000
,
00100000
01000000
00100000
00000000
,
10000000
00010000
10000000
00000000
,
00010000
00000000
00010000
00000000
,
10000000
00000000
10000000
00000000
,
00100000
01000000
00100000
00000000
,
10000000
00010000
10000000
00010000
,
10010000
00000000
00000000
00000000
;

//---------------dance-double - ----------------
#NOTES:
     dance-double:
     :
     Medium:
     6:
     :
00000000
00000000
00000000
00000000
,
00000000
00000000
00000000
00000000
,
00000000
00000000
00000000
00000000
,
00000000
00000000
00000000
00000000
,
00000000
00000000
00000000
00000000
,
00001000
00000000
00010000
00000000
,
00000100
00000000
00001000
00000000
,
00000010
00000000
00000100
00000000
,
00000001
00001000
00000101
00001100
,
00000001
00000000
00000100
00000000
00000001
00000010
00000100
00000000
,
00010000
00000000
00001000
00000000
00010000
00000100
00001000
00000000
,
00000010
00000000
00010000
00000000
00001000
01000000
00100000
00000000
,
01000000
00000000
00010000
00000000
10000000
00010000
00100000
00000000
,
01000000
00000000
00100000
00000000
00001000
00010000
01000000
00000000
,
10000000
00000000
00100000
00000000
00010000
00001000
00000010
00000000
,
00000100
00000000
00001000
00000000
00000001
00000010
00000100
00000000
,
00001000
00000000
00000010
00000000
00000100
00000001
00001000
00000000
,
00000010
00000000
00000000
00000000
00000010
00000000
00000000
00000000
00000100
00000000
00000000
00000001
00000000
00000000
00001000
00000000
,
00000100
00000000
00000100
00000000
00001000
00000100
00010000
00000000
,
00001000
00000000
00000000
00000000
00001000
00000000
00000000
00000000
00100000
00000000
00000000
01000000
00000000
00000000
10000000
00000000
,
00100000
00000000
00100000
00000000
01000000
00010000
10000000
00000000
,
01000000
00000000
00000000
00000000
01000000
00000000
00000000
00000000
00100000
00000000
00000000
00001000
00000000
00000000
00010000
00000000
,
00001000
00000000
00001000
00000000
00010000
00000100
00000010
00000000
,
00000001
00000000
00000000
00000000
00000001
00000000
00000000
00000000
00001000
00000000
00000000
00000010
00000000
00000000
00000100
00000000
,
00000001
00000000
00000001
00000000
00001000
00000001
00000100
00000000
,
00000010
00000000
00000000
00000000
00001010
00000000
00000000
00000000
00001000
00000000
00000000
00000001
00000000
00000000
00000100
00000000
,
00001000
00000000
00011000
00000000
00010000
00001000
01000000
00000000
,
00100000
00000000
00000000
00000000
10100000
00000000
00000000
00000000
10000000
00000000
00000000
01000000
00000000
00000000
10000000
00000000
,
00010000
00000000
00110000
00000000
01000000
10000000
00100000
00000000
,
00010000
00000000
00000000
00000000
00011000
00000000
00000000
00000000
00001000
00000000
00000000
00000100
00000000
00000000
00000001
00000000
,
00000010
00000000
00000011
00000000
00000001
00000100
00001000
00000000
,
00010000
00000000
00000000
00000000
00011000
00000000
00000000
00000000
00001000
00000000
00000000
01000000
00000000
00000000
00100000
00000000
,
10000000
00000000
11000000
00000000
00100000
00010000
01000000
00000000
,
00100000
10000000
00020000
00000000
00000000
00000000
00030000
00000000
,
00100000
00001000
00020000
00000000
00000000
00000000
00030000
00000000
,
00000100
00001000
00000002
00000000
00000000
00000000
00000003
00000000
,
00000010
00000100
00002000
00000000
00000000
00000000
00003000
00000000
,
00000002
00000100
00000000
00000103
,
00000020
00010000
00000000
00010030
,
00002000
00100000
00000000
00103000
,
02000000
10000000
00000000
13000000
,
00200000
01000000
01000000
01300000
,
00002000
00010000
00010000
00013000
,
00000020
00001000
00001000
00001030
,
00000002
00000100
00000100
00000103
,
00000220
00000000
00000000
00000000
,
00000000
00000000
00000000
00000330
,
00001000
00000000
00001010
00000000
00000010
00000100
00000001
00000000
,
00001000
00000000
00001100
00000000
00000100
00010000
00001000
00000000
,
01000000
00000000
01010000
00000000
00010000
10000000
00100000
00000000
,
01000000
00000000
01100000
00000000
00100000
10000000
01000000
00000000
,
00010000
00000000
00000000
00000000
00002000
00000000
00000000
00000000
01000000
00000000
00000000
01000000
00000000
00000000
01003000
00000000
,
00000000
00000000
00000000
00000000
00200000
00000000
00000000
00000000
10000000
00000000
00000000
10000000
00000000
00000000
10300000
00000000
,
00000000
00000000
00000000
00000000
02000000
00000000
00000000
00000000
00010000
00000000
00000000
00010000
00000000
00000000
03010000
00000000
,
00000000
00000000
00000000
00000000
00002000
00000000
00000000
00000000
00010000
00000000
00000000
00010000
00000000
00000000
00013000
00000000
,
00022000
00000000
00000000
00000000
,
00033000
00000000
00000000
00000000
;

//---------------dance-double - ----------------
#NOTES:
     dance-double:
     :
     Hard:
     8:
     :
00000000
00000000
00000000
00000000
,
00000000
00000000
00000000
00000000
,
00000000
00000000
00000000
00000000
,
00000000
00000000
00000000
00000000
,
00000000
00000000
00000000
00000000
,
00000010
00000100
00000010
00000100
,
00000001
00001000
00000001
00001000
,
00000100
00000010
00000100
00000010
,
00000100
00010000
00000100
00000010
00000001
00000100
00001000
00010000
,
01000000
00000000
10000000
00000000
00100000
00000000
01000000
00000000
00010000
00000000
00000000
00100000
00000000
00000000
00001000
00000000
,
00010000
00000000
00100000
00000000
10000000
00000000
00100000
00000000
01000000
00000000
00000000
00001000
00000000
00000000
00100000
00000000
,
01000000
00000000
10000000
00000000
01000000
00000000
00100000
00000000
00001000
00000000
00000000
00010000
00000000
00000000
00001000
00000000
,
00000100
00000000
00000001
00000000
00000010
00000000
00000100
00000000
00000010
00000000
00000000
00000001
00000000
00000000
00001000
00000000
,
00000010
00000000
00000000
00000000
00010000
00000000
00000000
00000000
00001000
00000000
00000000
00001000
00000000
00000000
00001000
00000000
,
00100000
00000000
00000000
00000000
01000000
00000000
00000000
00000000
10000000
00000000
00000000
10000000
00000000
00000000
10000000
00000000
,
00100000
00000000
00000000
00000000
00010000
00000000
00000000
00000000
00001000
00000000
00000000
00001000
00000000
00000000
00001000
00000000
,
00010000
00000000
00000000
00000000
00000010
00000000
00000000
00000000
00000100
00000000
00000000
00000100
00000000
00000000
00000100
00000000
,
00000001
00000000
00000010
00000000
00000001
00000000
00000010
00000000
00000001
00000000
00000000
00000100
00000000
00000000
00001000
00000000
,
00010000
00000000
00000010
00000000
00010000
00000000
00000010
00000000
00010000
00000000
00000000
00001000
00000000
00000000
00100000
00000000
,
01000000
00000000
10000000
00000000
01000000
00000000
10000000
00000000
01000000
00000000
00000000
00010000
00000000
00000000
00001000
00000000
,
01000000
00000000
00100000
00000000
01000000
00000000
00100000
00000000
01000000
00000000
00000000
00001000
00000000
00000000
00010000
00000000
,
00000010
00000000
00001000
00000000
00000001
00000000
00001000
00000000
00000010
00000000
00000000
00000100
00000000
00000000
00000001
00000000
,
00000010
00000000
00000100
00000000
00000001
00000000
00000100
00000000
00000010
00000000
00000000
00000001
00000000
00000000
00000100
00000000
,
00001000
00000000
00010000
00000000
00000100
00000000
00010000
00000000
00001000
00000000
00000000
01000000
00000000
00000000
00100000
00000000
,
00010000
00000000
00001000
00000000
00100000
00000000
00001000
00000000
00010000
00000000
00000000
00100000
00000000
00000000
10000000
00000000
,
01000000
00000000
00100000
00000000
00001000
00000000
01000000
00000000
00001000
00000000
00000000
00010000
00000000
00000000
01000000
00000000
,
00100000
00100000
00010000
10000000
01000000
01000000
00100000
00001000
,
00010000
00000000
00001000
00000000
00000100
00000000
00000001
00000000
00000010
00000000
00000000
00000100
00000000
00000000
00010000
00000000
,
00001000
00001000
00000010
00000001
00000100
00000100
00000010
00010000
,
00001000
00000000
00000100
00000000
00000001
00000000
00000010
00000000
00000100
00000000
00000000
00010000
00000000
00000000
00001000
00000000
,
01000000
01000000
00001000
00010000
00100000
00100000
10000000
01000000
,
00010000
00000000
01000000
00000000
00100000
00000000
00010000
00000000
10000000
00000000
00000000
00100000
00000000
00000000
01000000
00000000
,
00001000
00001000
00100000
00001000
00010000
00010000
00000010
00000100
,
00000001
00000000
00001000
00000100
00002000
00000000
00000000
00000000
00000001
00000000
00000000
00000000
00003001
00000000
00000000
00000000
,
00000100
00000000
00001000
00010000
00002000
00000000
00000000
00000000
00100000
00000000
00000000
00000000
00103000
00000000
00000000
00000000
,
01000000
00000000
10000000
00010000
20000000
00000000
00000000
00000000
01000000
00000000
00000000
00000000
31000000
00000000
00000000
00000000
,
00100000
00000000
00001000
00010000
00002000
00000000
00000000
00000000
01000000
00000000
00000000
00000000
01003000
00000000
00000000
00000000
,
00100000
00000000
00000000
00000000
00100000
00000000
00000000
00000000
10000000
00000000
00000000
00010000
00000000
00000000
10000000
00000000
,
01000000
00000000
00000000
00000000
01000000
00000000
00000000
00000000
00100000
00000000
00000000
00001000
00000000
00000000
00100000
00000000
,
00010000
00000000
00000000
00000000
00010000
00000000
00000000
00000000
01000000
00000000
00000000
00001000
00000000
00000000
01000000
00000000
,
00100000
00000000
00000000
00000000
00100000
00000000
00000000
00000000
00010000
00000000
00000000
00001000
00000000
00000000
00010000
00000000
,
00000100
00000010
00000000
00000000
00000010
00000100
00000000
00000000
00001000
00000000
00000000
00000001
00000000
00000000
00000010
00000000
,
00000100
00001000
00000000
00000000
00001000
00000100
00000000
00000000
00010000
00000000
00000000
00001000
00000000
00000000
01000000
00000000
,
00010000
00100000
00000000
00000000
00100000
00010000
00000000
00000000
10000000
00000000
00000000
00100000
00000000
00000000
01000000
00000000
,
00001000
00010000
00001000
00010000
00000100
00001000
00000100
00001000
,
00012000
00000000
00000000
00000000
,
00000000
00000000
00000000
00003000
,
00000010
00000001
00000010
00000100
00010000
00000010
00001000
00000100
,
00010000
00001000
00000010
00000001
00000100
00000001
00001000
00000100
,
00010000
01000000
10000000
01000000
00100000
00001000
01000000
00100000
,
10000000
00010000
00100000
00001000
00000010
00001000
00100000
01000000
,
10000000
00100000
01000000
00001000
00010000
00010000
00000100
00000100
,
00001000
00000010
00000001
00000010
00001000
00001000
00000100
00000100
,
00010000
00001000
00100000
01000000
10000000
10000000
00100000
00100000
,
01000000
00001000
00010000
00100000
10000000
10000000
01000000
01000000
,
20020000
00000000
00000000
00000000
,
30030000
00000000
00000000
00000000
;
