#TITLE:Me and My Friends;
#ARTIST:THE DANDY WARHOLS;
#BANNER:Me and My Friends.png;
#BACKGROUND:Me and My Friends-bg.png;
#CDTITLE:./CDTITLES/Song PacK 16.png;
#MUSIC:Me and My Friends.ogg;
#SAMPLESTART:40.569;
#SAMPLELENGTH:15;
#DISPLAYBPM:156;
#BPMS:0=156.346,238=155.596,240=155.896;

//---------------dance-single - ----------------
#NOTES:
     dance-single:
     :
     Beginner:
     1:
     :
0000
0000
0000
0000
,
0000
0000
0000
0000
,
0000
0000
0000
0000
,
1000
0000
0000
0000
,
0001
0000
0000
0000
,
0100
0000
0000
0000
,
0010
0000
0000
0000
,
1000
0000
0000
0000
,
0100
0000
0000
0000
,
1000
0000
0000
0000
,
0001
0000
0000
0000
,
0010
0000
0010
0000
,
0100
0000
0100
0000
,
0001
0000
0001
0000
,
1000
0000
1000
0000
,
0010
0000
0010
0000
,
0100
0000
0100
0000
,
0001
0000
0001
0000
,
1000
0000
0000
0000
,
1000
0000
1000
0000
,
0100
0000
0100
0000
,
0010
0000
0010
0000
,
0001
0000
0001
0000
,
1000
0000
1000
0000
,
0001
0000
0001
0000
,
0100
0000
0100
0000
,
0010
0000
0000
0000
,
0100
0000
0000
0000
,
0001
0000
0000
0000
,
1000
0000
0000
0000
,
0010
0000
0000
0000
,
0100
0000
0000
0000
,
0010
0000
0000
0000
,
0100
0000
0000
0000
,
0010
0000
0000
0000
,
0001
0000
1000
0000
,
0001
0000
1000
0000
,
0010
0000
1000
0000
,
0001
0000
0010
0000
,
0001
0000
0001
0000
,
1000
0000
1000
0000
,
0100
0000
0100
0000
,
1000
0000
0000
0000
,
0010
0000
0010
0000
,
0100
0000
0100
0000
,
0001
0000
0001
0000
,
1000
0000
1000
0000
,
1000
0000
1000
0000
,
0010
0000
0010
0000
,
0100
0000
0100
0000
,
0010
0000
0000
0000
,
0100
0000
0000
0000
,
0001
0000
0000
0000
,
0010
0000
0000
0000
,
0100
0000
0000
0000
,
1000
0000
0000
0000
,
0001
0000
0000
0000
,
0100
0000
0000
0000
,
0001
0000
0000
0000
,
2000
0000
0000
3000
,
0000
0000
0000
0000
,
0020
0000
0000
0030
,
0000
0000
0000
0000
,
0002
0000
0000
0003
,
0000
0000
0000
0000
,
0200
0000
0000
0300
,
0000
0000
0000
0000
,
0020
0000
0000
0000
,
0000
0000
0000
0000
,
0000
0000
0000
0000
,
0000
0000
0000
0030
;

//---------------dance-single - ----------------
#NOTES:
     dance-single:
     :
     Easy:
     2:
     :
0000
0000
0000
0000
,
0000
0000
0000
0000
,
0000
0000
0000
0000
,
0000
1000
0000
0100
,
0000
1000
0000
0000
,
0000
0001
0000
0100
,
0000
0001
0000
0000
,
0000
0100
0000
0010
,
0000
0100
0000
0000
,
0000
0010
0000
0100
,
0000
0010
0000
0000
,
0000
1000
0000
0001
,
0000
1000
0000
0010
,
0000
0001
0000
0010
,
0000
1000
0000
0000
,
0000
0010
0000
0100
,
0000
0001
0000
0100
,
0000
1000
0000
0100
,
0000
0001
0000
0000
,
0000
0010
0000
1000
,
0000
0100
0000
1000
,
0000
0010
0000
1000
,
0000
0100
0000
0000
,
0000
0001
0000
0010
,
0000
0001
0000
0100
,
0000
0001
0000
0010
,
0000
0001
0000
0000
,
0000
1000
0000
0100
,
0000
1000
0000
0000
,
0000
0001
0000
0100
,
0000
0001
0000
0000
,
0000
1000
0100
0100
,
1000
1000
0000
0000
,
0000
0001
0100
0100
,
0001
0001
0000
0000
,
0000
0010
0000
1000
,
0000
0010
0000
0100
,
0000
0001
0000
0010
,
0000
0001
0000
1000
,
0000
0010
0000
0100
,
0000
0010
0000
0001
,
0000
0010
0000
0100
,
0000
0010
0000
0100
,
0000
1000
0000
0001
,
0000
0010
0000
0100
,
0000
0001
0000
1000
,
0000
0010
0100
0010
,
0000
0100
0000
0100
,
0000
0100
0000
0100
,
0000
0010
1000
0001
,
0000
0001
0000
1000
,
0000
0001
0100
0100
,
0001
0001
0000
0000
,
0000
1000
0100
0100
,
1000
1000
0000
0000
,
0000
0010
0100
0100
,
0001
0001
0000
0000
,
0000
0010
0100
0100
,
1000
1000
0000
1000
,
0000
0002
0003
0001
,
0000
2000
3000
1000
,
0000
0020
0030
0010
,
0000
0200
0300
0100
,
0000
0002
0003
0001
,
0000
2000
3000
1000
,
0000
0010
0100
0010
,
0100
0010
0000
0100
,
0220
0000
0000
0000
,
0000
0000
0000
0000
,
0000
0000
0000
0000
,
0000
0000
0000
0330
;

//---------------dance-single - ----------------
#NOTES:
     dance-single:
     :
     Medium:
     5:
     :
0000
0000
0000
0000
,
0000
0000
0000
0000
,
0000
0000
0000
0000
,
1000
0100
1000
1000
,
0001
0001
0000
0000
,
0001
0100
0001
0001
,
1000
1000
0000
0000
,
0100
0001
0100
0100
,
0010
0010
0000
0000
,
0100
1000
0100
0100
,
0010
0010
0000
0000
,
0001
0100
1000
0100
,
0001
0010
0000
0000
,
1000
0100
0001
0100
,
1000
0010
0000
0100
,
0000
0010
0100
0001
,
0010
0100
0000
1000
,
0000
0010
0100
0001
,
0010
0100
1000
1000
,
0001
0100
1000
0100
,
0001
0010
0000
0100
,
1000
0100
0001
0100
,
1000
0010
0000
0100
,
0001
0001
0001
0001
,
0000
1000
0000
0010
,
1000
1000
1000
1000
,
0000
0000
0010
0100
,
1000
0100
1000
1000
,
0010
0010
0000
0000
,
0001
1000
0001
0001
,
0100
0100
0000
0100
,
0010
1000
0010
0010
,
0001
0001
0000
0001
,
0010
0100
0010
0010
,
1000
1000
0000
0000
,
0010
1000
0100
0010
,
0100
1000
0000
0000
,
0010
0001
0100
0010
,
0100
0001
0000
0001
,
0100
0100
0100
0100
,
0200
0000
0000
0310
,
0001
0001
0001
0001
,
0002
0000
0000
1003
,
0010
0100
0001
0100
,
0010
0010
0000
0100
,
0001
1000
0100
1000
,
0001
0001
0000
0000
,
1000
0100
0001
0100
,
1000
0010
0000
0010
,
0001
0100
1000
0100
,
0110
0000
0000
0100
,
1000
0100
1000
1000
,
0010
0010
0000
0000
,
0100
0001
0100
0100
,
0010
0010
0000
0000
,
1000
0001
1000
1000
,
0100
0100
0000
0100
,
0010
0001
0010
0010
,
0100
0100
0000
0000
,
1000
0100
0001
0100
,
1000
0100
0001
0100
,
1000
0010
0001
0010
,
1000
0010
0001
0010
,
1000
0100
0001
0100
,
1000
0010
0001
0010
,
0100
0100
1000
1000
,
0010
0010
0001
0001
,
0020
0000
0000
0000
,
0000
0000
0000
0000
,
0000
0000
0000
0000
,
0000
0000
0000
0030
;

//---------------dance-single - ----------------
#NOTES:
     dance-single:
     :
     Hard:
     8:
     :
0000
0000
0000
0000
,
0000
0000
0000
0000
,
0000
0000
0000
0000
1000
0001
1000
0000
,
1100
0000
1010
0000
1000
0100
0000
1000
,
0000
0100
0000
0000
0001
1000
0001
0000
,
0011
0000
1010
0000
0010
0100
0000
0001
,
0000
1000
0100
1000
0010
0100
0001
0000
,
0101
0000
0011
0000
0001
0100
0000
0001
,
0000
0100
0000
0000
1000
0010
0100
0000
,
1010
0000
0011
0000
0001
1000
0000
0100
,
0000
2000
0000
0000
0010
0000
3010
0000
,
0001
0100
0001
0000
1000
0100
1000
0000
,
0001
0010
0001
0000
0101
0000
1001
0000
,
1000
0010
1000
0000
0001
0010
0001
0000
,
1000
0100
1000
0000
0010
0010
0010
0000
,
1100
1010
1100
0110
,
0011
0000
0101
0000
0001
0100
0010
0000
,
0110
0000
1001
0000
0110
0000
0010
0200
,
0000
0000
1000
1300
,
1100
1001
0011
1010
,
1100
0000
0101
0000
0001
1000
0100
0000
,
1100
1010
1100
1010
,
0011
0000
1001
0000
0001
0010
0100
0000
,
1001
0110
1001
0110
,
1001
0000
0110
0000
0001
0100
0010
0000
,
1000
0100
0001
0010
,
1000
0000
0001
0000
1000
0001
1000
0000
,
0110
0000
0101
0000
0001
1000
0000
0010
,
0000
1000
0000
0000
0010
1000
0100
0000
,
0110
0000
1100
0000
1000
0010
0000
0100
,
0000
0010
0000
0000
0100
0001
0100
0000
,
0011
0000
1010
0000
1000
0010
0000
0100
,
0000
0010
0000
0000
1000
0100
0010
0000
,
0110
0000
1001
0000
0001
1000
0000
0010
,
0000
1000
0000
0000
1000
0100
0010
0000
,
0001
1000
0100
0000
1000
0010
0100
0000
,
1000
0001
0100
0000
0001
0010
0100
0000
,
1000
1000
1000
0000
0010
0010
0010
0000
,
0100
0100
0100
0000
0101
0000
1100
0000
,
1010
1100
1001
0011
,
0101
0000
1001
0000
0010
1000
0100
0000
,
0101
0110
1010
1001
,
1010
0000
0011
0000
0001
1000
0100
0000
,
0010
1000
0100
0000
0010
1000
0100
0000
,
0010
1000
0100
0000
0110
0000
0011
0000
,
0101
0000
1100
0000
0110
0000
0001
1000
,
0000
0000
1100
0101
,
1000
0100
0010
0100
0010
0001
0010
0001
,
0100
0001
0100
0010
0100
0100
0100
0000
,
1100
1010
0011
0101
,
1001
0000
0001
0100
0001
0100
0001
0000
,
1010
0000
0101
0000
1000
0100
0000
0010
,
0000
0100
0000
0000
1000
0001
0100
0000
,
0011
0000
1100
0000
0001
0010
0000
0001
,
0000
0010
0000
0000
0100
1000
0010
0000
,
0110
0000
1001
0000
0010
0100
0000
0010
,
0000
1000
0000
0000
0001
0100
0010
0000
,
1010
0000
0011
0000
0100
0001
0000
1000
,
0000
0001
0000
0000
2001
0000
0000
0000
,
3100
0000
0101
0000
0001
1000
0010
0000
,
0100
0010
1000
0000
0100
0001
0010
0000
,
1100
0101
1100
0101
,
1100
0000
0101
0000
0001
0010
0100
0000
,
1010
0110
0101
1100
,
0011
0110
1100
0101
,
1001
0110
1001
0110
,
1001
0110
1001
0110
,
2002
0000
0000
0000
,
0000
0000
0000
0000
,
0000
0000
0000
0000
,
0000
0000
0000
3003
;

//---------------dance-double - ----------------
#NOTES:
     dance-double:
     :
     Beginner:
     1:
     :
00000000
00000000
00000000
00000000
,
00000000
00000000
00000000
00000000
,
00000000
00000000
00000000
00000000
,
00000010
00000000
00000000
00000000
,
00000100
00000000
00000000
00000000
,
00000001
00000000
00000000
00000000
,
00001000
00000000
00000000
00000000
,
00000100
00000000
00000000
00000000
,
00010000
00000000
00000000
00000000
,
01000000
00000000
00000000
00000000
,
00100000
00000000
00000000
00000000
,
00010000
00000000
00010000
00000000
,
10000000
00000000
10000000
00000000
,
00100000
00000000
00100000
00000000
,
01000000
00000000
01000000
00000000
,
00001000
00000000
00001000
00000000
,
00010000
00000000
00010000
00000000
,
00000100
00000000
00000100
00000000
,
00001000
00000000
00000000
00000000
,
00000100
00000000
00000100
00000000
,
00000010
00000000
00000010
00000000
,
00000001
00000000
00000001
00000000
,
00000100
00000000
00000100
00000000
,
00000010
00000000
00000010
00000000
,
00010000
00000000
00010000
00000000
,
00001000
00000000
00001000
00000000
,
01000000
00000000
00000000
00000000
,
00010000
00000000
00000000
00000000
,
10000000
00000000
00000000
00000000
,
01000000
00000000
00000000
00000000
,
00100000
00000000
00000000
00000000
,
10000000
00000000
00000000
00000000
,
00010000
00000000
00000000
00000000
,
01000000
00000000
00000000
00000000
,
00001000
00000000
00000000
00000000
,
00010000
00000000
00000100
00000000
,
00001000
00000000
00000010
00000000
,
00000001
00000000
00000010
00000000
,
00001000
00000000
00000100
00000000
,
00001000
00000000
00001000
00000000
,
00000010
00000000
00000010
00000000
,
00010000
00000000
00010000
00000000
,
01000000
00000000
00000000
00000000
,
10000000
00000000
10000000
00000000
,
00010000
00000000
00010000
00000000
,
01000000
00000000
01000000
00000000
,
00010000
00000000
00010000
00000000
,
00010000
00000000
00010000
00000000
,
00100000
00000000
00100000
00000000
,
00001000
00000000
00001000
00000000
,
00010000
00000000
00000000
00000000
,
00000100
00000000
00000000
00000000
,
00000010
00000000
00000000
00000000
,
00000001
00000000
00000000
00000000
,
00001000
00000000
00000000
00000000
,
00000001
00000000
00000000
00000000
,
00000100
00000000
00000000
00000000
,
00000010
00000000
00000000
00000000
,
00010000
00000000
00000000
00000000
,
00002000
00000000
00000000
00003000
,
00000000
00000000
00000000
00000000
,
02000000
00000000
00000000
03000000
,
00000000
00000000
00000000
00000000
,
00020000
00000000
00000000
00030000
,
00000000
00000000
00000000
00000000
,
00200000
00000000
00000000
00300000
,
00000000
00000000
00000000
00000000
,
00002000
00000000
00000000
00000000
,
00000000
00000000
00000000
00000000
,
00000000
00000000
00000000
00000000
,
00000000
00000000
00000000
00003000
;

//---------------dance-double - ----------------
#NOTES:
     dance-double:
     :
     Easy:
     3:
     :
00000000
00000000
00000000
00000000
,
00000000
00000000
00000000
00000000
,
00000000
00000000
00000000
00000000
,
00000000
00000100
00010000
00000000
,
00000100
00000000
00000000
00000000
,
00000000
00010000
00000000
00001000
,
00000000
00010000
00000000
00000000
,
00000000
01000000
00000000
00010000
,
00000000
01000000
00000000
00000000
,
00000000
00100000
00000000
10000000
,
00000000
00100000
00000000
00000000
,
00000000
10000000
00000000
01000000
,
00000000
00010000
00000000
00001000
,
00000000
00000010
00000000
00000001
,
00000000
00001000
00000000
00000000
,
00000000
00000010
00000000
00001000
,
00000000
00000100
00000000
00010000
,
00000000
00001000
00000000
00100000
,
00000000
01000000
00000000
00000000
,
00000000
10000000
00000000
01000000
,
00000000
00100000
00000000
00010000
,
00000000
10000000
00000000
00010000
,
00000000
00100000
00000000
00000000
,
00000000
00001000
00000000
00010000
,
00000000
00000100
00000000
00001000
,
00000000
00000010
00000000
00000100
,
00000000
00000001
00000000
00000000
,
00000000
00000010
00000000
00000100
,
00000000
00000010
00000000
00000000
,
00000000
00000001
00000000
00001000
,
00000000
00000001
00000000
00000000
,
00000000
00001000
00000100
00000100
,
00010000
00010000
00000000
00000000
,
00000000
00001000
00100000
00100000
,
01000000
01000000
00000000
00000000
,
00000000
10000000
00000000
00100000
,
00000000
01000000
00000000
00010000
,
00000000
00100000
00000000
00001000
,
00000000
00010000
00000000
00001000
,
00000000
01000000
00000000
00010000
,
00000000
10000000
00000000
01000000
,
00000000
00010000
00000000
00001000
,
00000000
00000100
00000000
00000001
,
00000000
00000010
00000000
00000001
,
00000000
00000100
00000000
00000010
,
00000000
00001000
00000000
00000100
,
00000000
00010000
00001000
00010000
,
00000000
00001000
00000000
00001000
,
00000000
00001000
00000000
00001000
,
00000000
00100000
00010000
01000000
,
00000000
00100000
00000000
10000000
,
00000000
01000000
00100000
00100000
,
10000000
10000000
00000000
00000000
,
00000000
00010000
00100000
00100000
,
00001000
00001000
00000000
00000000
,
00000000
00010000
00000100
00000100
,
00000010
00000010
00000000
00000000
,
00000000
00001000
00000010
00000010
,
00000100
00000100
00000000
00000001
,
00000000
00002000
00003000
00001000
,
00000000
00000020
00000030
00000010
,
00000000
00020000
00030000
00010000
,
00000000
00002000
00003000
00001000
,
00000000
02000000
03000000
01000000
,
00000000
00200000
00300000
00100000
,
00000000
10000000
00010000
10000000
,
00010000
00100000
00000000
00001000
,
00022000
00000000
00000000
00000000
,
00000000
00000000
00000000
00000000
,
00000000
00000000
00000000
00000000
,
00000000
00000000
00000000
00033000
;

//---------------dance-double - ----------------
#NOTES:
     dance-double:
     :
     Medium:
     5:
     :
00000000
00000000
00000000
00000000
,
00000000
00000000
00000000
00000000
,
00000000
00000000
00000000
00000000
,
00010000
00001000
00010000
00010000
,
00000100
00000100
00000000
00000000
,
00001000
00000010
00001000
00001000
,
00000001
00000001
00000000
00000000
,
00000010
00000100
00000010
00000010
,
00010000
00010000
00000000
00000000
,
00001000
00100000
00001000
00001000
,
01000000
01000000
00000000
00000000
,
00010000
00100000
01000000
10000000
,
01000000
00010000
00000000
00000000
,
00100000
00001000
00010000
00000100
,
00000010
00000001
00000000
00000100
,
00000000
00000001
00001000
00000100
,
00000010
00000100
00000000
00010000
,
00000000
00001000
00010000
00001000
,
01000000
00100000
00010000
00010000
,
10000000
01000000
00100000
10000000
,
00100000
01000000
00000000
00010000
,
00100000
00001000
00010000
00000100
,
00001000
00000010
00000000
00000100
,
00000001
00000001
00000001
00000001
,
00000000
00001000
00000000
00000100
,
00000010
00000010
00000010
00000010
,
00000000
00000000
00010000
00001000
,
00100000
00010000
01000000
01000000
,
00010000
00010000
00000000
00000000
,
10000000
01000000
10000000
10000000
,
00100000
00100000
00000000
10000000
,
00010000
00100000
00010000
00010000
,
00001000
00001000
00000000
00010000
,
00000100
00001000
00000100
00000100
,
00000010
00000010
00000000
00000000
,
00001000
00000001
00001000
00000100
,
00000010
00000001
00000000
00000000
,
00000100
00000010
00000001
00000100
,
00000010
00001000
00000000
00000100
,
00010000
00010000
00010000
00010000
,
00020000
00000000
00000000
00031000
,
00100000
00100000
00100000
00100000
,
00200000
00000000
00000000
01300000
,
10000000
00010000
10000000
00100000
,
01000000
01000000
00000000
00010000
,
01000000
10000000
01000000
00100000
,
10000000
10000000
00000000
00000000
,
01000000
00100000
00010000
00000010
,
00000100
00000001
00000000
00001000
,
00000010
00000100
00000001
00001000
,
00001001
00000000
00000000
00001000
,
00000001
00001000
00000001
00000001
,
00000100
00000100
00000000
00000000
,
00000010
00010000
00000010
00000010
,
00001000
00001000
00000000
00000000
,
00000100
00010000
00000100
00000100
,
00001000
00001000
00000000
00010000
,
00001000
00100000
00001000
00001000
,
01000000
01000000
00000000
00000000
,
00100000
10000000
01000000
00100000
,
00010000
01000000
00100000
10000000
,
01000000
00010000
00001000
00000100
,
00000001
00000010
00000100
00001000
,
00000010
00000100
00000001
00000010
,
00000100
00001000
00000010
00010000
,
00001000
00001000
00100000
00100000
,
00010000
00010000
01000000
01000000
,
00002000
00000000
00000000
00000000
,
00000000
00000000
00000000
00000000
,
00000000
00000000
00000000
00000000
,
00000000
00000000
00000000
00003000
;

//---------------dance-double - ----------------
#NOTES:
     dance-double:
     :
     Hard:
     9:
     :
00000000
00000000
00000000
00000000
,
00000000
00000000
00000000
00000000
,
00000000
00000000
00000000
00000000
01000000
00001000
01000000
00000000
,
00011000
00000000
01010000
00000000
00001000
00020000
00000000
00000200
,
00030000
00001300
00000000
00000000
00000100
00010000
00000100
00000000
,
00011000
00000000
00001100
00000000
00010000
00002000
00000000
00013000
,
00000000
01000000
00100000
00010000
01000000
00100000
10000000
00000000
,
10010000
00000000
01010000
00000000
00010000
00002000
00000000
00203000
,
00000000
00301000
00000000
00000000
00000100
00000010
00001000
00000000
,
00001100
00000000
00000101
00000000
00001000
00000100
00000000
00010000
,
00000000
00002000
00000000
00000000
00010000
00000000
00013000
00000000
,
00010000
00001000
00000100
00000000
00001000
00010000
01000000
00000000
,
10000000
00100000
01000000
00000000
01010000
00000000
00001010
00000000
,
00000100
00000001
00000010
00000000
00000100
00000001
00001000
00000000
,
00000100
00010000
00001000
00000000
00010000
00010000
00010000
00000000
,
00011000
00110000
10100000
10010000
,
00011000
00000000
00001010
00000000
00001000
00000100
00000010
00000000
,
00000011
00000000
00001010
00000000
00000011
00000000
00000100
00000020
,
00000000
00000000
00001000
00001030
,
00000110
00001010
00011000
00001100
,
00001001
00000000
00001010
00000000
00010000
00001000
00100000
00000000
,
01100000
00110000
00011000
01010000
,
10010000
00000000
11000000
00000000
10000000
01000000
00100000
00000000
,
11000000
01010000
00011000
00011000
,
00001100
00000000
00000101
00000000
00001000
00000001
00000100
00000000
,
00000001
00000100
00001000
00000010
,
00000001
00000000
00001000
00000000
00001000
00000100
00001000
00000000
,
00011000
00000000
01010000
00000000
01000000
00200000
00000000
20300000
,
00000000
30010000
00000000
00000000
00100000
01000000
10000000
00000000
,
11000000
00000000
01010000
00000000
10000000
00020000
00000000
00230000
,
00000000
00301000
00000000
00000000
00010000
00001000
00010000
00000000
,
00011000
00000000
00001100
00000000
00001000
00000020
00000000
00000230
,
00000000
00000301
00000000
00000000
00001000
00000001
00000100
00000000
,
00001100
00000000
00001010
00000000
00010000
00002000
00000000
00203000
,
00000000
00310000
00000000
00000000
01000000
00100000
01000000
00000000
,
10000000
01000000
00010000
00000000
00001000
00000100
00000001
00000000
,
00000010
00000100
00001000
00000000
00000010
00000100
00001000
00000000
,
00000100
00000100
00000100
00000000
00010000
00010000
00010000
00000000
,
00001000
00001000
00001000
00000000
00011000
00000000
00110000
00000000
,
00010000
01000000
10000000
00100000
,
00010000
00000000
01100000
00000000
00001000
00010000
00000100
00000000
,
00001000
00000010
00000001
00000100
,
00001000
00000000
00000110
00000000
00000001
00000100
00001000
00000000
,
00000010
00010000
00001000
00000000
00010000
00001000
01000000
00000000
,
00010000
01000000
10000000
00000000
01010000
00000000
11000000
00000000
,
01100000
00000000
10010000
00000000
00110000
00000000
00001000
00010000
,
00000000
00000000
00011000
00001100
,
00001000
00010000
01000000
00010000
00001000
00000100
00001000
00000000
,
00010000
00000100
00000010
00000001
00000010
00000010
00000010
00000000
,
00000110
00000011
00001010
00001100
,
00011000
00000000
00001000
00010000
00001000
00010000
00001000
00000000
,
00011000
00000000
01010000
00000000
00100000
20000000
00000000
30020000
,
00000000
01030000
00000000
00000000
10000000
00010000
01000000
00000000
,
00011000
00000000
00001100
00000000
00000010
00000200
00000000
00002300
,
00000000
00003001
00000000
00000000
00000100
00000010
00001000
00000000
,
00001001
00000000
00011000
00000000
00001000
02000000
00000000
03020000
,
00000000
00130000
00000000
00000000
00010000
10000000
00010000
00000000
,
10010000
00000000
00011000
00000000
00010000
00000020
00000000
00002030
,
00000000
00003100
00000000
00000000
00001200
00000000
00000000
00000000
,
00000310
00000000
00000011
00000000
00000001
00001000
00000100
00000000
,
00010000
00001000
01000000
00000000
00100000
10000000
01000000
00000000
,
11000000
01010000
00011000
00001100
,
00000101
00000000
00001100
00000000
00010000
00001000
00010000
00000000
,
00110000
10100000
11000000
01010000
,
00011000
00001100
00000110
00000011
,
00000001
00000100
00010000
01000000
,
00100000
10000000
01000000
00100000
00010000
00001000
00010000
00000100
,
00002000
00000000
00000000
00000000
,
00000000
00000000
00000000
00000000
,
00000000
00000000
00000000
00000000
,
00000000
00000000
00000000
00003000
;
