#TITLE:Masters of the Universe;
#ARTIST:Juno Reactor;
#BANNER:Masters of the Universe.png;
#BACKGROUND:Masters of the Universe-bg.png;
#CDTITLE:./CDTITLES/Dance Dance Revolution ULTRAMIX4.png;
#MUSIC:Masters of the Universe.ogg;
#SAMPLESTART:12.546;
#SAMPLELENGTH:15;
#DISPLAYBPM:170;
#BPMS:0=170.034;

//---------------dance-single - ----------------
#NOTES:
     dance-single:
     :
     Beginner:
     1:
     :
0000
0000
0000
0000
,
0000
0000
0000
0000
,
0000
0000
0000
0000
,
0000
0000
0000
0000
,
0000
0000
0000
0000
,
1000
0000
0000
0000
,
0001
0000
0000
0000
,
1000
0000
0000
0000
,
0010
0000
0000
0000
,
0100
0000
0100
0000
,
0100
0000
0000
0000
,
0010
0000
0010
0000
,
0010
0000
0000
0000
,
1000
0000
1000
0000
,
1000
0000
0000
0000
,
0001
0000
0000
0000
,
0000
0000
0000
0000
,
0100
0000
0100
0000
,
0100
0000
0000
0000
,
0010
0000
0010
0000
,
0010
0000
0000
0000
,
1000
0000
0000
0000
,
0001
0000
0000
0000
,
1000
0000
1000
0000
,
0000
0000
0000
0000
,
0100
0000
0100
0000
,
0100
0000
0000
0000
,
0001
0000
0001
0000
,
0000
0000
0000
0000
,
0010
0000
0010
0000
,
0010
0000
0000
0000
,
0010
0000
0010
0000
,
0000
0000
0000
0000
,
1000
0000
1000
0000
,
1000
0000
0000
0000
,
0001
0000
0001
0000
,
0000
0000
0000
0000
,
1000
1000
0000
0000
,
1000
0000
0000
0000
,
0010
0010
0000
0000
,
0010
0000
0000
0000
,
0001
0001
0000
0000
,
0001
0000
0000
0000
,
0100
0100
0000
0000
,
0100
0000
0000
0000
,
0010
0000
0000
0000
,
0000
0000
0000
0000
,
1000
0000
0000
0000
,
0000
0000
0000
0000
,
1001
0000
0000
0000
,
0000
0000
0000
0000
,
0110
0000
0000
0000
,
0000
0000
0000
0000
,
1000
0000
1000
0000
,
0100
0000
0100
0000
,
0010
0000
0010
0000
,
0001
0000
0001
0000
,
1000
0000
0000
0000
,
0001
0000
0000
0000
,
0100
0000
0000
0000
,
0100
0000
0000
0000
,
0010
0000
0010
0000
,
0010
0010
0010
0000
,
1000
0000
1000
0000
,
0100
0000
0100
0000
,
0010
0000
0010
0000
,
0001
0000
0001
0000
,
0001
0000
0100
0000
,
0100
0000
0100
0000
,
0010
0000
0000
0000
;

//---------------dance-single - ----------------
#NOTES:
     dance-single:
     :
     Easy:
     4:
     :
0000
0000
0000
0000
,
0000
0000
0000
0000
,
0000
0000
0000
0000
,
0000
0000
0000
0000
,
0000
0000
0000
0000
,
1000
1000
0000
0000
,
0010
0100
0001
0010
,
0001
0001
0000
0000
,
0100
0100
0100
0000
,
0010
1000
0100
0000
,
0010
0100
0010
0000
,
0001
1000
0001
0000
,
0010
0001
0010
0000
,
0100
1000
0100
0000
,
0010
0001
0100
0000
,
0010
1000
0100
0010
,
0001
0001
0001
0000
,
1000
1000
0001
1000
,
0010
0010
0100
0000
,
0010
0010
0010
1000
,
0001
0001
0100
0000
,
1000
0100
0000
0000
,
0001
0010
0000
0000
,
1000
0100
0010
0001
,
0000
0000
0000
0000
,
0001
0100
0000
0000
,
1000
0010
0000
0000
,
1000
0001
0100
0010
,
0000
0000
0000
0000
,
1000
0100
0010
0001
,
0001
0001
1000
0000
,
0001
0100
0010
2000
,
0000
0000
3000
0000
,
0100
0010
0100
1000
,
0010
0010
0010
0000
,
0100
0001
0010
0002
,
0000
0000
0003
0000
,
1000
0000
0010
0000
,
0100
0001
0010
0100
,
1000
0000
0001
0000
,
0010
1000
0100
0000
,
0010
0000
0100
0000
,
0001
0100
0010
1000
,
0001
0000
1000
0000
,
0010
0010
0010
0000
,
1000
0000
0001
0000
,
0100
0100
0010
0000
,
1000
0000
0001
0000
,
1000
0000
0001
0000
,
1000
1000
0010
0000
,
1000
0000
0100
0000
,
0010
0010
0001
0000
,
0100
0100
0100
0000
,
0010
1000
0001
0000
,
0010
0001
0100
0000
,
0100
0010
1000
0000
,
0100
0010
0001
0000
,
0001
1000
0100
0000
,
1000
0001
0010
0000
,
0010
0100
0220
0000
,
0000
0000
0330
0000
,
1000
0010
1000
0000
,
0001
0001
1000
0001
,
1000
0100
0010
0000
,
1000
0010
0100
0100
,
0001
0100
0010
0000
,
0001
0010
0100
0000
,
1000
0001
0100
0010
,
1000
0100
0100
1000
,
1001
0000
0000
0000
;

//---------------dance-single - ----------------
#NOTES:
     dance-single:
     :
     Medium:
     6:
     :
0000
0000
0000
0000
,
0000
0000
0000
0000
,
0000
0000
0000
0000
,
0000
0000
0000
0000
,
0000
0000
0000
0000
,
1000
1000
0001
0010
,
1000
0100
1000
0010
,
0100
0100
0001
1000
,
0010
0001
0100
0010
,
1010
1000
0001
0100
,
0020
0000
1030
0100
,
2000
0000
3100
0010
,
0002
0000
0103
0010
,
1000
0100
0010
0001
,
0010
0001
0100
1000
,
0010
0100
0010
1000
,
0001
0000
0001
0100
0001
0000
0000
0000
,
1000
0100
1000
0010
,
0100
0000
0100
0000
0010
1000
0100
0000
,
1000
0100
0001
0010
,
0100
0100
0010
0110
,
1000
0100
0010
0001
0000
1000
0001
0000
,
0000
0000
0000
0000
,
0001
0100
0010
1000
0000
0001
1000
0000
,
0000
0000
0000
0000
,
1000
0100
1000
0010
0000
0100
0001
0000
,
0000
0000
0000
0000
,
0100
0100
0100
0100
0000
0010
0100
0000
,
0000
0000
0000
0000
,
0001
0010
0100
1000
0000
0001
0100
0010
,
0000
0010
0100
0010
0000
0000
0000
0000
,
1000
0010
0100
0001
0000
1000
0100
0010
,
0000
0100
0000
0100
0000
0000
0000
0000
,
0010
0010
0010
0010
0000
0100
1000
0001
,
0000
0100
0010
0100
0000
0000
0000
0000
,
0001
0010
1000
0010
0000
0100
0001
0000
,
1001
0000
0000
0000
,
0110
0000
1000
1000
,
0001
0001
0010
0100
,
0200
0000
0000
2000
0300
0000
0000
0000
,
3010
0010
0010
0000
,
1001
0000
0001
0001
,
1000
1000
0010
0100
,
0001
0001
0001
1000
,
0010
0000
0100
0001
1000
0000
0000
0000
,
0011
0000
1010
0000
,
0100
0100
0100
0000
,
1010
1100
0101
0000
,
0001
0010
0001
0000
0100
0000
0000
0000
,
1001
0000
0110
0000
,
0010
0100
1000
0001
,
1100
1010
0011
0001
,
0010
0000
0100
0000
1000
0001
1000
0000
,
0001
1000
0001
0001
,
1000
0010
0100
0100
,
0001
0010
0001
0100
,
1000
0100
0001
0010
,
0100
1000
0001
1000
,
0100
0000
1000
0000
0010
0100
0001
0000
,
0100
1000
0001
1000
,
0010
0010
0010
0000
,
1000
0100
0010
0001
,
0010
0100
0010
0010
,
1000
0001
1000
1000
,
0001
0100
0010
0010
,
1000
0100
1000
0010
,
0001
0000
0010
0000
1000
0001
0100
0000
,
0010
0001
1000
0001
,
0010
0000
0001
0000
0100
0010
1000
0000
,
2020
0000
0000
0000
,
0000
0000
0000
3030
;

//---------------dance-single - ----------------
#NOTES:
     dance-single:
     :
     Hard:
     9:
     :
0000
0000
0000
0000
,
0000
0000
0000
0000
,
0000
0000
0000
0000
,
0000
0000
0000
0000
,
0000
0000
0000
0000
,
1000
0001
1100
0000
0010
0100
0101
0000
,
0010
1000
0011
0000
1000
0001
1000
0000
,
0001
1000
0011
0000
0100
0010
1010
0000
,
0100
0001
1000
0000
0100
0010
0001
0000
,
0100
0010
1000
0100
1000
0010
0100
0001
,
1000
0100
0010
0001
0010
0001
0100
0010
,
0100
0001
1000
0100
0001
0100
1000
0010
,
0100
0010
1000
0100
1000
0010
0001
0010
,
0100
0001
0010
0100
1000
0001
0010
0100
,
1000
0100
1000
0010
0100
0010
0001
0010
,
1000
0100
0010
0100
1000
0001
0010
0001
,
1000
0100
1000
0100
0010
0001
0011
0000
,
1001
0011
1001
1010
,
0110
0000
0101
0000
0001
0100
1000
0000
,
0101
1100
0101
0011
,
0110
0000
1100
0000
1001
0100
0110
0000
,
0001
0100
0010
1000
0000
0010
1000
0010
,
0000
1020
0030
0021
0030
0010
0001
0010
,
0001
0100
0010
2000
0000
3010
2000
0000
,
0000
0000
0000
3000
0000
0001
0100
0010
,
1000
0100
0010
0001
0000
0010
0001
0100
,
0000
0110
0000
0110
0000
1000
0100
0010
,
0001
0010
0100
2000
0000
3001
2000
0000
,
0000
0000
0000
0000
0000
3000
1001
0000
,
0010
1000
0100
0010
0000
0100
0010
0001
,
0000
0201
0300
1200
0300
0010
0001
1000
,
0001
0100
0010
2000
0000
3100
2000
0000
,
0000
0000
0000
0000
0000
0000
0000
0000
3000
0000
0100
0010
0100
0000
0010
0000
,
0001
0001
0100
0001
0000
1000
0100
1000
,
0000
0110
0000
0110
0000
1000
0100
0010
,
0001
0010
0001
1000
0000
0010
0200
0000
,
0000
0000
0000
0300
,
0001
0100
1000
0010
,
0001
0010
0100
0000
1000
0010
0100
0000
,
0001
0100
1000
0010
,
0001
0100
0010
0000
1000
0100
0110
0000
,
0011
0101
1001
1100
,
0101
0000
1010
0000
1000
0100
0010
0000
,
0110
0011
1010
0011
,
1100
0000
0002
0000
1000
0100
1003
0000
,
2002
0000
0000
3003
1001
0000
0000
0010
,
0000
0001
0000
0100
0000
0000
0010
0000
,
1100
0000
1100
0000
1001
0000
0000
0010
,
0000
0001
0100
1000
0100
0001
1000
0000
,
0110
0000
1100
0000
0101
0000
0000
0100
,
0000
0001
0000
0000
1000
0010
0100
0000
,
0011
0000
0101
0000
1010
0000
0000
1000
,
0000
0010
0000
0000
0100
0000
0110
0000
,
0100
0010
1000
0100
1000
0010
0100
0001
,
1000
0100
0010
0001
0010
0001
0100
0010
,
0100
0001
1000
0100
0001
0100
1000
0010
,
0100
0010
1000
0100
1000
0010
0001
0010
,
0100
0001
0010
0100
1000
0001
0010
0100
,
1000
0100
1000
0010
0100
0010
0001
0010
,
1000
0100
0010
0100
1000
0001
0010
0001
,
1000
0100
1000
0100
0010
0001
0011
0000
,
1000
0100
0001
0010
,
1000
0000
0001
0000
1000
0100
0010
0000
,
0001
0100
1000
0100
0001
0010
0100
1000
,
0010
0100
0001
0100
1001
0000
1001
0000
,
0110
0010
1000
0100
0010
0100
1000
0001
,
0100
0010
1000
0100
1000
0010
0100
1000
,
0100
0001
0010
0100
0010
0100
1000
0100
,
1000
0001
0100
0010
0001
1000
0100
0010
,
0200
0000
0000
0000
0000
0000
0000
0000
0000
0020
0000
0000
0000
0000
0000
0000
,
0000
0000
0000
0330
;

//---------------dance-double - ----------------
#NOTES:
     dance-double:
     :
     Beginner:
     1:
     :
00000000
00000000
00000000
00000000
,
00000000
00000000
00000000
00000000
,
00000000
00000000
00000000
00000000
,
00000000
00000000
00000000
00000000
,
00000000
00000000
00000000
00000000
,
00001000
00000000
00000000
00000000
,
00000100
00000000
00000000
00000000
,
00000010
00000000
00000000
00000000
,
00000001
00000000
00000000
00000000
,
00000100
00000000
00000100
00000000
,
00000100
00000000
00000000
00000000
,
00000010
00000000
00010000
00000000
,
00000010
00000000
00000000
00000000
,
00010000
00000000
00001000
00000000
,
00100000
00000000
00000000
00000000
,
01000000
00000000
00000000
00000000
,
00000000
00000000
00000000
00000000
,
10000000
00000000
10000000
00000000
,
10000000
00000000
00000000
00000000
,
00010000
00000000
00010000
00000000
,
00010000
00000000
00000000
00000000
,
00100000
00000000
00000000
00000000
,
00001000
00000000
00000000
00000000
,
00010000
00000000
00000100
00000000
,
00000000
00000000
00000000
00000000
,
00001000
00000000
00001000
00000000
,
00001000
00000000
00000000
00000000
,
00000010
00000000
00000010
00000000
,
00000000
00000000
00000000
00000000
,
00000100
00000000
00000100
00000000
,
00000100
00000000
00000000
00000000
,
00000001
00000000
00001000
00000000
,
00000000
00000000
00000000
00000000
,
00000100
00000000
00000100
00000000
,
00000100
00000000
00000000
00000000
,
00010000
00000000
00001000
00000000
,
00000000
00000000
00000000
00000000
,
00100000
00100000
00000000
00000000
,
00010000
00000000
00000000
00000000
,
01000000
01000000
00000000
00000000
,
00100000
00000000
00000000
00000000
,
10000000
10000000
00000000
00000000
,
00010000
00000000
00000000
00000000
,
00100000
00100000
00000000
00000000
,
00001000
00000000
00000000
00000000
,
00010000
00000000
00000000
00000000
,
00000000
00000000
00000000
00000000
,
00001000
00000000
00000000
00000000
,
00000000
00000000
00000000
00000000
,
00011000
00000000
00000000
00000000
,
00000000
00000000
00000000
00000000
,
00000110
00000000
00000000
00000000
,
00000000
00000000
00000000
00000000
,
00001000
00000000
00000100
00000000
,
00000010
00000000
00000010
00000000
,
00000001
00000000
00000001
00000000
,
00001000
00000000
00001000
00000000
,
00000100
00000000
00000000
00000000
,
00010000
00000000
00000000
00000000
,
00001000
00000000
00000000
00000000
,
00100000
00000000
00000000
00000000
,
00010000
00000000
10000000
00000000
,
01000000
01000000
01000000
00000000
,
00100000
00000000
00100000
00000000
,
00010000
00000000
00010000
00000000
,
00100000
00000000
00100000
00000000
,
00001000
00000000
00001000
00000000
,
00010000
00000000
00010000
00000000
,
00000100
00000000
00000100
00000000
,
00000010
00000000
00000000
00000000
;

//---------------dance-double - ----------------
#NOTES:
     dance-double:
     :
     Easy:
     4:
     :
00000000
00000000
00000000
00000000
,
00000000
00000000
00000000
00000000
,
00000000
00000000
00000000
00000000
,
00000000
00000000
00000000
00000000
,
00000000
00000000
00000000
00000000
,
00000001
00000001
00000000
00000000
,
00001000
00000100
00010000
00001000
,
00100000
00100000
00000000
00000000
,
00010000
00010000
00010000
00000000
,
10000000
01000000
00100000
00000000
,
00010000
01000000
00100000
00000000
,
01000000
00001000
00010000
00000000
,
00001000
00010000
00000010
00000000
,
00001000
00000100
00000010
00000000
,
00000010
00000001
00000100
00000000
,
00000001
00000100
00001000
01000000
,
00100000
00100000
00100000
00000000
,
00010000
00010000
00100000
01000000
,
00010000
00010000
10000000
00000000
,
01000000
01000000
01000000
00100000
,
00001000
00001000
00010000
00000000
,
00000100
00001000
00000000
00000000
,
00000010
00000100
00000000
00000000
,
00000001
00001000
00000100
00000010
,
00000000
00000000
00000000
00000000
,
00010000
00001000
00000000
00000000
,
01000000
00010000
00000000
00000000
,
10000000
00100000
10000000
01000000
,
00000000
00000000
00000000
00000000
,
00100000
00010000
01000000
00010000
,
00100000
00100000
00001000
00000000
,
00010000
00000100
00000010
00000200
,
00000000
00000000
00000300
00000000
,
00000001
00001000
00000100
00000001
,
00000100
00000100
00000100
00000000
,
00000010
00010000
00001000
00020000
,
00000000
00000000
00030000
00000000
,
00001000
00000000
01000000
00000000
,
00100000
01000000
00010000
00100000
,
01000000
00000000
10000000
00000000
,
00010000
10000000
00010000
00000000
,
01000000
00000000
00001000
00000000
,
00010000
00001000
00010000
00000100
,
00000010
00000000
00001000
00000000
,
00000010
00000010
00000010
00000000
,
00000100
00000000
00000001
00000000
,
00001000
00001000
00000001
00000000
,
00000010
00000000
00000100
00000000
,
00010000
00000000
00001000
00000000
,
01000000
01000000
00010000
00000000
,
01000000
00000000
00100000
00000000
,
10000000
10000000
00010000
00000000
,
00100000
00100000
00100000
00000000
,
00001000
00010000
00001000
00000000
,
00000100
00000010
00001000
00000000
,
00000001
00000100
00000010
00000000
,
00001000
00000100
00001000
00000000
,
00000100
00010000
00001000
00000000
,
00100000
01000000
10000000
00000000
,
00010000
10000000
20020000
00000000
,
00000000
00000000
30030000
00000000
,
00100000
00010000
00100000
00000000
,
00100000
00100000
01000000
00001000
,
00010000
00001000
00000100
00000000
,
00000010
00001000
00000001
00000001
,
00000100
00000010
00001000
00000000
,
00000001
00000100
00001000
00000000
,
00010000
01000000
10000000
00010000
,
00100000
00001000
00010000
00001000
,
00011000
00000000
00000000
00000000
;

//---------------dance-double - ----------------
#NOTES:
     dance-double:
     :
     Medium:
     6:
     :
00000000
00000000
00000000
00000000
,
00000000
00000000
00000000
00000000
,
00000000
00000000
00000000
00000000
,
00000000
00000000
00000000
00000000
,
00000000
00000000
00000000
00000000
,
00100000
00100000
00001000
00010000
,
01000000
10000000
00100000
01000000
,
00001000
00001000
00010000
00000010
,
00000100
00000001
00001000
00000100
,
00001100
00000001
00000010
00000100
,
00000002
00000000
00000103
00000010
,
00020000
00000000
00031000
01000000
,
00200000
00000000
10300000
01000000
,
00010000
01000000
00100000
10000000
,
00010000
00100000
00001000
00000100
,
00000010
00000100
00000001
00000010
,
00001000
00000000
00001000
00000001
00001000
00000000
00000000
00000000
,
00000100
00001000
00000001
00000100
,
00000010
00000000
00000010
00000000
00010000
00001000
00000100
00000000
,
00010000
01000000
00100000
00100000
,
00010000
00010000
10000000
11000000
,
00010000
01000000
00100000
10000000
00000000
01000000
00001000
00000000
,
00000000
00000000
00000000
00000000
,
00010000
00000100
00001000
00000100
00000000
00000010
00000001
00000000
,
00000000
00000000
00000000
00000000
,
00001000
00000010
00000100
00000001
00000000
00000100
00010000
00000000
,
00000000
00000000
00000000
00000000
,
00001000
00001000
00001000
00001000
00000000
00100000
00010000
00000000
,
00000000
00000000
00000000
00000000
,
01000000
00100000
10000000
00100000
00000000
01000000
00010000
00100000
,
00000000
01000000
10000000
01000000
00000000
00000000
00000000
00000000
,
00100000
00010000
01000000
00001000
00000000
00010000
00001000
00000100
,
00000000
00000010
00000000
00000010
00000000
00000000
00000000
00000000
,
00001000
00001000
00001000
00001000
00000000
00000001
00000010
00000100
,
00000000
00001000
00000010
00001000
00000000
00000000
00000000
00000000
,
00000001
00000100
00001000
00000100
00000000
00000010
00001000
00000000
,
00011000
00000000
00000000
00000000
,
00110000
00000000
01000000
01000000
,
00100000
00100000
10000000
00010000
,
20000000
00000000
00000000
00020000
30000000
00000000
00000000
00000000
,
00130000
00001000
00010000
00000000
,
00001010
00000000
00000100
00000100
,
00000001
00000001
00001000
00000100
,
00000010
00000010
00000010
00000100
,
00010000
00000000
00001000
01000000
00100000
00000000
00000000
00000000
,
10100000
00000000
00110000
00000000
,
00100000
00100000
00100000
00000000
,
00011000
00001100
00000110
00000000
,
00000010
00001000
00000010
00000000
00000100
00000000
00000000
00000000
,
00000011
00000000
00001010
00000000
,
00000001
00001000
00000100
00010000
,
00011000
01100000
11000000
01000000
,
10000000
00000000
00100000
00000000
01000000
00010000
01000000
00000000
,
00001000
00010000
00000100
00000100
,
00001000
00000001
00000010
00000010
,
00000100
00001000
00000100
00000010
,
00000001
00000100
00001000
00010000
,
00100000
10000000
01000000
00100000
,
10000000
00000000
00010000
00000000
00100000
00010000
01000000
00000000
,
00001000
00010000
00000100
00000010
,
00001000
00001000
00001000
00000000
,
00000010
00000100
00000001
00001000
,
00000100
00010000
00001000
00001000
,
00100000
00010000
01000000
01000000
,
00100000
10000000
01000000
01000000
,
00100000
00010000
00100000
00001000
,
00010000
00000000
00000100
00000000
00001000
00000010
00000100
00000000
,
00000010
00001000
00000100
00000010
,
00000001
00000000
00001000
00000000
00000100
00010000
00001000
00000000
,
00022000
00000000
00000000
00000000
,
00000000
00000000
00000000
00033000
;

//---------------dance-double - ----------------
#NOTES:
     dance-double:
     :
     Hard:
     9:
     :
00000000
00000000
00000000
00000000
,
00000000
00000000
00000000
00000000
,
00000000
00000000
00000000
00000000
,
00000000
00000000
00000000
00000000
,
00000000
00000000
00000000
00000000
,
00001000
00000010
00000110
00000000
00000001
00000100
00000110
00000000
,
00000010
00001000
00001010
00000000
00010000
00001000
00100000
00000000
,
00010000
01000000
01010000
00000000
00100000
10000000
11000000
00000000
,
00100000
00010000
01000000
00000000
00100000
01000000
00001000
00000000
,
00010000
01000000
00100000
00010000
00100000
00001000
00010000
00000100
,
00001000
00000010
00000100
00000001
00000010
00000001
00000010
00000001
,
00001000
00000100
00000001
00000100
00001000
00000010
00000100
00000001
,
00000100
00001000
00010000
01000000
00100000
10000000
00010000
00100000
,
00010000
00100000
00010000
01000000
00100000
10000000
01000000
00010000
,
00000100
00000010
00000001
00001000
00000001
00001000
00000100
00001000
,
00000010
00000100
00000001
00001000
00000010
00010000
00001000
00010000
,
01000000
10000000
00100000
10000000
00010000
10000000
10010000
00000000
,
00110000
10100000
01100000
00110000
,
00011000
00000000
00110000
00000000
00100000
00001000
00010000
00000000
,
00011000
00000110
00000011
00001001
,
00001010
00000000
00000101
00000000
00001100
00000100
00010100
00000000
,
00010000
00001000
00000100
00000010
00000000
00010000
00001000
00100000
,
00000000
00120000
00030000
20100000
30000000
00000000
01000000
00100000
,
10000000
00010000
01000000
00200000
00000000
01300000
00200000
00000000
,
00000000
00000000
00000000
00300000
00000000
10000000
01000000
00010000
,
00001000
00000010
00000001
00001000
00000000
00000010
00000100
00000001
,
00000000
00001010
00000000
00001010
00000000
00000010
00001000
00000100
,
00000010
00001000
00000010
00000200
00000000
00000301
00000200
00000000
,
00000000
00000000
00000000
00000000
00000000
00000300
00000101
00000000
,
00000010
00001000
00000100
00010000
00000000
00001000
01000000
00100000
,
00000000
20100000
30000000
21000000
30000000
00100000
01000000
00100000
,
00010000
10000000
00010000
00200000
00000000
00301000
00200000
00000000
,
00000000
00000000
00000000
00000000
00000000
00000000
00000000
00000000
00300000
00000000
00001000
00010000
00001000
00000000
00010000
00000000
,
00000100
00000100
00001000
00000010
00000000
00000100
00000010
00000100
,
00000000
00000101
00000000
00000101
00000000
00001000
00000100
00000010
,
00000100
00010000
00001000
01000000
00000000
00100000
20000000
00000000
,
00000000
00000000
00000000
30000000
,
00100000
10000000
01000000
00100000
,
00010000
10000000
00100000
00000000
01000000
00001000
00010000
00000000
,
00000100
00001000
00000010
00001000
,
00000100
00000010
00000001
00000000
00000100
00000001
00000011
00000000
,
00001100
00011000
01100000
11000000
,
00110000
00000000
01010000
00000000
00010000
00100000
00001000
00000000
,
00011000
10010000
11000000
01010000
,
00110000
00000000
00200000
00000000
00001000
00010000
00301000
00000000
,
00022000
00000000
00000000
00033000
00011000
00000000
00000000
00000100
,
00000000
00000010
00000000
00000100
00000000
00000000
00001000
00000000
,
00001001
00000000
00001001
00000000
00000011
00000000
00000000
00001000
,
00000000
00000010
00000100
00001000
01000000
00100000
10000000
00000000
,
10100000
00000000
00110000
00000000
10010000
00000000
00000000
10000000
,
00000000
01000000
00000000
00000000
00100000
00010000
01000000
00000000
,
01010000
00000000
00011000
00000000
00001010
00000000
00000000
00001000
,
00000000
00000001
00000000
00000000
00000010
00000000
00000011
00000000
,
00000001
00000100
00001000
00000100
00000001
00001000
00000100
00000010
,
00000100
00010000
00001000
00100000
00010000
01000000
00100000
10000000
,
00100000
01000000
00010000
10000000
01000000
00100000
00010000
00001000
,
00000100
00000010
00000001
00000100
00000010
00000100
00000001
00000010
,
00000100
00001000
00000010
00000100
00000010
00001000
00000100
00000010
,
00000001
00001000
00000100
00010000
00001000
01000000
00100000
01000000
,
00010000
00100000
01000000
10000000
01000000
00100000
00010000
00100000
,
00010000
10000000
00010000
01000000
00100000
10000000
10100000
00000000
,
10000000
01000000
00001000
00000100
,
00000010
00000000
00000001
00000000
00000100
00000010
00001000
00000000
,
00000100
00000010
00000100
00010000
00001000
00010000
00001000
01000000
,
00100000
10000000
01000000
00100000
00110000
00000000
00110000
00000000
,
10100000
10000000
00010000
00100000
01000000
00100000
00010000
01000000
,
00001000
00010000
00000100
00001000
00000100
00000010
00000001
00001000
,
00000010
00000100
00000001
00001000
00000100
00001000
00000010
00000100
,
00000010
00010000
00001000
00010000
01000000
00100000
00010000
10000000
,
00200000
00000000
00000000
00000000
00000000
00000000
00000000
00000000
00000000
02000000
00000000
00000000
00000000
00000000
00000000
00000000
,
00000000
00000000
00000000
03300000
;
