#TITLE:Listen To Your Heart (Furious F. EZ Radio Edit);
#ARTIST:D.H.T. feat Edmée;
#BANNER:Listen To Your Heart (Furious F EZ Radio Edit).png;
#BACKGROUND:Listen To Your Heart (Furious F EZ Radio Edit)-bg.png;
#CDTITLE:./CDTITLES/Dance Dance Revolution ULTRAMIX4.png;
#MUSIC:Listen To Your Heart (Furious F EZ Radio Edit).ogg;
#SAMPLESTART:52.995;
#SAMPLELENGTH:15;
#DISPLAYBPM:145;
#BPMS:0=144.75,4=145;
#BGCHANGES:4=Listen To Your Heart (Furious F EZ Radio Edit).avi=1=0=0=0,228=Listen To Your Heart (Furious F EZ Radio Edit)-bg.png=1=0=0=1;

//---------------dance-single - ----------------
#NOTES:
     dance-single:
     :
     Beginner:
     1:
     :
0000
0000
0000
0000
,
0000
0000
0000
0000
,
0000
0000
0000
0000
,
0000
0000
0000
0000
,
0000
0000
0000
0000
,
0100
0000
0000
0100
,
0000
0000
0000
0000
,
0001
0000
0000
0001
,
0000
0000
0000
0000
,
1001
0000
0000
0000
,
0100
0000
0000
0000
,
0001
0000
0000
1000
,
0000
0000
0000
0000
,
0110
0000
0000
0000
,
0100
0000
0000
0000
,
0010
0000
0000
0010
,
0000
0000
0000
0000
,
1000
0000
0001
0000
,
1000
0000
0000
0000
,
0001
0000
0100
0000
,
0001
0000
0000
0000
,
1000
0000
0000
0001
,
0000
0000
0000
0000
,
0200
0000
0000
0300
,
0000
0000
0000
0000
,
1001
0000
0000
0000
,
0010
0000
0000
0000
,
0100
0000
0000
0000
,
0001
0000
0000
1000
,
1000
0000
0000
0010
,
0010
0000
0000
0100
,
0100
0000
0000
0010
,
0010
0000
0000
1000
,
1000
0000
0001
0000
,
1000
0000
0000
0000
,
0001
0000
0100
0000
,
0001
0000
0000
0000
,
1000
0000
0001
0000
,
1000
0000
0000
0000
,
0001
0000
0100
0000
,
0001
0000
0000
0000
,
0001
0000
0000
0100
,
0000
0000
0000
0000
,
0010
0000
0000
1000
,
0000
0000
0000
0000
,
0001
0000
0000
1001
,
0000
0000
0000
0000
,
0010
0000
0010
0000
,
0100
0000
0100
0000
,
0110
0000
0000
0001
,
0000
0000
0000
0000
,
1001
0000
0000
1000
,
0000
0000
0000
0000
,
1001
0000
0000
0001
,
0000
0000
0000
0000
,
1001
0000
0000
1000
,
0000
0000
0000
0000
,
0010
0000
0000
0000
;

//---------------dance-single - ----------------
#NOTES:
     dance-single:
     :
     Easy:
     3:
     :
0000
0000
0000
0000
,
0000
0000
0000
0000
,
0000
0000
0000
0000
,
0000
0000
0000
0000
,
0000
0000
0000
0000
,
1000
0000
0000
0002
,
0000
0000
0003
0000
,
1000
0000
0000
0200
,
0000
0000
0300
0000
,
0100
1000
0001
0000
,
0100
0000
0001
0000
,
1000
0001
1000
0001
,
0000
0000
0000
0000
,
0100
0001
1000
0000
,
0100
0000
1000
0000
,
0001
1000
0001
1000
,
0000
0000
0000
0000
,
1000
0001
0010
0000
,
0010
0000
1000
0000
,
0100
0010
0100
0010
,
0000
0000
0001
0100
,
1000
0100
0000
0001
,
0000
1000
0100
1000
,
0000
0000
0002
0003
,
2000
3000
0200
0300
,
0020
0000
0030
0010
,
0002
0003
1000
0100
,
1000
0000
0001
0100
,
0001
0000
1000
0010
,
1000
0000
0001
0010
,
0001
0000
0100
0010
,
0100
0000
0001
1000
,
0001
0000
1000
0100
,
0001
0100
2000
3000
,
0002
0003
0200
0300
,
0010
1000
0100
0010
,
0000
0000
0001
0100
,
2000
3000
0200
0300
,
0002
0003
0010
0001
,
0100
1000
0100
0010
,
0000
0000
1000
0100
,
0001
0100
0010
0001
,
0100
0000
0000
1000
,
0100
0001
0100
1000
,
0000
0000
0010
0001
,
0100
1000
0100
0020
,
0000
0030
1000
0200
,
0000
0000
0300
0100
,
0020
0030
0002
0003
,
2000
0000
3000
0200
,
0300
0002
0000
0003
,
0200
0300
1000
0020
,
0000
0000
0000
0030
,
0010
1000
0100
0002
,
0000
0000
0003
0001
,
0200
0300
1000
0002
,
0000
0000
0003
0000
,
0100
0000
0000
0000
;

//---------------dance-single - ----------------
#NOTES:
     dance-single:
     :
     Medium:
     5:
     :
0000
0000
0000
0000
,
0000
0000
0000
0000
,
0000
0000
0000
0000
,
0000
0000
0000
0000
,
0000
0000
0000
0000
,
2000
0000
0000
3002
,
0000
0000
0103
0010
,
0200
0000
0000
0302
,
0000
0000
0000
0003
,
0100
1000
0100
0010
,
0001
0100
0100
0010
,
0100
1000
0100
0020
,
0000
1000
1000
1030
,
0100
0001
0100
0010
,
0001
0100
1000
0100
,
0010
1000
0010
0002
,
0000
0010
0010
0013
,
1000
0100
0010
0000
0100
0000
0010
0000
,
0100
1000
0100
0000
0010
0000
0001
0000
,
1000
0100
0010
0002
,
0000
0000
0000
0000
1003
0100
0010
0100
,
1000
0200
0000
0000
0000
0000
0310
0000
,
0000
0001
1000
0002
,
0000
0000
0100
0000
,
0010
0000
0103
0000
,
0100
0001
2000
0000
3020
0000
2030
0000
,
3100
0010
0002
0000
0203
0000
0302
0000
,
1003
0010
0200
0000
0320
0000
0230
0000
,
0301
1000
0020
0000
2030
0000
3001
0100
,
0010
1000
0200
0000
0320
0000
0031
1000
,
0010
0100
0002
0000
2003
0000
3001
0100
,
0001
1000
0200
0000
0320
0000
0130
1000
,
0010
1000
0002
0000
2003
0000
3200
0000
,
1300
1100
0001
0101
,
0010
0110
0100
1001
,
0100
0100
0010
0020
,
0000
0000
1030
0002
,
1003
1100
0001
0101
,
0010
0110
0100
1001
,
0001
0001
1000
2000
,
0000
3001
0100
0010
,
1000
0001
1000
0001
1000
0000
0100
0000
,
0000
1000
0010
0100
,
0001
1000
0001
1000
0001
0000
0100
0000
,
0000
0001
1000
0010
,
0100
0010
0100
0000
0001
0000
1000
0000
,
0010
0100
0010
0000
1000
0000
0001
0000
,
0100
0001
1000
0010
,
1000
0100
0001
0000
1000
0100
0001
0000
,
0200
0000
1300
0002
,
0000
2003
0000
3010
,
0200
0000
0310
2000
,
0000
0000
0000
3000
,
0001
1000
0001
0000
0100
0000
0020
0000
,
0000
0000
0000
0000
0030
0000
1000
0010
,
0200
0300
0001
1000
,
0000
0001
0100
0000
0000
0000
0000
0000
,
1001
0000
0000
0000
;

//---------------dance-single - ----------------
#NOTES:
     dance-single:
     :
     Hard:
     7:
     :
0000
0000
0000
0000
,
0000
0000
0000
0000
,
0000
0000
0000
0000
,
0000
0000
0000
0000
,
0000
0000
0000
0000
,
0010
0100
1000
0010
0100
0000
0010
0000
,
0000
0001
0000
0010
0000
0100
0000
0010
,
1000
0100
1000
0010
1000
0000
0100
0000
,
0000
0010
0000
0001
0000
0100
0000
0000
,
0010
1000
0100
0000
1000
0000
0010
0100
,
0001
0010
0100
0000
0002
0000
0203
0000
,
0302
0203
2300
3020
,
0000
0200
0030
0000
0001
0000
0301
0000
,
0100
1000
0100
0000
0001
0000
0010
0100
,
0010
0001
0100
0000
2000
0000
3200
0000
,
2300
3200
0302
0023
,
0000
0200
0030
0000
1000
0000
1300
0000
,
0100
0010
0001
0010
0200
0000
2300
0000
,
3010
1000
0100
1000
0020
0000
0230
0000
,
0301
0010
0100
0010
0002
0000
0203
0000
,
1300
0100
0010
0100
2000
0000
3200
0000
,
0301
0010
0100
0010
0001
0100
2000
0000
,
0000
3200
0302
0023
,
0031
1000
0000
0100
1000
0010
0000
0100
,
0001
0010
0000
0100
1000
0010
1000
0000
,
0200
1000
2300
0010
,
3020
0001
0032
0010
,
0023
1000
2030
0001
,
3002
0100
0203
0010
,
0310
1000
0000
1000
0000
0010
0100
0000
0100
0000
0001
0000
0100
0000
1000
0000
,
0100
0001
0000
0001
0000
1000
0100
0000
0100
0000
0010
0000
0001
0000
0010
0000
,
0100
0001
0000
0001
0000
0100
1000
0000
1000
0000
0010
0000
0100
0000
0010
0000
,
1000
0100
0000
0100
0000
0010
0001
0000
1001
0000
0000
0000
0000
0000
0000
0000
,
0010
0001
0100
0001
0010
0001
0100
0001
,
1000
0010
1000
0100
1000
0010
1000
0000
,
0010
0100
0000
0000
0001
0000
1000
0000
0010
0100
0000
0000
0001
0000
1000
0000
,
0100
1000
0000
0000
0001
0000
0010
0000
0100
1000
0000
0000
0110
0000
0000
0000
,
1000
0100
0001
0100
1000
0100
0001
0100
,
0010
0001
0100
0001
0010
0001
0100
0000
,
0001
1000
0000
0000
0010
0000
0100
0000
0001
1000
0000
0000
0010
0000
0100
0000
,
0001
0100
0000
0000
0010
0000
1000
0000
0001
0100
0000
0000
1001
0000
0000
0000
,
0001
0100
0001
0100
0001
0000
1000
0000
0100
0000
0100
0000
0002
0000
0000
0000
,
0000
0000
0203
0000
2300
0000
3020
0030
,
1000
0100
1000
0100
1000
0000
0001
0000
0100
0000
0100
0000
2000
0000
0000
0000
,
0000
0000
3200
0000
0301
0010
0001
0100
,
1000
0200
0000
0000
0000
0000
0320
0000
,
0000
0000
1030
0101
,
1000
0010
0100
0010
1000
0100
0010
0100
,
1000
0001
0100
1000
0100
0001
1000
0000
,
0002
0203
2300
3020
,
0000
0032
0000
0023
,
2030
0000
3200
0302
,
0000
0000
0000
0003
,
1000
0010
1000
0100
1000
0010
0200
0000
,
0000
0000
0000
0000
0300
0000
0001
0100
,
0020
0000
2030
3200
,
0000
0310
0002
0000
0000
0000
0013
0000
,
1001
0000
0000
0000
;

//---------------dance-double - ----------------
#NOTES:
     dance-double:
     :
     Beginner:
     1:
     :
00000000
00000000
00000000
00000000
,
00000000
00000000
00000000
00000000
,
00000000
00000000
00000000
00000000
,
00000000
00000000
00000000
00000000
,
00000000
00000000
00000000
00000000
,
00000100
00000000
00000000
00001000
,
00000000
00000000
00000000
00000000
,
01000000
00000000
00000000
00010000
,
00000000
00000000
00000000
00000000
,
00011000
00000000
00000000
00000000
,
00000100
00000000
00000000
00000000
,
00000001
00000000
00000000
00000010
,
00000000
00000000
00000000
00000000
,
00000100
00000000
00000000
00000000
,
00001000
00000000
00000000
00000000
,
00010000
00000000
00000000
01000000
,
00000000
00000000
00000000
00000000
,
00100000
00000000
10000000
00000000
,
01000000
00000000
00010000
00000000
,
00001000
00000000
00000100
00000000
,
00000001
00000000
00000000
00000000
,
00000100
00000000
00000000
00001000
,
00000000
00000000
00000000
00000000
,
00011000
00000000
00000000
00000000
,
01000000
00000000
00000000
00000000
,
10010000
00000000
00000000
00000000
,
00001000
00000000
00000000
00000000
,
00011000
00000000
00000000
00000000
,
00000100
00000000
00000000
00000000
,
00001001
00000000
00000000
00000000
,
00001000
00000000
00000000
00000000
,
00011000
00000000
00000000
00000000
,
01000000
00000000
00000000
00000000
,
00020000
00000000
00030000
00010000
,
00000000
00000000
00000000
00000000
,
00000100
00000000
00000100
00000000
,
00001000
00000000
00000000
00000000
,
00020000
00000000
00030000
00010000
,
00000000
00000000
00000000
00000000
,
01000000
00000000
01000000
00000000
,
10000000
00000000
00000000
00000000
,
00020000
00000000
00000000
00030000
,
00000000
00000000
00000000
00000000
,
00002000
00000000
00000000
00003000
,
00000000
00000000
00000000
00000000
,
00000200
00000000
00000300
00000100
,
00000000
00000000
00000000
00000000
,
00000001
00000000
00000001
00000000
,
00000100
00000000
00001000
00000000
,
00020000
00000000
00000000
00030000
,
00000000
00000000
00000000
00000000
,
00002000
00000000
00000000
00003000
,
00000000
00000000
00000000
00000000
,
02000000
00000000
00000000
03000000
,
00000000
00000000
00000000
00000000
,
00002000
00000000
00000000
00003000
,
00000000
00000000
00000000
00000000
,
00011000
00000000
00000000
00000000
;

//---------------dance-double - ----------------
#NOTES:
     dance-double:
     :
     Easy:
     3:
     :
00000000
00000000
00000000
00000000
,
00000000
00000000
00000000
00000000
,
00000000
00000000
00000000
00000000
,
00000000
00000000
00000000
00000000
,
00000000
00000000
00000000
00000000
,
20000000
00000000
30000000
00010000
,
00000000
00000000
00000000
00000000
,
00002000
00000000
00003000
00100000
,
00000000
00000000
00000000
00000000
,
00001000
00000100
00000100
00000001
,
00000001
00000010
00000001
00000100
,
00000100
00001000
00001000
00020000
,
00000000
00030000
00000000
00000000
,
01000000
10000000
10000000
01000000
,
01000000
00010000
01000000
00010000
,
00010000
00001000
00001000
00000200
,
00000000
00000300
00000000
00000000
,
00000001
00000100
00000001
00000000
,
00001000
00000100
00001000
00000000
,
00010000
01000000
10000000
00100000
,
00000000
00000000
00010000
10000000
,
02000000
00000000
03000000
00010000
,
00000000
00000000
00001000
00000000
,
00010000
00000000
00001000
00000000
,
00000100
00000000
00000000
00000000
,
00000001
00001000
00000200
00000300
,
00000002
00000003
00000200
00000300
,
00010000
00001000
00020000
00030000
,
02000000
03000000
20000000
30000000
,
00100000
10000000
02000000
03000000
,
00010000
00001000
00020000
00030000
,
00001000
00000100
00000002
00000003
,
00000010
00000100
00000020
00000030
,
00000010
00000001
00000100
00002000
,
00000000
00003000
00010000
00001000
,
00010000
01000000
10000000
00200000
,
00000000
00300000
10000000
10000000
,
00100000
10000000
01000000
00020000
,
00000000
00030000
00001000
00010000
,
00001000
00000100
00000001
00000020
,
00000000
00000030
00000001
00000100
,
00001000
00010000
00001000
00000200
,
00000000
00000300
00000000
00001000
,
00010000
01000000
00010000
00002000
,
00000000
00003000
00010000
00001000
,
00010000
01000000
10000000
00200000
,
00000000
00300000
10000000
00010000
,
00000000
01000000
00001000
00010000
,
00001000
00010000
00001000
00000100
,
00000002
00000003
00001000
00000200
,
00000300
00020000
00030000
00001000
,
00020000
00030000
01000000
20000000
,
00000000
00000000
00000000
30000000
,
00100000
10000000
01000000
00020000
,
00000000
00000000
00030000
00001000
,
00000200
00000300
00000001
00000020
,
00000000
00000000
00000000
00000030
,
00000100
00000000
00000000
00000000
;

//---------------dance-double - ----------------
#NOTES:
     dance-double:
     :
     Medium:
     5:
     :
00000000
00000000
00000000
00000000
,
00000000
00000000
00000000
00000000
,
00000000
00000000
00000000
00000000
,
00000000
00000000
00000000
00000000
,
00000000
00000000
00000000
00000000
,
00002000
00000000
00003000
00100000
,
00000000
00000000
10000000
00010000
,
00200000
00000000
00300000
00002000
,
00000000
00000000
00000000
00003000
,
00100000
10000000
00010000
00100000
,
00001000
00001000
00000010
00000001
,
00000100
00001000
00000100
00010100
,
00000000
00000000
00000000
00000000
00000000
00000000
00000100
00001000
,
00010000
00100000
10000000
00100000
,
00010000
00001000
00000010
00000001
,
00001000
00000100
00010000
00011000
,
00000000
00000000
00101000
00000000
,
00010000
01000000
10000000
00000000
00100000
00000000
00010000
00000000
,
00100000
10000000
01000000
00000000
00010000
00000000
00001000
00000000
,
00000100
00000001
00000010
00000000
00000001
00000000
00000100
00000000
,
00000000
00000000
00000000
00000010
00000001
00000100
00001000
00010000
,
01000000
10000000
00000000
00000000
00000000
00000000
10010000
00000000
,
00000000
00100000
00010000
00002000
,
00000000
00000000
00000000
00000000
,
00000000
00000000
00000000
00003000
,
00010000
01000000
10000000
00000000
01000000
00000000
00000000
00010000
,
00001000
00010000
00001000
00000000
00000100
00000000
00000000
00000001
,
00000010
00000001
00000100
00000000
00001000
00000000
00000000
00010000
,
00001000
00010000
00001000
00000000
00000100
00000000
00000000
00001000
,
00010000
01000000
00010000
00000000
01000000
00000000
00000000
10000000
,
00100000
10000000
01000000
00000000
00010000
00000000
00000000
00001000
,
00010000
00001000
00010000
00000000
01000000
00000000
00000000
00010000
,
00001000
00000100
00001000
00000000
00000100
00000001
00000100
00000001
,
00000100
00000001
00000100
00000010
,
00001000
00000100
00000100
00000100
,
00010000
00001000
01000000
00010000
,
00000000
00000000
00000000
00000000
00100000
10000000
00100000
10000000
,
00100000
10000000
01000000
00010000
,
00001000
00000000
00000000
00010000
00001000
00010000
00000000
00000000
,
00001000
00000100
00000001
00000010
,
00000000
00000000
00001000
00000001
,
00001000
00000100
00010000
00001000
00010000
00001000
00010000
00000000
,
00000000
00001000
01000000
00100000
,
10000000
00010000
01000000
00100000
01000000
00100000
01000000
00000000
,
00000000
00000000
00010000
00000000
00100000
00010000
00100000
00010000
,
00100000
00001000
00010000
00001000
,
00000000
00000100
00000001
00000100
,
00000000
00000001
00000100
00001000
,
00010000
00000000
00010000
00000000
00000100
00000010
00000100
00000010
,
00000100
00001000
00000001
00002000
,
00003000
00000200
00000300
00010000
,
00020000
00030000
01000000
02000000
,
00000000
00000000
00000000
03000000
,
00001000
00010000
00001000
00010000
00001000
00000000
00020000
00000000
,
00000000
00000000
00000000
00000000
00030000
00000000
00001000
00000100
,
00002000
00003000
00000100
00000100
,
00000000
00000001
00000100
00000000
00000000
00000000
00000000
00000000
,
00000110
00000000
00000000
00000000
;

//---------------dance-double - ----------------
#NOTES:
     dance-double:
     :
     Hard:
     7:
     :
00000000
00000000
00000000
00000000
,
00000000
00000000
00000000
00000000
,
00000000
00000000
00000000
00000000
,
00000000
00000000
00000000
00000000
,
00000000
00000000
00000000
00000000
,
00100000
10000000
01000000
00010000
00001000
00000100
00000001
00000000
,
00000000
00000200
00002300
00023000
,
01030000
00100000
00010000
01000000
00100000
00010000
00001000
00000000
,
00000000
00000200
00002300
00023000
,
01030000
10000000
00100000
00000000
01000000
00000000
01001000
00000000
,
00010000
00011000
00000100
00000110
,
00001000
00000001
00001000
00000100
00010000
00000000
00001000
00000000
,
00000000
00020000
00230000
20300000
,
30010000
10000000
01000000
00000000
00100000
00000000
00101000
00000000
,
00010000
00010100
00001000
00001010
,
00001000
00000001
00001000
00000100
00010000
00000000
00001000
00000000
,
00000000
00000020
00000032
00000203
,
00001300
00010000
01000000
00010000
00001000
00000100
00001000
00010000
,
01000000
10000000
10100000
11000000
,
01000000
00010000
00001000
00000100
00001000
00010000
01000000
00010000
,
00001000
00000100
00000011
00000101
,
00000100
00000001
00001000
00000100
00010000
00000000
00001000
00000000
,
00000000
00020000
02030000
03200000
,
00000000
00010000
00000000
01000000
00000000
00010000
00000000
00001000
,
00000000
00310000
00000000
01000000
00010000
10000000
00010000
10000000
,
01000000
10000000
00000000
00100000
00000000
10000000
01000000
00000000
01000000
00000000
00000000
00000000
00000000
00000000
00000000
00000000
,
00001000
00010000
00000000
00001000
00000000
00000100
00000001
00000000
00000001
00000000
00000000
00000000
00000000
00000000
00000000
00000000
,
00000100
00000001
00000000
00000010
00000000
00000001
00000100
00000000
00000100
00000000
00000000
00000000
00000000
00000000
00000000
00000000
,
00010000
00001000
00000000
00010000
00000000
00100000
10000000
00000000
10000000
00000000
00000000
00000000
00000000
00000000
00000000
00000000
,
00010000
00100000
00000000
00001000
00000000
00010000
00001000
00000000
00010000
00000000
00000000
00000000
00000000
00000000
00000000
00000000
,
00000010
00000001
00000000
00001000
00000000
00000100
00001000
00000000
00000100
00000000
00000000
00000000
00000000
00000000
00000000
00000000
,
00010000
00001000
00000000
01000000
00000000
00100000
01000000
00000000
00100000
00000000
00000000
00000000
00000000
00000000
00000000
00000000
,
10000000
01000000
00000000
00010000
00000000
00001000
00010000
00000000
00001000
00000000
00000000
00000000
00000000
00000000
00000000
00000000
,
00010000
00001000
00000100
00000010
00001000
00000100
00000010
00001000
,
00010000
00001000
00010000
01000000
00100000
00010000
01000000
00100000
,
00010000
00100000
00000000
00100000
01000000
00000000
00000000
00000000
01000000
10000000
00000000
10000000
01000000
00000000
00000000
00000000
,
00020000
20030000
32000000
03020000
,
00031000
00010000
00100000
01000000
00010000
00100000
01000000
00010000
,
00001000
00010000
00001000
00000100
00000010
00001000
00000100
00000010
,
00000001
00000010
00000000
00000010
00000100
00000000
00000000
00000000
00000100
00001000
00000000
00001000
00000100
00000000
00000000
00000000
,
00000020
00000032
00000203
00002300
,
00013000
01000000
00000000
10000000
01000000
00000000
00010000
00000000
00001000
00000000
00010000
00000000
01000000
00000000
00000000
00000000
,
00000000
20000000
32000000
03020000
,
00031000
00000100
00000000
00000001
00000100
00000000
00001000
00000000
00010000
00000000
01000000
00000000
00010000
00000000
00000000
00000000
,
00000000
00000000
00001000
00000000
00000100
00000001
00000100
00001000
,
00010000
01000000
00010000
00001000
00000010
00001000
00010000
00100000
,
10000000
01000000
10000000
00100000
10000000
01000000
00010000
00001000
,
00000100
00000001
00000010
00000001
00000100
00000001
00000010
00000000
,
00000100
00010000
00001000
00000000
00010000
00100000
10000000
01000000
,
00010000
00002000
00003200
00002300
,
00000000
00023000
00000000
00230000
,
20300000
00000000
30020000
00230000
,
00000000
00000000
00000000
00300000
,
00001000
00000100
00000010
00001000
00000100
00000010
00000002
00000000
,
00000000
00000000
00000000
00000000
00000000
00000000
00000103
00001000
,
00020000
00000000
00032000
00003200
,
00000000
00001300
00020000
00000000
00000000
00000000
00030000
00000000
,
00011000
00000000
00000000
00000000
;
