#TITLE:Levitation Nation;
#ARTIST:Shpongle;
#BANNER:Levitation Nation.png;
#BACKGROUND:Levitation Nation-bg.png;
#CDTITLE:./CDTITLES/Dance Dance Revolution ULTRAMIX4.png;
#MUSIC:Levitation Nation.ogg;
#SAMPLESTART:37.315;
#SAMPLELENGTH:15;
#DISPLAYBPM:135;
#BPMS:0=135,80=134.986;

//---------------dance-single - ----------------
#NOTES:
     dance-single:
     :
     Beginner:
     1:
     :
0000
0000
0000
0000
,
0000
0000
0000
0000
,
0000
0000
0000
0000
,
0000
0000
0000
0000
,
1000
0000
0001
0000
,
1000
0000
0000
0000
,
0010
0000
0100
0000
,
0010
0000
0100
0000
,
0001
0000
0000
0000
,
1000
0000
0000
0000
,
0001
0000
0000
0000
,
1000
0000
0000
0000
,
0001
0000
0001
0000
,
1000
0000
1000
0000
,
0001
0000
0001
0000
,
1000
0000
1000
0000
,
0010
0000
0000
0000
,
0100
0000
0000
0000
,
0010
0000
0000
0000
,
0100
0000
0000
0000
,
0001
0000
1000
0000
,
0001
0000
1000
0000
,
0100
0000
0100
0000
,
0010
0000
0010
0000
,
0002
0000
0000
0003
,
0000
0000
0000
0000
,
2000
0000
0000
3000
,
0000
0000
0000
0000
,
0010
0000
0010
0000
,
0010
0000
0000
0000
,
0100
0000
0100
0000
,
0100
0000
0000
0000
,
0001
0000
0001
0000
,
1000
0000
1000
0000
,
0010
0000
0010
0000
,
0100
0000
0100
0000
,
0000
0001
0000
0001
,
0000
0010
0000
0010
,
0000
0100
0000
0100
,
0000
1000
0000
0000
,
0001
0000
0000
0000
,
1000
0000
0000
0000
,
0010
0000
0100
0000
,
0001
0000
0100
0000
,
0010
0000
0000
0000
,
1000
0000
0000
0000
,
0100
0000
0010
0000
,
0001
0000
0010
0000
,
0100
0000
0100
0000
,
1000
0000
0000
0000
,
0001
0000
0001
0000
,
0100
0000
0000
0000
,
0001
0000
0001
0000
,
1000
0000
1000
0000
,
0100
0000
0010
0000
,
0001
0000
1000
0000
,
1001
0000
0000
0000
;

//---------------dance-single - ----------------
#NOTES:
     dance-single:
     :
     Easy:
     2:
     :
0000
0000
0000
0000
,
0000
0000
0000
0000
,
0000
0000
0000
0000
,
0000
0000
0000
0000
,
0000
0000
0000
0000
,
0100
0100
0100
0000
,
1000
0000
0001
0000
,
0100
0000
0010
0000
,
1000
0001
1000
0001
,
0200
0000
0300
0000
,
0001
0000
1000
0000
,
0200
0000
0300
0000
,
1000
0000
0010
0100
,
0020
0000
0030
0000
,
0100
0000
0001
0000
,
2000
0000
3000
0000
,
0001
0000
0010
0100
,
1000
0000
0010
0000
,
0001
0000
0010
0000
,
1000
0000
0100
0000
,
0001
0000
0100
1000
,
0001
0000
0100
0000
,
1000
0000
0100
0000
,
0001
0000
0010
0000
,
1000
0000
0010
0001
,
0200
0000
0300
0001
,
1000
0000
1000
0000
,
0001
0000
0001
0000
,
0020
0000
0030
0001
,
1000
0000
1000
0000
,
0001
0000
0001
0000
,
0200
0000
0300
0010
,
0020
0000
0030
1000
,
1000
0000
0100
0000
,
0010
0000
0001
0000
,
1000
0001
1000
0000
,
0010
0000
0100
0010
,
0100
0000
0001
0000
,
0010
0000
0100
0000
,
1000
0000
0010
0000
,
0100
0000
0001
0000
,
2000
0000
0000
3000
,
0002
0000
0000
0003
,
0010
0000
0010
0000
,
0100
0000
0100
1000
,
0010
0000
0010
0000
,
0100
0000
0100
0001
,
0010
0000
0100
0000
,
1000
0000
0001
1000
,
0001
0001
0100
0000
,
0010
0010
1000
0000
,
0100
0100
1000
0000
,
0001
0000
0010
0100
,
1000
0000
0010
0000
,
0100
0000
0001
0001
,
0100
0000
0010
0000
,
1000
0000
0100
0100
,
0110
0000
0000
0000
;

//---------------dance-single - ----------------
#NOTES:
     dance-single:
     :
     Medium:
     5:
     :
0000
0000
0000
0000
,
0000
0000
0000
0000
,
0000
0000
0000
0000
,
0000
0000
0000
0000
,
0000
0000
0000
0000
,
1000
1000
1000
1000
,
0001
0001
0001
0001
,
1000
1000
0001
0001
,
0100
0000
0010
0000
1000
0010
0100
0001
,
1000
0100
1000
0100
,
0010
0001
0010
0001
,
1000
0010
1000
0010
,
0100
0001
0100
0200
0000
0000
0300
0010
,
1000
0001
1000
0001
,
0100
0010
0100
0010
,
1000
0001
1000
0001
,
1000
0100
1000
2000
0000
0000
3000
1000
,
0001
0001
0010
0010
,
0100
0100
0200
0300
,
1000
1000
0010
0010
,
0100
0000
0100
0000
0200
0000
0300
0001
,
1000
1000
0001
0001
,
0010
0010
0100
0100
,
1000
0010
0100
0001
,
0100
0000
0010
0000
1000
0001
1000
0001
,
2000
0000
3001
0101
,
0200
0000
0310
1010
,
2000
3000
0002
0003
,
2002
0000
3003
0110
,
0001
0001
1000
1000
,
0200
0300
0020
0030
,
0001
0100
1000
0100
,
0001
0000
0010
0000
0100
0010
0100
0000
,
0110
1000
0010
0100
,
0001
1000
0100
0001
,
0010
0001
0100
1000
,
0002
0003
2000
3000
,
0010
1000
0100
0010
,
0001
0100
1000
0010
,
1000
0100
0001
1000
,
0001
0000
1000
0000
0002
2000
0003
3000
,
0100
0010
1000
0010
,
0001
1000
0010
0001
,
0010
0010
0100
0100
,
0001
1000
0001
1000
,
0100
0001
0010
0001
,
0100
1000
0010
1000
,
0100
0100
0010
0010
,
1000
0100
1000
0000
0001
0100
0010
1000
,
0001
0001
0001
0110
,
1000
1000
1000
0110
,
1000
1100
0001
0101
,
1000
0010
0100
0001
,
0010
0010
0010
1001
,
0100
0100
0100
1001
,
0010
1010
0100
0101
,
0001
0000
1000
0000
0001
1000
0001
0000
,
1001
0000
0000
0000
;

//---------------dance-single - ----------------
#NOTES:
     dance-single:
     :
     Hard:
     8:
     :
0000
0000
0000
0000
,
0000
0000
0000
0000
,
0000
0000
0000
0000
,
0000
0000
0000
0000
,
0000
0000
0000
0000
,
1000
0000
0000
1000
0000
0000
1000
0000
0100
0000
0000
0000
1000
0000
0000
0000
,
0001
0000
0000
0001
0000
0000
0001
0000
0100
0000
0001
0000
1000
0000
0000
0000
,
0100
0000
0000
0100
0000
0000
0100
0000
0010
0000
0000
0010
0000
0000
0010
0000
,
0001
0000
0000
1000
0000
0000
0001
0000
0100
0000
0001
0000
0010
0000
0100
0000
,
1000
0000
0000
0010
0000
1000
0000
0001
0000
1000
0000
0000
0100
0000
0010
0000
,
0001
0000
0100
0000
0000
0010
0000
0100
0000
1000
0000
0000
0100
0000
0001
0000
,
0010
0000
0000
0100
0000
1000
0000
0010
0000
1000
0000
0000
0001
0000
0010
0000
,
0100
0000
1000
0000
0000
0010
0000
0100
0000
0001
0000
0010
0001
0000
0100
0000
,
0001
0000
0000
0010
0000
0001
0000
1000
0000
0001
0000
0000
0100
0000
0010
0000
,
1000
0000
0100
0000
0000
0010
0000
0100
0000
0001
0000
0000
0100
0000
1000
0000
,
0010
0000
0010
0000
0100
0000
0000
0001
0000
0100
0000
0010
0000
0000
1000
0000
,
0100
0000
0100
0000
0010
0000
0000
0001
0000
0000
0010
0000
0100
0000
1000
0000
,
0001
0000
1000
0000
0100
0000
0000
0000
0010
0000
0000
0100
0000
0000
1000
0000
,
0001
0000
1000
0000
0100
0000
0000
0000
0010
0000
0000
0100
0000
0000
1000
0000
,
0001
0000
1000
0000
0010
0000
0000
0000
0100
0000
0000
0010
0000
0000
1000
0000
,
0001
0000
1000
0000
0010
0000
0000
0000
0100
0010
0000
1000
0000
0000
0001
0000
,
0010
0000
0100
0000
1000
0100
0000
0000
0010
0000
0000
0001
0000
0000
0100
0000
,
0100
0000
0010
0000
1000
0010
0000
0000
0100
0000
0000
0001
0000
0000
0010
0000
,
0010
0000
0001
0000
1000
0100
0000
0000
0010
0000
0001
1000
0000
0000
0010
0000
,
0010
0100
0001
1000
0100
0010
0001
1000
,
0000
1000
0000
1000
0000
1000
0000
0001
,
0000
0001
0000
0001
1000
0010
0100
0001
,
0020
0000
0230
0000
,
2300
0001
3001
0110
,
1000
0000
0000
0001
0000
0000
1000
0000
1000
0000
0100
0000
0001
0000
0000
1000
,
0000
0000
0000
0001
0000
0000
0100
0000
0100
0000
0000
0000
1000
0000
0000
0000
,
0020
0130
0200
0301
,
1000
0000
0001
1000
0100
0010
0001
1000
,
0001
0000
0000
0000
1000
0000
0010
1000
0000
0100
0000
0010
0000
0001
0000
0100
,
0010
0000
0000
1000
0000
0010
0000
1000
0000
0010
0000
0100
0000
0000
0001
0000
,
0010
0001
0000
0000
0001
0010
0000
0000
0010
0100
0000
0000
0100
1000
0000
0000
,
1000
0100
0000
0000
0100
0010
0000
0000
0001
0000
0100
0010
0000
1000
0000
0001
,
0100
0010
1000
0010
0001
0010
0100
1000
,
0100
0001
0000
0100
0000
0010
0000
1000
0000
0100
0000
0001
0000
0100
0000
0010
,
0001
0000
0000
0001
0100
0000
0000
0100
1000
0000
0000
1000
0010
0000
0000
0000
,
0001
0100
1000
0010
0000
0200
0000
0000
,
1300
0000
0000
0000
0001
0000
0000
0000
0100
0000
0000
0001
0100
0000
0000
0000
,
0001
0000
0000
0000
1000
0000
0000
0000
0100
0000
0000
1000
0100
0000
0000
0000
,
0010
0000
0000
0000
0001
0000
0000
0000
0100
0000
0000
0010
0001
0000
0000
0000
,
0010
0000
0000
0000
1000
0000
0000
0000
0100
0000
0000
0010
1000
0000
0010
0000
,
0002
0000
0000
0000
2003
0000
0000
0000
3001
0000
0000
1000
0010
0000
0000
0000
,
0100
0000
0000
0000
0010
0000
0000
0000
0100
0000
0000
0001
1000
0000
0000
0000
,
0001
0000
0000
0000
0010
0000
0000
0000
1000
0000
0000
0010
0001
0000
0000
0000
,
0100
0000
0000
0000
1000
0000
0000
0000
0100
0000
0000
0001
1000
0000
0001
0000
,
0010
0000
0010
0000
0010
0000
0100
1000
0000
1000
0000
1000
0000
0010
0000
0100
,
0001
0000
0100
0010
0000
1000
0000
0010
0000
0100
0000
0001
0000
0010
0001
0000
,
1000
0000
0000
0000
0001
0000
0000
0000
1000
0000
0000
0100
0010
0000
0000
0000
,
0001
0000
0000
0000
1000
0000
0000
0000
0001
0000
0000
1000
0010
0000
0100
0000
,
0001
0000
0000
0000
0010
0001
0000
1000
0000
0100
0000
1000
0000
0000
0000
0001
,
0100
0000
0010
0000
1000
0000
0000
0010
0100
0001
0000
1000
0000
0001
0000
0010
,
0001
0000
0000
1000
0100
0000
0000
0001
0100
0000
0000
1000
0010
0000
0000
0100
,
0001
0000
0000
0010
0100
0000
0000
1000
0010
0000
0000
0100
0001
0000
1000
0000
,
1001
0000
0000
0000
;

//---------------dance-double - ----------------
#NOTES:
     dance-double:
     :
     Beginner:
     1:
     :
00000000
00000000
00000000
00000000
,
00000000
00000000
00000000
00000000
,
00000000
00000000
00000000
00000000
,
00000000
00000000
00000000
00000000
,
00000000
00000000
00000000
00000000
,
00000100
00000000
00000010
00000000
,
00000100
00000000
00000000
00000000
,
00000001
00000000
00001000
00000000
,
00000001
00000000
00001000
00000000
,
00000100
00000000
00000000
00000000
,
00010000
00000000
00000000
00000000
,
00001000
00000000
00000000
00000000
,
00100000
00000000
00000000
00000000
,
00010000
00000000
00010000
00000000
,
10000000
00000000
10000000
00000000
,
00100000
00000000
00100000
00000000
,
01000000
00000000
01000000
00000000
,
00010000
00000000
00000000
00000000
,
00100000
00000000
00000000
00000000
,
00001000
00000000
00000000
00000000
,
00010000
00000000
00000000
00000000
,
00000010
00000000
00000100
00000000
,
00000010
00000000
00000100
00000000
,
00000001
00000000
00000001
00000000
,
00001000
00000000
00001000
00000000
,
00000200
00000000
00000000
00000300
,
00000000
00000000
00000000
00000000
,
00020000
00000000
00000000
00030000
,
00000000
00000000
00000000
00000000
,
00001000
00000000
00001000
00000000
,
00001000
00000000
00000000
00000000
,
00010000
00000000
00010000
00000000
,
00010000
00000000
00000000
00000000
,
01000000
00000000
01000000
00000000
,
00100000
00000000
00100000
00000000
,
00010000
00000000
00010000
00000000
,
10000000
00000000
10000000
00000000
,
00000000
00100000
00000000
00100000
,
00000000
00010000
00000000
00010000
,
00000000
00001000
00000000
00001000
,
00000000
00000100
00000000
00000000
,
00000010
00000000
00000000
00000000
,
00001000
00000000
00000000
00000000
,
00000001
00000000
00001000
00000000
,
00000001
00000000
00000100
00000000
,
00001000
00000000
00000000
00000000
,
00010000
00000000
00000000
00000000
,
01000000
00000000
10000000
00000000
,
00100000
00000000
10000000
00000000
,
01000000
00000000
00100000
00000000
,
00010000
00000000
00000000
00000000
,
01000000
00000000
00100000
00000000
,
00010000
00000000
00000000
00000000
,
00001000
00000000
00001000
00000000
,
00010000
00000000
00010000
00000000
,
00001000
00000000
00000100
00000000
,
00000001
00000000
00001000
00000000
,
00001001
00000000
00000000
00000000
;

//---------------dance-double - ----------------
#NOTES:
     dance-double:
     :
     Easy:
     2:
     :
00000000
00000000
00000000
00000000
,
00000000
00000000
00000000
00000000
,
00000000
00000000
00000000
00000000
,
00000000
00000000
00000000
00000000
,
00000000
00000000
00000000
00000000
,
00000001
00000001
00000001
00000000
,
00001000
00000000
00000001
00000000
,
00000100
00000000
00001000
00000000
,
00010000
00001000
00010000
00001000
,
00020000
00000000
00030000
00000000
,
01000000
00000000
10000000
00000000
,
00200000
00000000
00300000
00000000
,
01000000
00000000
00010000
10000000
,
02000000
00000000
03000000
00000000
,
00010000
00000000
00001000
00000000
,
00020000
00000000
00030000
00000000
,
00001000
00000000
00000100
00000010
,
00000100
00000000
00000001
00000000
,
00000010
00000000
00001000
00000000
,
00000010
00000000
00000001
00000000
,
00000100
00000000
00001000
00010000
,
00001000
00000000
00010000
00000000
,
01000000
00000000
10000000
00000000
,
00100000
00000000
00010000
00000000
,
00100000
00000000
10000000
00010000
,
20000000
00000000
30000000
10000000
,
01000000
00000000
10000000
00000000
,
00100000
00000000
00010000
00000000
,
00002000
00000000
00003000
00010000
,
00001000
00000000
00000100
00000000
,
00000001
00000000
00000010
00000000
,
00000200
00000000
00000300
00001000
,
00002000
00000000
00003000
00000001
,
00000001
00000000
00000100
00000000
,
00000001
00000000
00000010
00000000
,
00000100
00001000
00000100
00000000
,
00010000
00000000
00001000
00010000
,
00001000
00000000
00100000
00000000
,
00010000
00000000
10000000
00000000
,
00100000
00000000
01000000
00000000
,
00010000
00000000
10000000
00000000
,
00020000
00000000
00000000
00030000
,
00200000
00000000
00000000
00300000
,
00001000
00000000
00010000
00000000
,
00001000
00000000
00000100
00000010
,
00000100
00000000
00000001
00000000
,
00000010
00000000
00000100
00000010
,
00000100
00000000
00001000
00000000
,
00000001
00000000
00000100
00001000
,
00010000
00010000
00001000
00000000
,
00001000
00001000
00100000
00000000
,
00100000
00100000
00010000
00000000
,
10000000
00000000
00100000
01000000
,
00100000
00000000
01000000
00000000
,
00010000
00000000
00100000
00100000
,
00001000
00000000
00010000
00000000
,
00000100
00000000
00001000
00001000
,
00001001
00000000
00000000
00000000
;

//---------------dance-double - ----------------
#NOTES:
     dance-double:
     :
     Medium:
     5:
     :
00000000
00000000
00000000
00000000
,
00000000
00000000
00000000
00000000
,
00000000
00000000
00000000
00000000
,
00000000
00000000
00000000
00000000
,
00000000
00000000
00000000
00000000
,
01000000
01000000
01000000
01000000
,
00100000
00100000
00100000
00100000
,
00001000
00001000
00010000
00010000
,
00000100
00000000
00001000
00000000
00000001
00000010
00000001
00000100
,
00000001
00000001
00001000
00001000
,
00000100
00000010
00000001
00001000
,
00000010
00000010
00000100
00000100
,
00001000
00010000
00001000
00010000
00000000
00000000
00000000
00100000
,
10000000
10000000
00010000
00010000
,
00100000
01000000
10000000
00010000
,
01000000
01000000
00100000
00100000
,
00010000
00001000
00010000
00001000
00000000
00000000
00000000
00000010
,
00000002
00000000
00000100
00000103
,
00002000
00000000
00010000
00013000
,
02000000
00000000
00100000
03100000
,
00020000
00000000
00000000
00000000
00000000
00000000
10030000
00010000
,
01000000
01000000
00010000
00010000
,
00100000
00100000
00001000
00001000
,
00010000
00000100
00001000
00000010
,
00001000
00000000
00000100
00000000
00000010
00000001
00001000
00000001
,
00000200
00000000
00000300
00000110
,
00000020
00000000
00000030
00001010
,
00002000
00000000
00003000
00011000
,
00020000
00000000
00030000
00110000
,
10000000
00100000
01000000
00010000
,
00100000
01000000
10000000
00000000
00010000
00100000
01000000
00000000
,
10000000
00010000
01000000
00100000
,
00010000
00000000
00001000
00000000
00010000
00001000
00010000
00000000
,
00011000
00010000
00001000
00000100
,
00000010
00000001
00000010
00001000
,
00000001
00000010
00001000
00010000
,
00011000
00000000
00110000
00000000
,
01010000
00010000
10000000
01000000
,
00100000
10000000
00100000
00010000
,
10000000
01000000
00010000
00001000
,
00000100
00000000
00000001
00000000
00000020
00000200
00000030
00000300
,
00001000
00001000
00000001
00000001
,
00000100
00000000
00000010
00000000
00001000
00000010
00000000
00010000
,
00001000
00001000
00100000
00100000
,
00010000
00000000
01000000
00000000
00100000
10000000
00000000
01000000
,
10000000
10000000
00010000
00010000
,
01000000
00000000
00001000
00000000
00100000
00001000
00000000
00010000
,
00000100
00001000
00000010
00000100
,
00000001
00000100
00000010
00000000
00001000
00000100
00000010
00000001
,
00001000
00001000
00001000
00000000
00000001
00000001
00000001
00000000
,
00000100
00000010
00000100
00001000
,
00010000
00100000
01000000
00100000
,
10000000
01000000
00100000
01000000
,
00010000
00010000
00010000
00000000
00001000
00001000
00001000
00000000
,
00000100
00000010
00000100
00000001
,
00000010
00000100
00000010
00001000
,
00010000
00000000
01000000
00000000
00100000
00010000
10000000
00000000
,
10010000
00000000
00000000
00000000
;

//---------------dance-double - ----------------
#NOTES:
     dance-double:
     :
     Hard:
     7:
     :
00000000
00000000
00000000
00000000
,
00000000
00000000
00000000
00000000
,
00000000
00000000
00000000
00000000
,
00000000
00000000
00000000
00000000
,
00000000
00000000
00000000
00000000
,
00010000
00000000
00000000
00100000
00000000
00000000
00010000
00000000
01000000
00000000
00010000
00000000
00010000
00000000
00000000
00000000
,
10000000
00000000
00000000
01000000
00000000
00000000
10000000
00000000
00100000
00000000
10000000
00000000
10000000
00000000
00000000
00000000
,
00010000
00000000
00000000
00100000
00000000
00000000
00001000
00000000
00010000
00000000
00000000
00000100
00000000
00000000
00010000
00000000
,
00001000
00000000
00000000
01000000
00000000
00000000
00001000
00000000
00100000
00000000
00000000
00001000
00000000
00000000
00010000
00000000
,
00000010
00000000
00001000
00000000
00000001
00000000
00001000
00000000
00000100
00000000
00000000
00001000
00000000
00000001
00000000
00000000
,
00000010
00000000
00000001
00000000
00001000
00000000
00000001
00000000
00000100
00000000
00000000
00001000
00000000
00010000
00000000
00000000
,
01000000
00000000
10000000
00000000
00010000
00000000
00000000
10000000
00000000
00100000
00000000
00000000
10000000
00000000
00010000
00000000
,
01000000
00000000
00010000
00000000
10000000
00000000
00000000
00010000
00000000
00100000
00000000
00000000
01000000
00000000
10000000
00000000
,
00100000
00000000
01000000
00000000
00000000
00010000
00000000
10000000
00000000
01000000
00000000
00000000
00010000
00000000
00001000
00000000
,
00000100
00000000
00000001
00000000
00000000
00000010
00000000
00000001
00000000
00001000
00000000
00000000
00000100
00000000
00001000
00000000
,
00000001
00000000
00000100
00000000
00001000
00000000
00000000
00010000
00000000
01000000
00000000
10000000
00000000
00000000
00100000
00000000
,
10000000
00000000
00010000
00000000
00100000
00000000
00000000
01000000
00000000
00000000
00100000
00000000
00010000
00000000
10000000
00000000
,
00100000
00000000
01000000
00000000
00010000
00000000
00000000
00000000
00100000
00000000
00000000
00001000
00000000
00000000
00010000
00000000
,
00000100
00000000
00001000
00000000
00000010
00000000
00000000
00000000
00000100
00000000
00000000
00000001
00000000
00000000
00000010
00000000
,
00000100
00000000
00001000
00000000
00000010
00000000
00000000
00000000
00010000
00000000
00000000
00001000
00000000
00000000
00100000
00000000
,
00010000
00000000
01000000
00000000
00100000
00000000
00000000
00000000
10000000
00000000
00000000
01000000
00000000
00000000
00100000
00000000
,
01000000
00000000
10000000
00000000
00100000
00000000
00000000
00000000
01000000
00000000
00000000
00010000
00000000
00000000
00100000
00000000
,
00001000
00000000
00010000
00000000
00000010
00000000
00000000
00000000
00000100
00000000
00000000
00000001
00000000
00000000
00000010
00000000
,
00000100
00000000
00001000
00000000
00000010
00000000
00000000
00000000
00010000
00000000
00000000
00001000
00000000
00000000
01000000
00000000
,
00010000
00100000
01000000
10000000
00100000
01000000
00010000
10000000
,
10010000
00000000
11000000
01010000
,
00011000
00000000
00000000
00010000
00001000
00000100
00000010
00000100
,
00000002
00000000
00000023
00000000
,
00002030
00000000
00000000
00000000
00003020
00000000
00000000
00000031
,
00000001
00000000
00000000
00001000
00000000
00000000
00000100
00000000
00000100
00000000
00000000
00010000
00000000
00000000
00001000
00000000
,
00001000
00000000
00000000
00100000
00000000
00000000
00010000
00000000
00010000
00000000
00000000
00000000
01100000
00000000
00000000
00000000
,
20000000
32000000
03020000
00032000
,
00003200
00000000
00000310
00000100
00000001
00000010
00000100
00001000
,
00001001
00000000
00000100
00000001
00001000
00000001
00000010
00000100
,
00001000
00000100
00010000
00001000
01000000
00010000
10000000
00010000
,
00100000
01000000
00000000
00000000
01000000
10000000
00000000
00000000
10000000
00100000
00000000
00000000
00100000
00010000
00000000
00000000
,
00010000
00001000
00000000
00000000
00001000
00000100
00000000
00000000
00000100
00000000
00000001
00000010
00000000
00000001
00000000
00001000
,
00000100
00001000
00000001
00001000
00000010
00010000
00001000
00100000
,
00010000
10000000
00010000
01000000
00100000
10000000
00010000
00100000
,
00001000
00000000
00000000
00001000
00010000
00000000
00000000
00010000
00000100
00000000
00000000
00000100
00001000
00000000
00000000
00001000
,
00000010
00000000
00000000
00000000
00000000
00000000
00000000
00000000
00000100
00000000
00000000
00000000
00000000
00000000
00000000
00000000
00000001
00000000
00000000
00000000
00000000
00000000
00000000
00000000
00001000
00000000
00000000
00000000
00000000
00000000
00000000
00000000
00000001
00000000
00000000
00000000
00000000
00000000
00000000
00000000
00002002
00000000
00000000
00000000
00000000
00000000
00000000
00000000
00000000
00000000
00000000
00000000
00000000
00003003
00000000
00000000
00000000
00000000
00000000
00000000
00000000
00000000
00000000
00000000
,
00000010
00000000
00000000
00000000
00000001
00000000
00000000
00000000
00000100
00000000
00000000
00000010
00000100
00000000
00000000
00000000
,
00001000
00000000
00000000
00000000
00010000
00000000
00000000
00000000
01000000
00000000
00000000
00100000
01000000
00000000
00000000
00000000
,
10000000
00000000
00000000
00000000
00010000
00000000
00000000
00000000
01000000
00000000
00000000
00100000
01000000
00000000
00000000
00000000
,
00001000
00000000
00000000
00000000
00010000
00000000
00000000
00000000
00000100
00000000
00000000
00000010
00000100
00000000
00000000
00000000
,
00001001
00000000
00000000
00000000
00000110
00000000
00000000
00000000
00000001
00000000
00000000
00000100
00000010
00000000
00000000
00000000
,
00001000
00000000
00000000
00000000
00000100
00000000
00000000
00000000
00010000
00000000
00000000
00001000
00100000
00000000
00000000
00000000
,
00010000
00000000
00000000
00000000
01000000
00000000
00000000
00000000
00100000
00000000
00000000
10000000
00010000
00000000
00000000
00000000
,
00100000
00000000
00000000
00000000
01000000
00000000
00000000
00000000
00010000
00000000
00000000
00001000
00010000
00000000
00001000
00000000
,
00010000
00000000
00000100
00000000
00001000
00000000
00000000
00000001
00000000
00000010
00000000
00000100
00000000
00001000
00000000
00000000
,
00000001
00000000
00000000
00000100
00000000
00000010
00000000
00001000
00000000
00000001
00000000
00000000
00000100
00000000
00001000
00000000
,
00010000
00000000
00001000
00010000
00100000
00000000
00010000
00100000
,
01000000
10000000
01000000
00010000
00100000
01000000
10000000
00010000
,
10000000
00000000
00000000
00000000
00100000
00000000
00000000
01000000
00000000
00001000
00000000
00100000
00000000
00000000
00000000
00000000
,
00001000
00000000
00010000
00000000
00000010
00000000
00000000
00000000
00001000
00000000
00000000
00000100
00000000
00000010
00000000
00000000
,
00000001
00000000
00000000
00000100
00001000
00000000
00000000
00010000
01000000
00000000
00000000
10000000
00100000
00000000
00000000
00010000
,
00001000
00000000
00000000
00000100
00000001
00000000
00000000
00000010
00001000
00000000
00000000
00010000
01000000
00000000
10000000
00000000
,
10010000
00000000
00000000
00000000
;
