#TITLE:I Can Feel It;
#ARTIST:Alien Six;
#BANNER:I Can Feel It.png;
#BACKGROUND:I Can Feel It-bg.png;
#CDTITLE:./CDTITLES/Dance Dance Revolution ULTRAMIX4.png;
#MUSIC:I Can Feel It.ogg;
#SAMPLESTART:34.039;
#SAMPLELENGTH:15;
#BPMS:0=148;

//---------------dance-single - ----------------
#NOTES:
     dance-single:
     :
     Beginner:
     1:
     :
0000
0000
0000
0000
,
0000
0000
0000
0000
,
0000
0000
0000
0000
,
0000
0000
0000
0000
,
0000
0000
0000
0000
,
0010
0000
0010
0000
,
0010
0010
0010
0000
,
1000
0000
1000
0000
,
0001
0001
0001
0000
,
0100
0000
0100
0000
,
0100
0100
0100
0000
,
0010
0000
0010
0000
,
1000
1000
1000
0000
,
0002
0000
0000
0003
,
0000
0000
0000
0000
,
2000
0000
0000
3000
,
0000
0000
0000
0000
,
0020
0000
0000
0030
,
0000
0000
0000
0000
,
0200
0000
0000
0300
,
0000
0000
0000
0000
,
0001
0000
0001
0000
,
1000
1000
1000
0000
,
0001
0000
0001
0000
,
0100
0100
0100
0000
,
0010
0000
0010
0000
,
1000
1000
1000
0000
,
0001
0000
0001
0000
,
0001
0001
0001
0000
,
0001
0000
1000
0000
,
0010
0000
0100
0000
,
0010
0000
1000
0000
,
0001
0001
0001
0000
,
0001
0000
0100
0000
,
0010
0000
1000
0000
,
0010
0000
0100
0000
,
0010
0010
0010
0000
,
1000
0000
0001
0000
,
1000
1000
1000
0000
,
0001
0000
1000
0000
,
0010
0010
0010
0000
,
0100
0000
0010
0000
,
0100
0100
0100
0000
,
0010
0000
1000
0000
,
0001
0001
0001
0000
,
1000
0000
1000
0000
,
1000
1000
1000
0000
,
0010
0000
0010
0000
,
0010
0010
0010
0000
,
1000
0000
1000
0000
,
1000
1000
1000
0000
,
0001
0000
0001
0000
,
0001
0001
0001
0000
,
1000
0000
0001
0000
,
0100
0000
0001
0000
,
1000
0000
0001
0000
,
1000
1000
1000
0000
,
0010
0000
1000
0000
,
0010
0000
1000
0000
,
0001
0000
1000
0000
,
0010
0010
0010
0000
,
0110
0000
0000
0000
;

//---------------dance-single - ----------------
#NOTES:
     dance-single:
     :
     Easy:
     4:
     :
0000
0000
0000
0000
,
0000
0000
0000
0000
,
0000
0000
0000
0000
,
0000
0000
0000
0000
,
0000
0000
0000
0000
,
1000
0001
1000
1000
,
0001
1000
0001
0000
,
0100
0010
1000
0000
,
2002
0000
3003
0000
,
0001
1000
0001
0001
,
1000
0001
1000
0000
,
0100
0010
0001
0000
,
2002
0000
3003
0000
,
0010
0100
0001
0001
,
1000
0010
0000
0000
,
0100
0001
1000
0100
,
0010
0001
0010
0000
,
0100
0010
1000
1000
,
0001
0100
0000
0000
,
0010
1000
0001
0010
,
0100
1000
0100
0000
,
1000
0010
1000
1000
,
0010
1000
0010
0000
,
0001
0010
0001
0001
,
0010
0001
0010
0000
,
1000
0001
1000
1000
,
0001
1000
0001
0000
,
0001
1000
2002
0000
,
0000
3003
0000
0000
,
2000
3000
0200
0300
,
0020
0030
0002
0003
,
2000
3000
0002
0003
,
0200
0000
0300
0000
,
0002
0003
0020
0030
,
0200
0300
2000
3000
,
0002
0003
2000
3000
,
1001
0000
0000
0000
,
0002
1003
2000
3010
,
0020
0130
0200
0301
,
0002
1003
2000
3001
,
1001
0000
0000
0000
,
0200
0310
0020
1030
,
2000
3001
0002
0103
,
0200
0310
0020
0130
,
0110
0000
0000
0000
,
1000
0001
1000
1000
,
0001
1000
0001
0000
,
0100
0010
1000
0000
,
2002
0000
3003
0000
,
0001
1000
0001
0001
,
1000
0001
1000
0000
,
0100
0010
0001
0000
,
2002
0000
3003
0000
,
1000
0001
0100
0100
,
0001
0010
0000
0000
,
0100
1000
0010
1000
,
0001
0010
0001
0000
,
0001
1000
0010
0010
,
1000
0010
0000
0000
,
0010
1000
0001
0010
,
0100
1000
0010
0100
,
0110
0000
0000
0000
;

//---------------dance-single - ----------------
#NOTES:
     dance-single:
     :
     Medium:
     6:
     :
0000
0000
0000
0000
,
0000
0000
0000
0000
,
0000
0000
0000
0000
,
0000
0000
0000
0000
,
0000
0000
0000
0000
,
0010
1000
0100
0010
0001
0000
0000
0000
,
0010
1000
0100
0010
0001
0000
0000
0000
,
0010
1000
0100
0010
0001
0000
0001
0000
,
0002
1000
1000
0103
,
0010
1000
0001
0100
0010
0000
0000
0000
,
0010
1000
0001
0100
0010
0000
0000
0000
,
0010
1000
0001
0100
0010
0000
0010
0000
,
2000
0001
0001
3010
,
1010
0000
0101
0000
,
1001
0000
0101
0000
,
1001
0000
1100
0000
,
2002
0000
3003
0000
,
1010
0000
0110
0000
,
0101
0000
0110
0000
,
1001
0000
0011
0000
,
0000
1000
0000
0001
0000
0010
0000
0000
,
0001
0010
0100
0000
0010
0000
0100
0000
,
0010
0100
1000
0000
0000
0000
1100
0000
,
1000
0010
0100
0000
0010
0000
0100
0000
,
0010
0100
0001
0000
0101
0000
1001
0000
,
1000
0001
0100
0000
0001
0000
0100
0000
,
0001
0100
0010
0000
0000
0000
0110
0000
,
0010
1000
0100
0010
0001
0010
0000
0000
,
0022
0000
0000
0033
,
0010
0100
0001
0000
1000
0000
1010
0000
,
0001
0100
0010
0000
0100
0000
0110
0000
,
0010
1000
0100
0000
1000
0000
1001
0000
,
1002
0000
0000
0200
0000
0000
0303
0000
,
0001
1000
0001
0000
0100
0000
0101
0000
,
0100
0010
1000
0000
1000
0000
1100
0000
,
1000
0001
0010
0000
0001
0000
1001
0000
,
2100
0000
0000
0000
0000
0001
3001
0000
,
0001
0001
1000
0000
0001
0000
0001
1000
,
0100
0100
1000
0000
0100
0000
1000
0001
,
0010
0010
0001
0000
1000
0000
0001
0100
,
0010
1000
0010
0000
0000
0000
1010
0000
,
1000
1000
0010
0000
1010
0000
1000
0100
,
0010
0010
0001
0000
0011
0000
0001
1000
,
0001
0001
0100
0000
0101
0000
0100
0010
,
1000
2020
0000
3030
,
1000
0100
0010
0001
1000
0000
0000
0000
,
1000
0100
0010
0001
1000
0000
0000
0000
,
1000
0100
0010
0001
1000
0000
1000
0000
,
0001
1000
0000
0001
0000
0100
0000
0000
,
0100
0010
1000
0100
0010
0000
0000
0000
,
0100
0010
1000
0100
0010
0000
0000
0000
,
0100
0010
1000
0100
0010
0000
0010
0000
,
0001
2000
0000
0001
0000
3001
0000
0000
,
1000
1000
0100
0010
0001
0000
0000
0000
,
0001
0001
0100
0010
1000
0000
0000
0000
,
1000
1000
0100
0010
0001
0000
0000
0000
,
0001
1000
0001
1000
0001
1000
0001
0000
,
1000
0100
0010
0001
0100
0000
0000
0000
,
0001
0100
0010
1000
0100
0000
0000
0000
,
1000
0100
0001
0100
1000
0000
0000
0000
,
1001
0011
1001
1010
,
0110
0000
0000
0000
;

//---------------dance-single - ----------------
#NOTES:
     dance-single:
     :
     Hard:
     7:
     :
0000
0000
0000
0000
,
0000
0000
0000
0000
,
0000
0000
0000
0000
,
0000
0000
0000
0000
,
0000
0000
0000
0000
,
1100
0000
0101
0000
0001
0010
0100
0000
,
1100
0000
0101
0000
1000
0100
0010
0000
,
1100
0000
0101
0000
0001
0100
0010
0000
,
0010
1000
0010
0000
0001
0100
0001
0000
,
0101
0000
1100
0000
0010
1000
0100
0000
,
0101
0000
1100
0000
0010
0001
0100
0000
,
0101
0000
1100
0000
0001
0100
1000
0000
,
0100
0001
0100
0000
0010
1000
0010
0000
,
0000
1000
0000
0100
0000
0010
0000
0001
,
0000
0100
0000
1000
0000
0010
0000
0001
,
0000
1000
0000
0100
0000
0010
0000
0001
,
0000
2000
0000
0000
3000
0000
0000
0000
,
0000
0001
0000
0100
0000
0010
0000
1000
,
0000
0100
0000
0001
0000
0010
0000
1000
,
0000
0001
0000
0100
0000
0010
0000
1000
,
0000
0002
0000
0000
0003
0000
0000
0000
,
0101
0000
0001
0100
0020
0000
1000
0000
,
0100
1000
1000
0130
,
0101
0000
0010
0001
0200
0000
0001
0000
,
0010
0001
0001
0310
,
0101
0000
1000
0100
0020
0000
0001
0000
,
0100
0001
0001
0130
,
0101
0000
0001
1000
0100
0000
1100
0000
,
1001
0000
0000
0000
,
0001
1100
0001
1010
,
0100
0101
0100
0110
,
0010
1000
0100
1000
0010
1000
0100
0000
,
2200
0000
3300
0000
,
0100
0011
0100
1001
,
0001
0101
0001
0011
,
0010
0001
0100
0001
0010
0001
0100
0000
,
0202
0000
0303
0000
,
2000
0000
0200
3000
0020
0300
0031
1000
,
0002
0000
0200
0003
0020
0300
1030
0001
,
2000
0000
0020
3000
0200
0030
0301
1000
,
0100
0010
0110
0000
,
0020
0000
0200
0030
2000
0300
3001
0010
,
0200
0000
2000
0300
0002
3000
0103
0010
,
0100
0000
0001
0000
1000
0100
1000
0010
,
1000
0100
0001
0100
1000
0010
1000
0000
,
0101
0000
1100
0000
1000
0010
0100
0000
,
0101
0000
1100
0000
0001
0100
0010
0000
,
0101
0000
1100
0000
1000
0100
0010
0001
,
0100
0010
0000
1001
0000
0110
0000
0000
,
1100
0000
0101
0000
0010
0001
0100
0000
,
1100
0000
0101
0000
0010
1000
0100
0000
,
1100
0000
0101
0000
1000
0100
0001
0100
,
1000
0010
0000
1010
0000
0101
0000
0000
,
1001
0000
0110
0000
0010
1000
1010
0000
,
0011
0000
1100
0000
0001
1000
1001
0000
,
1001
0000
0101
0000
1000
0100
0010
0001
,
1000
0100
0000
1100
0000
0101
0000
0000
,
0110
0000
0110
0000
0010
1000
0100
0000
,
0110
0000
0110
0000
0010
1000
0001
0000
,
0110
0000
0110
0000
0010
1000
0100
1000
,
0001
0010
0100
1000
0010
0100
0001
0000
,
1001
0000
0000
0000
;

//---------------dance-double - ----------------
#NOTES:
     dance-double:
     :
     Beginner:
     1:
     :
00000000
00000000
00000000
00000000
,
00000000
00000000
00000000
00000000
,
00000000
00000000
00000000
00000000
,
00000000
00000000
00000000
00000000
,
00000000
00000000
00000000
00000000
,
00001000
00000000
00001000
00000000
,
00100000
00100000
00100000
00000000
,
00001000
00000000
00001000
00000000
,
00010000
00010000
00010000
00000000
,
00000100
00000000
00000100
00000000
,
00000010
00000010
00000010
00000000
,
00000001
00000000
00000001
00000000
,
00001000
00001000
00001000
00000000
,
00000200
00000000
00000000
00000300
,
00000000
00000000
00000000
00000000
,
00020000
00000000
00000000
00030000
,
00000000
00000000
00000000
00000000
,
00002000
00000000
00000000
00003000
,
00000000
00000000
00000000
00000000
,
02000000
00000000
00000000
03000000
,
00000000
00000000
00000000
00000000
,
00100000
00000000
00100000
00000000
,
10000000
10000000
10000000
00000000
,
01000000
00000000
01000000
00000000
,
00010000
00010000
00010000
00000000
,
00001000
00000000
00001000
00000000
,
00000010
00000010
00000010
00000000
,
00000001
00000000
00000001
00000000
,
00000100
00000100
00000100
00000000
,
00000010
00000000
00010000
00000000
,
00100000
00000000
01000000
00000000
,
00100000
00000000
10000000
00000000
,
01000000
01000000
01000000
00000000
,
00010000
00000000
00001000
00000000
,
00000100
00000000
00000001
00000000
,
00000010
00000000
00000100
00000000
,
00001000
00001000
00001000
00000000
,
00000100
00000000
00010000
00000000
,
00001000
00001000
00001000
00000000
,
00100000
00000000
00010000
00000000
,
10000000
10000000
10000000
00000000
,
01000000
00000000
00010000
00000000
,
00001000
00001000
00001000
00000000
,
00000010
00000000
00000001
00000000
,
00001000
00001000
00001000
00000000
,
00000100
00000000
00000100
00000000
,
00000010
00000010
00000010
00000000
,
00010000
00000000
00010000
00000000
,
00001000
00001000
00001000
00000000
,
01000000
00000000
01000000
00000000
,
00010000
00010000
00010000
00000000
,
00100000
00000000
00100000
00000000
,
00001000
00001000
00001000
00000000
,
01000000
00000000
00100000
00000000
,
10000000
00000000
00010000
00000000
,
00100000
00000000
00001000
00000000
,
00010000
00010000
00010000
00000000
,
00000100
00000000
00000010
00000000
,
00000001
00000000
00001000
00000000
,
00000100
00000000
00000000
00000000
,
00000010
00000010
00000010
00000000
,
00000110
00000000
00000000
00000000
;

//---------------dance-double - ----------------
#NOTES:
     dance-double:
     :
     Easy:
     4:
     :
00000000
00000000
00000000
00000000
,
00000000
00000000
00000000
00000000
,
00000000
00000000
00000000
00000000
,
00000000
00000000
00000000
00000000
,
00000000
00000000
00000000
00000000
,
00001000
00010000
00001000
00001000
,
01000000
00100000
10000000
00000000
,
01000000
00100000
00010000
00000000
,
00000020
00000000
00000030
00000000
,
00000100
00001000
00000100
00000100
,
00001000
00000001
00000100
00000000
,
00000010
00000100
00001000
00000000
,
02000000
00000000
03000000
00000000
,
00100000
10000000
01000000
01000000
,
00010000
00001000
00000000
00000000
,
00010000
00001000
00000010
00000001
,
00000010
00000001
00000010
00000000
,
00000001
00000100
00000010
00000010
,
00001000
00010000
00000000
00000000
,
00001000
00010000
01000000
10000000
,
01000000
10000000
01000000
00000000
,
00010000
10000000
00010000
00010000
,
10000000
01000000
00100000
00000000
,
00010000
00100000
00010000
00010000
,
00001000
00000100
00001000
00000000
,
00000100
00000010
00000100
00000100
,
00000010
00000001
00000010
00000000
,
00000001
00001000
00002002
00000000
,
00000000
00000000
00003003
00000000
,
00000002
00000003
00000200
00000300
,
00002000
00003000
00020000
00030000
,
00002000
00003000
00000200
00000300
,
00000020
00000000
00000030
00000000
,
00000200
00000300
00002000
00003000
,
00020000
00030000
00200000
00300000
,
20000000
30000000
00020000
00030000
,
10010000
00000000
00000000
00000000
,
00010000
10000000
10000000
01000000
,
01000000
00100000
00100000
00001000
,
00001000
00010000
00010000
00001000
,
00011000
00000000
00000000
00000000
,
00010000
00000100
00000100
00001000
,
00001000
00000010
00000010
00000100
,
00000100
00000001
00000001
00001000
,
00001001
00000000
00000000
00000000
,
00000010
00001000
00000001
00000001
,
00000001
00000100
00001000
00000000
,
00010000
01000000
10000000
00000000
,
20020000
00000000
30030000
00000000
,
00100000
10000000
01000000
01000000
,
10000000
01000000
00010000
00000000
,
00001000
00000010
00000001
00000000
,
00002002
00000000
00003003
00000000
,
00000001
00000010
00000100
00000100
,
00010000
00001000
00000000
00000000
,
01000000
00100000
10000000
01000000
,
00100000
00010000
00100000
00000000
,
00010000
10000000
00100000
00100000
,
01000000
00001000
00000000
00000000
,
00010000
00000100
00001000
00000100
,
00000010
00000001
00001000
00000001
,
00001001
00000000
00000000
00000000
;

//---------------dance-double - ----------------
#NOTES:
     dance-double:
     :
     Medium:
     6:
     :
00000000
00000000
00000000
00000000
,
00000000
00000000
00000000
00000000
,
00000000
00000000
00000000
00000000
,
00000000
00000000
00000000
00000000
,
00000000
00000000
00000000
00000000
,
10100000
00000000
01010000
00000000
,
00011000
00000000
00001010
00000000
,
00000101
00000000
00001001
00000000
,
00000001
00000010
00000100
00001000
00000010
00000000
00000000
00000000
,
00000101
00000000
00001010
00000000
,
00011000
00000000
00110000
00000000
,
11000000
00000000
10010000
00000000
,
10000000
01000000
00010000
00001000
00000010
00000000
00000000
00000000
,
00000100
00000010
00000002
00000000
00000000
00000000
00000003
00000000
,
00000001
00000100
00002000
00000000
00000000
00000000
00013000
00000000
,
00100000
10000000
02000000
00000000
00000000
00000000
03000000
00000000
,
00000000
10010000
00000000
01010000
00000000
11000000
00000000
00000000
,
10000000
01000000
00020000
00000000
00000000
00000000
00030000
00000000
,
00001000
00000100
00000002
00000000
00000000
00000000
00001003
00000000
,
00000010
00001000
00000200
00000000
00000000
00000000
00000300
00000000
,
00000000
00001001
00000000
00001100
00000000
00011000
00000000
00000000
,
00010000
01000000
00100000
00000000
00100000
00000000
00010000
00000000
,
00010000
00100000
01000000
00000000
00000000
00000000
00000000
00000000
,
01000000
10000000
00010000
00000000
00010000
00000000
00100000
00000000
,
00100000
00001000
00010000
00000000
00000000
00000000
00011000
00000000
,
00010000
00001000
00000100
00000000
00000100
00000000
00000010
00000000
,
00000010
00001000
00000100
00000000
00000000
00000000
00000000
00000000
,
00001000
00000001
00000100
00000000
00000100
00000000
00001000
00000000
,
00020000
00000000
00030000
00000000
,
00011000
01000000
01010000
00000000
,
01100000
00000000
10000000
00000000
10010000
00000000
10000000
01000000
,
00010000
00001000
00011000
00000000
,
00022000
00000000
00033000
00000000
,
00010100
00000100
00001100
00000000
,
00001001
00000000
00000001
00000000
00000011
00000000
00000001
00000100
,
00001000
00010000
00011000
00000000
,
00022000
00000000
00033000
00000000
,
02000000
00010000
00100000
03010000
,
00020000
01000000
10000000
01030000
,
20000000
00010000
00010000
30010000
,
00100000
10000000
01000000
00000000
00100000
00001000
00010000
00000000
,
00000200
00001000
00000010
00001300
,
00002000
00000001
00000010
00003001
,
00000020
00001000
00000100
00001030
,
00000001
00000100
00001000
00010000
01000000
10000000
00100000
00000000
,
10100000
00000000
10010000
00000000
,
01010000
00000000
00011000
00000000
,
00001010
00000000
00001001
00000000
,
00000001
00000010
00000100
00010000
00001000
00000000
00000000
00000000
,
00011000
00000000
00110000
00000000
,
01100000
00000000
11000000
00000000
,
10010000
00000000
01010000
00000000
,
10000000
01000000
00100000
00001000
00010000
00000100
00001000
00000000
,
00001001
00000001
00000001
00000000
00000110
00000010
00000010
00000000
,
00001010
00001000
00001000
00000000
00011000
00001000
00001000
00000000
,
00110000
00010000
00010000
00000000
01010000
00010000
00010000
00000000
,
00010000
00100000
01000000
10000000
10000000
01000000
00100000
00000000
,
10000000
01000000
00010000
00000000
00001000
00000100
00000010
00001000
,
00000001
00000100
00000010
00000000
00010000
00001000
00100000
00000000
,
10010000
01010000
00110000
00011000
,
00000100
00010000
00001000
00010000
00000010
00001000
00000100
00000000
,
00001001
00000000
00000000
00000000
;

//---------------dance-double - ----------------
#NOTES:
     dance-double:
     :
     Hard:
     9:
     :
00000000
00000000
00000000
00000000
,
00000000
00000000
00000000
00000000
,
00000000
00000000
00000000
00000000
,
00000000
00000000
00000000
00000000
,
00000000
00000000
00000000
00000000
,
00101000
00000000
00110000
00000000
00001000
01000000
00100000
00000000
,
01010000
00000000
00110000
00000000
00010000
01000000
00100000
00000000
,
01100000
00000000
10010000
00000000
00100000
00001000
00010000
00000000
,
00000100
00001000
00000001
00000000
00000001
00000100
00000010
00000000
,
00001010
00000000
00011000
00000000
00000100
00010000
00001000
00000000
,
00011000
00000000
00110000
00000000
00001000
00100000
00010000
00000000
,
00110000
00000000
10100000
00000000
00010000
01000000
00010000
00000000
,
01010000
00011000
00001010
00000000
00001000
00000001
00000010
00000000
,
00000010
00000000
00000000
00000010
00000001
00000000
00000000
00000001
00000100
00000000
00000000
00000100
00001000
00000000
00000000
00001000
,
00010000
00000000
00000000
00010000
00100000
00000000
00000000
00100000
10000000
00000000
00000000
00000000
10000000
00000000
00000000
00000000
,
10000000
00000000
00000000
10000000
01000000
00000000
00000000
01000000
00100000
00000000
00000000
00100000
00001000
00000000
00000000
00000000
,
00010000
00001000
00100000
00000000
00011000
00000000
00001010
00001000
,
00000001
00000000
00000000
00000001
00001000
00000000
00000000
00001000
00000100
00000000
00000000
00000100
00010000
00000000
00000000
00010000
,
00001000
00000000
00000000
00001000
01000000
00000000
00000000
01000000
00100000
00000000
00000000
00000000
00100000
00000000
00000000
00000000
,
10100000
00000000
00000000
00010000
10000000
00000000
00000000
10000000
01000000
00000000
00000000
01000000
00010000
00000000
00000000
00000000
,
00001000
00000010
00000001
00000000
00000001
00001000
00000101
00000000
,
00001001
00000000
00001100
00011000
00110000
00000000
00020000
00000000
,
00100000
10000000
00100000
01030000
,
10010000
00000000
01010000
00011000
00001010
00000000
00002000
00000000
,
00000010
00000001
00000010
00003100
,
00000110
00021000
00031000
00110000
,
00010000
01000000
00100000
00000000
01000000
00100000
10000000
00000000
,
01100000
00012000
00013000
00001100
,
00001001
00000000
00000001
00000100
00000001
00000000
00001000
00000100
00001000
00000000
00000001
00000100
00000001
00000000
00000000
00000000
,
00000101
00000001
00000010
00000100
00001000
00000010
00010000
00000000
,
00011000
00010000
00001000
00000000
00100000
00001000
00010000
00000000
,
00011000
00010000
00000100
00001000
00000010
00000100
00000001
00000000
,
00000001
00000000
00001000
00000000
00000001
00000010
00000100
00000000
,
00001100
00001000
00000010
00010000
00001000
00100000
00010000
00000000
,
00101000
00001000
00010000
00000000
00001000
00100000
00010000
00000000
,
01100000
01000000
00010000
00100000
00001000
00010000
00000100
00000000
,
00010100
00011000
00110000
11000000
,
20100000
00000000
00010000
00000000
00100000
00000000
30010000
01000000
,
00002000
00000000
00100000
00000000
00010000
00000000
00103000
00001000
,
00020000
00000100
00001000
00030100
,
00010100
00000000
00001100
00000000
00001000
00000010
00000100
00000000
,
00000002
00000000
00000010
00001000
00000010
00000000
00000013
00000100
,
00000020
00000000
00001000
00000100
00001000
00000000
00001030
00000100
,
00000020
00000000
00000000
00000030
,
00000100
00010000
00001000
00100000
00010000
01000000
01100000
00000000
,
10100000
00000000
10010000
00000000
10000000
00010000
00100000
00000000
,
00011000
00000000
00010100
00000000
00010000
00001000
00000100
00000000
,
00000110
00000000
00000101
00000000
00001000
00000100
00000010
00000000
,
00000001
00000010
00000100
00000000
00001000
00000100
00010000
00000000
,
00001100
00000000
00011000
00000000
00100000
00010000
10000000
00000000
,
10010000
00000000
10100000
00000000
00001000
00100000
00010000
00000000
,
01100000
00000000
01100000
00000000
10000000
00010000
01000000
00000000
,
01010000
00011000
00001010
00000000
00001100
00000000
00000101
00000000
,
00000101
00000100
00000010
00000000
00001100
00010000
00011000
00000000
,
00110000
00100000
00010000
00000000
10100000
10000000
10010000
00000000
,
11000000
01000000
00100000
00000000
00110000
00100000
00011000
00001000
,
00010100
00010000
00001100
00001000
00000000
00001001
00000000
00000000
,
00000001
00000010
00000100
00000000
00010000
00000010
00001000
00000000
,
00001000
00100000
00010000
00000000
01000000
00100000
01100000
00000000
,
00001000
00010000
00001000
00000000
00110000
00010000
10010000
00000000
,
10000000
01000000
00100000
00010000
00100000
00010000
00001000
00000100
,
00000011
00000000
00000000
00000000
;
