#TITLE:Grandolin;
#ARTIST:Zerofuser;
#BANNER:Grandolin.png;
#BACKGROUND:Grandolin-bg.png;
#CDTITLE:./CDTITLES/Dance Dance Revolution ULTRAMIX4.png;
#MUSIC:Grandolin.ogg;
#SAMPLESTART:43.521;
#SAMPLELENGTH:15;
#DISPLAYBPM:160;
#BPMS:0=160;

//---------------dance-single - ----------------
#NOTES:
     dance-single:
     :
     Beginner:
     2:
     :
0000
0000
0000
0000
,
0000
0000
0000
0000
,
0000
0000
0000
0000
,
0000
0000
0000
0000
,
0000
0000
0000
0000
,
0001
0000
0001
0000
,
1000
0000
1000
0000
,
1000
1000
1000
0000
,
0001
0001
0001
0000
,
1001
0000
0000
0000
,
0000
0000
1001
0000
,
1000
1000
0000
1000
,
0000
1000
0000
0100
,
0000
0100
0000
0100
,
0000
0010
0000
0010
,
0000
0010
0000
0100
,
0000
0100
0000
0100
,
0000
1000
0000
1000
,
0000
1000
0000
0001
,
0000
0001
0000
0001
,
0001
0001
0001
0000
,
1000
0000
1000
0000
,
1000
0000
1000
0000
,
0100
0000
0100
0000
,
0100
0000
0100
0000
,
0010
0000
0010
0000
,
0010
0000
0010
0000
,
0001
0000
0000
0000
,
0000
0000
1001
0000
,
1000
0000
1000
0000
,
1000
0000
0000
0000
,
0000
0001
0000
0001
,
0000
0001
0001
0001
,
0001
0000
0000
0000
,
0010
0010
0000
0000
,
0010
0000
0000
0000
,
0100
0100
0000
0000
,
0100
0000
0000
0000
,
0010
0010
0000
0000
,
0010
0000
0000
0000
,
0001
0001
0000
0000
,
0001
0000
0001
0000
,
0001
0000
0000
0000
,
1000
0000
1000
0000
,
2000
0000
0000
3000
,
1000
0000
0000
0000
,
0000
1000
1000
0000
,
0001
0001
0001
0001
,
0000
0000
0000
0000
,
1000
1000
1000
1000
,
1000
0000
1000
0000
,
0100
0000
0100
0000
,
0100
0000
0100
0000
,
0010
0000
0010
0000
,
0010
0000
0010
0000
,
0001
0000
0001
0000
,
0001
0000
0001
0000
,
1000
0000
1000
0000
,
1000
0000
1000
0000
,
0020
0000
0000
0030
,
0010
0000
0000
0000
,
0100
0000
0000
0000
,
0200
0000
0000
0300
,
0100
0000
0000
0000
,
1000
0000
1000
0000
,
0001
0000
0001
0000
,
0001
0001
0001
0000
,
0010
0000
0010
0000
,
0100
0000
0100
0000
,
0010
0010
0010
0000
,
0010
0000
0000
0000
,
1001
0000
0000
0000
,
1001
0000
0000
0000
,
0001
0000
0000
0000
;

//---------------dance-single - ----------------
#NOTES:
     dance-single:
     :
     Easy:
     3:
     :
0000
0000
0000
0000
,
0000
0000
0000
0000
,
0000
0000
0000
0000
,
0000
0000
0000
0000
,
0000
0000
0000
0000
,
2000
0000
3000
0000
,
0002
0000
0003
0000
,
0010
0010
0100
0100
,
1000
1000
0001
1000
,
1002
0000
0000
0003
,
0001
0000
1000
0000
,
0002
0000
0000
0003
,
0001
1000
0100
0000
,
2000
0000
0000
3000
,
1000
0001
0100
0100
,
0001
0000
0001
1000
,
0020
0000
0000
0030
,
1000
0000
1000
0000
,
0200
0000
0000
0300
,
0001
0000
0001
0000
,
0020
0000
0000
0030
,
0100
0000
0100
0000
,
2000
0000
0000
3000
,
0100
0000
0100
0000
,
1000
1000
1000
0000
,
0010
0000
0010
0000
,
0001
0001
0001
0001
,
0001
0000
0000
0000
,
0000
0000
1001
0000
,
0000
2000
0000
3000
,
1000
0000
0001
0000
,
1000
0000
0001
0000
,
0200
0000
0300
0000
,
0200
0000
0300
0000
,
0020
0000
0030
0000
,
0020
0000
0030
0000
,
0001
0001
1000
1000
,
0010
0200
0000
0300
,
0100
0000
1000
0000
,
1000
0000
0010
0000
,
0002
0000
0003
0000
,
0002
0000
0003
0000
,
2000
0000
3000
0000
,
2000
0000
3000
0000
,
0010
0010
1000
0001
,
1001
0000
0000
0000
,
0000
2000
0002
3003
,
1001
0001
0100
0000
,
0001
1000
0010
0000
,
0010
1000
0100
0000
,
0001
1000
0010
1000
,
0100
0010
0001
0000
,
1000
0001
0100
0000
,
0010
0001
0100
0010
,
0100
1000
0010
0000
,
1000
0100
1000
0100
,
1000
0000
0001
0000
,
0100
0001
0100
0001
,
0010
0010
0010
0010
,
0100
0000
1000
0000
,
0001
1000
0001
1000
,
0010
0000
0001
0000
,
0100
0010
0100
0010
,
0100
0000
0001
0000
,
1000
1000
1000
0000
,
0010
0000
0010
0000
,
0001
1000
0001
0001
,
1000
0000
0010
0000
,
1000
1000
1000
0000
,
0100
0000
0010
0000
,
0001
0001
0001
0001
,
2000
0000
0000
3000
,
0002
0000
0000
0003
,
2000
0000
0000
3000
;

//---------------dance-single - ----------------
#NOTES:
     dance-single:
     :
     Medium:
     5:
     :
0000
0000
0000
0000
,
0000
0000
0000
0000
,
0000
0000
0000
0000
,
0000
0000
0000
0000
,
0000
0000
0000
0000
,
0000
0100
0000
1000
0000
0100
0000
1000
,
0000
0001
0000
0100
0000
0001
0000
0100
,
0001
0010
0001
0010
,
0100
1000
0100
1000
,
1002
0000
0000
0003
,
2000
0000
0001
3001
,
0110
0001
1000
0100
,
0010
1001
0100
1001
,
0010
0001
1000
0010
,
0110
1001
0110
0000
,
1000
0010
0100
0001
,
1000
0110
0001
0110
,
1000
0100
0010
0001
,
1100
0101
1100
0000
,
0010
0001
0100
0010
,
1000
1100
0001
1010
,
0100
0001
0010
0100
,
1010
0011
1010
0000
,
0100
0001
1000
0100
,
0010
1001
0100
1001
,
0010
0100
0001
1000
,
0110
1001
0110
0000
,
0220
0000
0000
0000
,
0000
0330
1001
0000
,
1001
0100
0010
0001
,
0100
0000
0010
0000
1000
0001
1000
0000
,
0001
0010
0100
1000
,
0002
0000
0000
0000
0103
0000
0001
2000
,
0001
0000
0000
0000
3100
0000
1000
0002
,
1000
0000
0103
0000
,
0010
1000
0001
0100
,
0010
1000
0001
0100
,
1001
0010
1000
0100
,
0010
0000
0001
0000
1000
0001
1000
0000
,
0010
0100
0001
0010
,
0200
0000
0000
0000
1300
0000
0010
0200
,
0010
0000
0000
0000
0301
0000
0100
0020
,
0100
0000
1030
0000
,
0001
0010
0100
1000
,
0001
0010
0110
1000
,
2002
0000
0000
0000
,
3003
0000
1000
0000
0001
0000
1000
0001
,
1000
0010
0100
0100
,
0001
0010
0100
0100
,
1000
0001
0010
0100
,
1000
0010
0100
0001
,
1000
0100
0100
0010
,
0001
0100
0100
0010
,
1000
0001
0100
0010
,
1000
0100
0010
0001
,
2000
0000
3010
0100
,
0010
0100
0001
0000
1000
0000
0002
0000
,
0000
0013
0000
0100
0000
0010
0000
0100
,
0000
1000
0001
0000
1000
0000
0001
0000
,
0000
0100
0000
0001
0000
1000
0000
0100
,
0020
0000
0000
0000
0000
0031
0000
1000
,
0001
0100
0010
1000
,
0001
0010
0100
1000
,
0110
1000
0001
0010
,
0100
1001
0010
1001
,
0100
1000
0001
0100
,
0110
1001
0110
0000
,
0001
0100
0010
1000
,
0001
0110
1000
0110
,
0001
0010
0100
1000
,
0001
1000
1001
0010
,
0110
0000
0000
0000
0000
0000
0000
2000
,
0002
0000
0000
0000
,
3003
0000
0000
0000
;

//---------------dance-single - ----------------
#NOTES:
     dance-single:
     :
     Hard:
     8:
     :
0000
0000
0000
0000
,
0000
0000
0000
0000
,
0000
0000
0000
0000
,
0000
0000
0000
0000
,
0000
0000
0000
0000
,
0000
1000
0000
1000
0000
0010
0000
0010
,
0000
0100
0000
0001
0000
0010
0000
0200
,
1000
0010
1000
0310
,
0001
0100
0110
2001
,
3001
0000
0000
0000
,
0110
0000
0000
0000
1000
0001
1000
0001
,
0100
0000
0010
0000
1000
0100
0000
1000
,
0000
0001
0000
0100
0001
0100
0000
0000
,
0010
0100
0000
0010
0000
1000
0000
0001
,
0000
0100
0000
0001
0000
1000
0000
0100
,
0010
0000
0100
0000
0001
0010
0000
0001
,
0000
1000
0000
0010
1000
0010
0000
0000
,
0100
0010
0000
0100
0000
0001
0000
1000
,
0000
0010
0000
1000
0000
0001
0000
0010
,
0100
0000
1000
0000
0001
0100
0000
0010
,
0000
1000
0000
0100
0010
0100
0000
0000
,
1000
0001
0000
0100
0000
0001
0000
0010
,
0000
0100
0000
1000
0000
0010
0000
1000
,
0100
0000
0001
0000
1000
0100
0000
0010
,
0000
0001
0000
0100
0010
0100
0000
0000
,
0001
1000
0000
0100
0000
1000
0000
0010
,
0000
0100
0000
0001
0000
0010
0000
0001
,
2000
0000
0000
3002
0000
0000
0203
0000
,
0000
0310
0000
0000
0110
0000
0010
0000
,
0110
0000
0001
0000
0001
0010
0001
0000
,
1000
0000
1000
0000
1000
0100
1000
0000
,
0001
0100
0001
0000
0100
0010
0100
0000
,
0010
0000
0010
0000
1000
0000
1000
0100
,
2000
0000
3001
0000
0001
0000
1000
0100
,
2000
0000
3010
0000
0010
0001
0100
0000
,
0002
0000
0103
0000
0001
1000
0001
0000
,
1000
1000
1000
0000
0001
0001
0001
0000
,
0110
0000
1000
0000
1000
0100
1000
0000
,
0001
0000
0001
0000
0001
0010
0001
0000
,
1000
0010
1000
0000
0010
1000
0010
0000
,
0010
0000
0010
0000
0001
0000
0001
0010
,
0002
0000
1003
0000
1000
0000
0001
0010
,
0002
0000
0103
0000
0100
1000
0010
0000
,
2000
0000
3010
0000
1000
0001
1000
0000
,
0001
0001
0001
0000
1000
1000
1000
0000
,
1001
0000
0000
0000
,
0000
1001
1001
2000
,
3001
0000
1000
0100
0010
0100
1000
0100
,
1000
0000
0001
0100
0010
0100
0001
0100
,
0001
0000
1000
0010
1000
0001
0100
0010
,
1000
0100
0010
0001
0010
0100
1000
0010
,
0100
0000
0001
0000
0010
0100
0010
0000
,
0100
1000
0010
0100
0001
0010
0100
1000
,
0100
0000
1000
0000
0010
0001
1000
0100
,
0010
0001
1000
0100
0010
0001
0200
0000
,
0010
0000
0001
0000
0310
0100
1000
0100
,
0010
1000
0010
0000
1000
0001
0100
0010
,
1000
0001
0100
0001
1000
0100
0001
0000
,
0010
0001
0100
0001
1000
0010
1000
0100
,
0000
0010
0100
0000
0001
0010
0100
1000
,
0100
0010
0001
0000
0100
0001
0010
0100
,
1000
0001
0100
0010
1000
1000
0100
0010
,
0001
0001
1000
0001
1000
0001
0100
0000
,
0010
0000
0100
0000
0001
0010
0000
0001
,
0000
1000
0000
0010
1000
0010
0000
0000
,
0100
0010
0000
0100
0000
0001
0000
1000
,
0000
0010
0000
1000
0000
0001
0000
0010
,
0100
0000
0010
0000
1000
0100
0000
1000
,
0000
0001
0000
0100
0001
0100
0000
0000
,
0010
0100
0000
0010
0000
1000
0000
0001
,
0000
1000
0000
0100
0000
0010
0000
0100
,
0110
0000
0000
0000
,
1001
0000
0000
0000
;

//---------------dance-single - ----------------
#NOTES:
     dance-single:
     :
     Challenge:
     9:
     :
0000
0000
0000
0000
,
0000
0000
0000
0000
,
0000
0000
0000
0000
,
0000
0000
0000
0000
,
0000
0000
0000
0000
,
0000
1001
0000
1001
0000
0110
0000
0110
,
0000
1001
0000
1100
0000
1001
0000
0101
,
0010
1000
0010
0100
0001
0100
0010
1000
,
0010
0100
0001
0100
1001
0000
0010
0100
,
2002
0000
0000
0000
,
0000
0000
0000
0000
0000
0000
3003
0000
1001
0000
0000
0000
0001
0010
0100
1000
,
0002
1000
0000
0000
0000
0000
0000
0000
0000
0000
0000
0000
0000
0000
0000
0000
0000
0000
0000
0000
0000
0000
0000
0000
0000
0000
0000
0000
0000
0000
0000
0000
0000
0000
0000
0000
0000
0000
0000
0000
1000
0000
0000
0000
0000
0000
0000
0000
0000
0000
0000
0000
0000
0000
0000
0000
0100
0000
0000
0000
0000
0000
0000
0000
,
0000
0010
0000
1003
0100
0010
0000
0000
,
1001
0200
0000
0000
0000
0010
0000
1000
,
0000
0010
0000
0001
0000
0310
0000
1000
,
2001
0000
0000
0000
0000
0001
0000
0010
,
0000
0100
0000
3001
0010
0100
0000
0000
,
1001
0020
0000
0001
0000
0100
0000
1000
,
0000
0100
0000
0001
0000
0130
0000
1000
,
1002
0000
0000
0000
0000
1000
0000
0010
,
0000
0100
0000
1003
0010
0100
0000
0000
,
1001
0200
0000
0000
0000
0001
0000
0010
,
0000
1000
0000
0001
0000
0310
0000
1000
,
2001
0000
0000
0000
0000
0001
0000
0100
,
0000
0010
0000
3001
0100
0010
0000
0000
,
1001
0020
0000
0001
0000
0100
0000
1000
,
0000
0001
0000
0130
0110
0000
0010
0100
,
2002
0000
0000
0000
,
0000
0000
0000
0000
0000
0000
3003
0000
1001
0000
0000
0000
0001
0010
0100
1000
,
0001
0000
0100
0001
0100
0001
0100
0000
0000
0010
1000
0010
1000
0000
0010
0000
,
0000
0100
0000
0001
0000
1000
0000
0001
0010
0001
1000
0000
0001
1000
0001
0000
,
0100
0000
0010
0100
0000
0100
0000
0100
0000
0001
0000
1000
0100
0000
0020
0000
,
0000
0000
0000
0000
0000
0000
0031
0000
0000
1000
0000
0010
1000
0010
1000
0001
,
0200
0000
0000
0000
0000
0000
0301
0000
0000
1000
0000
0010
0000
0100
0000
0001
,
2000
0000
0000
0000
0000
0000
3010
0000
0000
1000
0000
0100
0010
0100
1000
0010
,
0200
0000
0000
0000
0000
0000
0000
0000
0000
0301
0000
0010
0000
0001
0000
0100
,
0000
0001
0000
0000
1000
0000
0000
0001
0000
1000
0000
0100
1000
0000
0010
1000
,
0001
0000
0010
0001
0010
0001
0010
0000
0000
0100
1000
0100
1000
0000
0010
0000
,
0000
0100
0000
0001
0000
0010
0000
0100
0010
0000
0100
1000
0001
0000
0100
0001
,
1000
0000
0000
0100
0000
0010
0000
0010
0000
0010
0000
0000
0001
0000
2000
0000
,
0000
0000
0000
0000
0000
0000
3010
0000
0000
0100
0000
0001
0100
0001
0100
0010
,
2000
0000
0000
0000
0000
0000
3100
0000
0000
0010
0000
0001
0000
0010
0000
0100
,
2000
0000
0000
0000
0000
0000
3001
0000
0000
1000
0000
0010
0100
0001
1000
0010
,
0200
0000
0000
0000
0000
0000
0000
0000
0000
0301
0000
1000
0000
0100
0000
1000
,
0000
0010
0000
0000
1000
0000
0000
0001
0000
0100
0001
0100
0010
0000
1000
0001
,
2000
0000
0000
0000
,
3000
0000
0000
0000
1010
0000
0000
0000
0101
0000
0000
0000
1000
0001
1000
0001
,
0100
0000
0000
0000
0000
0100
0000
0010
0000
1000
0000
0010
0100
0000
0001
0010
,
0100
0000
1000
0010
0100
0000
0000
0001
0000
1000
0000
0000
1001
0000
0000
0000
,
0100
0010
0000
0000
1001
0000
0001
0000
0100
0000
0000
0010
1000
0001
0000
0100
,
0000
0010
0000
1000
0001
1000
0000
0100
0000
0010
0001
1000
0001
1000
0001
0010
,
0000
0000
0000
0100
1000
0100
0000
0010
0100
0010
0000
0001
0010
0001
1000
0000
,
0010
1000
0010
0000
0100
0010
0100
0000
0001
0100
0001
1000
0000
0001
0000
1000
,
0100
0000
1000
0010
0000
0100
0001
0100
0001
0000
0010
0001
0010
0001
0000
1000
,
0100
1000
0000
0001
0000
0100
0001
0100
0000
0010
0000
1000
0001
0000
0000
0000
,
2000
0000
0000
0000
0000
0000
0000
0000
3100
0000
1000
0100
0000
1000
0001
0100
,
0001
0000
0000
0000
0010
0000
0000
0000
0000
0000
0000
0000
0100
0000
0000
0000
0000
0000
0000
0000
1000
0000
0000
0000
0000
0000
0000
0000
1000
0000
0000
0000
0000
0000
0000
0000
0000
0001
0000
0000
1000
0000
0000
0000
0000
0000
0000
0000
0002
0000
0000
0000
0000
0000
0000
0000
0000
0000
0000
0000
0000
0000
0000
0000
,
0000
1003
0010
0000
0100
0001
0000
0010
0001
0010
0000
0100
0000
1000
0100
1000
,
0000
0001
0100
0001
0000
1000
0000
0010
0000
0100
0000
0001
1000
0001
0100
0010
,
0000
0000
1000
0001
0000
1000
0001
0000
1000
0100
1000
0000
0001
0010
0001
1000
,
0200
0000
0000
0000
0000
0000
0000
0000
0000
0000
1300
0000
0000
0010
0000
0000
,
1000
0001
0000
0010
0001
0000
0010
0100
0000
1000
0100
0000
1000
0000
0001
0000
,
1000
0010
0100
0001
1000
0000
0100
1000
0001
0000
0010
0001
1000
0000
0001
0100
,
0002
0000
0000
0000
0000
1000
0000
0100
,
0000
0010
0000
1003
0100
0010
0000
0000
,
1001
0200
0000
0000
0000
0010
0000
1000
,
0000
0010
0000
0001
0000
0310
0000
1000
,
2001
0000
0000
0000
0000
0001
0000
0010
,
0000
0100
0000
3001
0010
0100
0000
0000
,
1001
0020
0000
0001
0000
0100
0000
1000
,
0000
0100
0000
0001
0000
0130
0000
1000
,
2002
0000
0000
0000
0000
0000
3003
0100
,
0220
0000
0000
0000
,
0000
0000
0000
0330
;

//---------------dance-double - ----------------
#NOTES:
     dance-double:
     :
     Beginner:
     2:
     :
00000000
00000000
00000000
00000000
,
00000000
00000000
00000000
00000000
,
00000000
00000000
00000000
00000000
,
00000000
00000000
00000000
00000000
,
00000000
00000000
00000000
00000000
,
10000000
00000000
10000000
00000000
,
00010000
00000000
00010000
00000000
,
00010000
00010000
00010000
00000000
,
10000000
10000000
10000000
00000000
,
10010000
00000000
00000000
00000000
,
00000000
00000000
10010000
00000000
,
10000000
10000000
00000000
01000000
,
00000000
01000000
00000000
00010000
,
00000000
00010000
00000000
00001000
,
00000000
00001000
00000000
00010000
,
00000000
00010000
00000000
00001000
,
00000000
00001000
00000000
00000100
,
00000000
00000100
00000000
00000010
,
00000000
00000010
00000000
00001000
,
00000000
00001000
00000000
00000001
,
00000001
00000001
00000001
00000000
,
00001000
00000000
00001000
00000000
,
00001000
00000000
00001000
00000000
,
00000001
00000000
00000001
00000000
,
00000001
00000000
00000001
00000000
,
00000100
00000000
00000100
00000000
,
00000100
00000000
00000100
00000000
,
00001000
00000000
00000000
00000000
,
00000000
00000000
00011000
00000000
,
00010000
00000000
00010000
00000000
,
00010000
00000000
00000000
00000000
,
00000000
00100000
00000000
00100000
,
00000000
00100000
00100000
00100000
,
00100000
00000000
00000000
00000000
,
01000000
01000000
00000000
00000000
,
01000000
00000000
00000000
00000000
,
00100000
00100000
00000000
00000000
,
00100000
00000000
00000000
00000000
,
00010000
00010000
00000000
00000000
,
00010000
00000000
00000000
00000000
,
10000000
10000000
00000000
00000000
,
10000000
00000000
10000000
00000000
,
10000000
00000000
00000000
00000000
,
01000000
00000000
01000000
00000000
,
02000000
00000000
00000000
03000000
,
01000000
00000000
00000000
00000000
,
00000000
00010000
00010000
00000000
,
00010000
00010000
00010000
00010000
,
00000000
00000000
00000000
00000000
,
00001000
00001000
00001000
00001000
,
00001000
00000000
00001000
00000000
,
00000100
00000000
00000100
00000000
,
00000100
00000000
00000100
00000000
,
00000010
00000000
00000010
00000000
,
00000010
00000000
00000010
00000000
,
00001000
00000000
00001000
00000000
,
00001000
00000000
00001000
00000000
,
00000001
00000000
00000001
00000000
,
00000001
00000000
00000001
00000000
,
00000200
00000000
00000000
00000300
,
00000100
00000000
00000000
00000000
,
00001000
00000000
00000000
00000000
,
00002000
00000000
00000000
00003000
,
00001000
00000000
00000000
00000000
,
00010000
00000000
00010000
00000000
,
00001000
00000000
00001000
00000000
,
01000000
01000000
01000000
00000000
,
00100000
00000000
00100000
00000000
,
10000000
00000000
10000000
00000000
,
00010000
00010000
00010000
00000000
,
00010000
00000000
00000000
00000000
,
10010000
00000000
00000000
00000000
,
10010000
00000000
00000000
00000000
,
10000000
00000000
00000000
00000000
;

//---------------dance-double - ----------------
#NOTES:
     dance-double:
     :
     Easy:
     3:
     :
00000000
00000000
00000000
00000000
,
00000000
00000000
00000000
00000000
,
00000000
00000000
00000000
00000000
,
00000000
00000000
00000000
00000000
,
00000000
00000000
00000000
00000000
,
20000000
00000000
30000000
00000000
,
02000000
00000000
03000000
00000000
,
10000000
10000000
01000000
01000000
,
00010000
00010000
00001000
00010000
,
00012000
00000000
00000000
00003000
,
00010000
00000000
00001000
00000000
,
00000020
00000000
00000000
00000030
,
00001000
00000001
00000100
00000000
,
00000020
00000000
00000000
00000030
,
00000000
00000001
00000100
00000100
,
00001000
00000000
00010000
00001000
,
00200000
00000000
00000000
00300000
,
00010000
00000000
00010000
00000000
,
02000000
00000000
00000000
03000000
,
00100000
00000000
00100000
00000000
,
20000000
00000000
00000000
30000000
,
01000000
00000000
01000000
00000000
,
00020000
00000000
00000000
00030000
,
00001000
00000000
00001000
00000000
,
00010000
00010000
00010000
00000000
,
00000010
00000000
00000010
00000000
,
00001000
00001000
00001000
00001000
,
00001000
00000000
00000000
00000000
,
00000000
00000000
00001001
00000000
,
00000000
00000020
00000000
00000030
,
00000010
00000000
00001000
00000000
,
00000001
00000000
00001000
00000000
,
00000200
00000000
00000300
00000000
,
00002000
00000000
00003000
00000000
,
00020000
00000000
00030000
00000000
,
00200000
00000000
00300000
00000000
,
00100000
00100000
01000000
01000000
,
00010000
20000000
00000000
30000000
,
01000000
00000000
01000000
00000000
,
00010000
00000000
00010000
00000000
,
00002000
00000000
00003000
00000000
,
00020000
00000000
00030000
00000000
,
00000020
00000000
00000030
00000000
,
00002000
00000000
00003000
00000000
,
00000010
00000010
00001000
00000001
,
00001001
00000000
00000000
00000000
,
00000000
00020000
00002000
00033000
,
00011000
00001000
00010000
00000000
,
00100000
00010000
01000000
00000000
,
00100000
10000000
01000000
00000000
,
10000000
01000000
00010000
00001000
,
00000100
00000001
00000010
00000000
,
00000001
00001000
00000100
00000000
,
00000010
00001000
00000100
00000010
,
00000001
00000100
00001000
00000000
,
00010000
00001000
00010000
00001000
,
00010000
00000000
00100000
00000000
,
01000000
00010000
01000000
00010000
,
10000000
10000000
10000000
10000000
,
01000000
00000000
00010000
00000000
,
00001000
00010000
00001000
00010000
,
00000010
00000000
00000100
00000000
,
00000001
00001000
00000001
00001000
,
00000001
00000000
00000100
00000000
,
00000010
00000010
00000010
00000000
,
00001000
00000000
00001000
00000000
,
00000100
00010000
00001000
00001000
,
00010000
00000000
00001000
00000000
,
00100000
00100000
00100000
00000000
,
00010000
00000000
10000000
00000000
,
00100000
00100000
00100000
00100000
,
20000000
00000000
00000000
30000000
,
02000000
00000000
00000000
03000000
,
00020000
00000000
00000000
00030000
;

//---------------dance-double - ----------------
#NOTES:
     dance-double:
     :
     Medium:
     6:
     :
00000000
00000000
00000000
00000000
,
00000000
00000000
00000000
00000000
,
00000000
00000000
00000000
00000000
,
00000000
00000000
00000000
00000000
,
00000000
00000000
00000000
00000000
,
00100000
00000000
00000000
10000000
00000000
00000000
00010000
00000000
,
00000000
00001000
00000000
00000100
00000000
00000000
00000001
00000000
,
00000010
00000010
00000100
00000100
,
00010000
00010000
01000000
01000000
,
10010000
00000000
00000000
00000000
,
00000000
00000000
00001010
00000101
,
00000100
00000010
00001000
00000001
,
00000100
00000010
00001000
00000001
,
00000100
00001000
00010000
01000000
,
10000000
00010000
01000000
00100000
,
10000000
00010000
01000000
00100000
,
01000000
00001000
00010000
00000100
,
00000010
00000001
00001000
00000100
,
00000010
00000001
00001000
00000100
,
00010000
00001000
00010000
00000000
00000000
00000000
01000000
00000000
,
10000000
00100000
01000000
00001000
,
00001000
00010000
00001000
00000000
00000000
00000000
00000100
00000000
,
00000001
00000100
00000010
00010000
,
00010000
00001000
00010000
00000000
00000000
00000000
01000000
00000000
,
10000000
00100000
01000000
00001000
,
00001000
00010000
00001000
00000000
00000000
00000000
00000100
00000000
,
00000001
00000100
00000010
00001000
,
00011000
00000000
00000000
00000000
,
00000000
00000000
10010000
00000000
,
00011000
00001000
00001000
00000000
00000100
00000000
00000001
00000000
,
00000010
00000010
00000100
00000100
,
00010000
00000000
00010000
00000000
00001000
00010000
01000000
10000000
,
00000000
00000000
10010000
00100000
,
01000000
00000000
01000000
00000000
00001000
00010000
00001000
00000000
,
00010000
00000000
00010000
00000000
00000100
00001000
00000100
00000000
,
00000010
00000010
00000001
00001001
,
00000000
00010100
00011000
00000000
,
10000000
01000000
10000000
00000000
01000000
00000000
01000000
00000000
,
00100000
00100000
00001000
00001000
,
00000100
00000000
00000100
00000000
00001000
00000100
00000001
00000010
,
00000000
00000000
00001000
00001000
,
00000010
00000000
00000010
00000000
00000100
00001000
00000100
00000000
,
00001000
00000000
00001000
00000000
00010000
01000000
00010000
00000000
,
01000000
01000000
10000000
10000000
,
00100000
00100000
00010000
00010000
,
00011000
00000000
00000000
00000000
,
00000000
01001000
00011000
00000000
,
00000010
00000001
00000100
00000000
00001000
00000000
00010000
00000000
,
01000000
00010000
00001000
00000100
,
00001000
00001000
00010000
00010000
,
01000000
10000000
00100000
01100000
,
10010000
00000000
01010000
11000000
,
00100000
10000000
01000000
00000000
00010000
00000000
00001000
00000000
,
00000100
00001000
00010000
01000000
,
00010000
00010000
00001000
00000110
,
00001001
00000000
00001010
00000101
,
00000001
00000100
00001000
00000000
00010000
00000000
00001000
00000000
,
00000100
00001000
00010000
01000000
,
00010000
01000000
10000000
00100000
,
01100000
00000000
01010000
11000000
,
10000000
01000000
00010000
00000000
00001000
00000000
00000100
00000000
,
00001000
00010000
01000000
00010000
,
00001000
00000100
00001000
00000000
00000100
00000010
00000100
00000000
,
00000110
00000000
00000001
00001000
,
00000001
00000000
00001000
00000000
00000100
00010000
00000100
00000000
,
00010000
01000000
00010000
01000000
,
10000000
00000000
00100000
00000000
01000000
00010000
01000000
00000000
,
00001000
00010000
00001000
00010000
,
00000100
00000000
00000010
00000000
00000001
00001000
00000001
00000000
,
00000100
00000010
00000100
00000010
,
00001000
00000000
00000001
00000000
00000100
00001000
00000100
00001000
,
00002000
00000000
00000000
00023000
,
02030000
00000000
00000000
03000000
;

//---------------dance-double - ----------------
#NOTES:
     dance-double:
     :
     Hard:
     8:
     :
00000000
00000000
00000000
00000000
,
00000000
00000000
00000000
00000000
,
00000000
00000000
00000000
00000000
,
00000000
00000000
00000000
00000000
,
00000000
00000000
00000000
00000000
,
00000002
00000000
00000000
00002003
00000000
00000000
00003020
00000000
,
00000000
00002030
00000000
00003020
00000000
00000030
00010010
00000000
,
00012000
00100000
00100000
00100000
,
01000000
00000000
01003000
00000000
01000000
00010000
00001000
00010000
,
00001000
00000000
00000000
00000000
,
00000000
00000000
00101000
00010100
,
00001000
00000000
00000010
00000000
00000100
00000001
00000010
00000000
,
00000100
00001000
00000100
00000000
00010000
00001000
00000100
00001000
,
00010000
00000000
00101000
00000000
00010000
01000000
00100000
00000000
,
10000000
01000000
10000000
00000000
01000000
00100000
00010000
00100000
,
01000000
00000000
01100000
00000000
00100000
00010000
01000000
00000000
,
00001000
00010000
00001000
00000000
00000100
00000001
00000010
00000001
,
00000100
00000000
00001001
00000000
00000100
00000010
00001000
00000000
,
00000100
00001000
00000100
00010000
00001000
00010000
01000000
00100000
,
01000000
00000000
00000000
00000000
00000000
00210000
00000000
00010000
,
00000000
00310000
00000000
00010000
00100000
01000000
00100000
00010000
,
00000000
00011000
00000000
00000000
00000000
00011000
00000000
00001200
,
00000000
00001000
00000000
00001300
00000000
00001000
00000100
00000010
,
00000100
00000000
00000000
00000000
00000000
00000011
00000000
00000001
,
00000000
00000001
00000000
00000001
00000010
00000100
00000010
00000001
,
00000000
00000101
00000000
00001100
00000000
00011000
00000000
00100000
,
00000000
00100000
01000000
10000000
01000000
00100000
01000000
10000000
,
02000000
00000000
00000000
03020000
00000000
00000000
00032000
00000000
,
00003000
00101000
00000000
00010100
00000000
00000000
00000100
00000000
,
00000010
00000001
00000100
00000001
00000000
00001000
00000100
00001000
,
00000000
00000200
00010000
00001000
,
00010300
00001000
00000100
00001000
00000000
00010000
01000000
00010000
,
00000000
00000000
00110000
01100000
,
01010000
00000000
01100000
00000000
01000000
10000000
01000000
00100000
,
00010000
00000000
00011000
00000000
00010000
00001000
00000100
00000010
,
00000001
00000000
00000110
00000000
00001000
00000001
00000010
00000100
,
00002000
00000000
00000000
00003000
,
00000010
00000001
00000100
00000001
00000000
00001000
00000100
00001000
,
00000000
00000200
00010000
00001000
,
00010300
00001000
00000100
00001000
00000000
00010000
01000000
00010000
,
00000000
00000000
01100000
10010000
,
11000000
00000000
01010000
00000000
00010000
10000000
01000000
00100000
,
00010000
00000000
00011000
00000000
00010000
00100000
01000000
10000000
,
01000000
00000000
01100000
00000000
00010000
10000000
01000000
00100000
,
00011000
00000100
00001100
00000101
,
00001001
00000000
00000000
00000000
,
00000000
00010010
01001000
00000000
,
01000000
10000000
00100000
00000000
01000000
00010000
00100000
00000000
,
00001000
00010000
00000100
00000000
00000010
00000001
00001000
00000000
,
00000100
00010000
00001000
00000000
01000000
00010000
00100000
00000000
,
00001000
00010000
00000010
00000000
00000100
00000001
00000010
00000000
,
00000001
00000100
00001000
00000000
00010000
00001000
00000100
00000000
,
00001000
00010000
01000000
00000000
10000000
00100000
01000000
00000000
,
00001000
00010000
00000100
00000000
00000010
00000001
00000100
00000000
,
00001000
00000100
00000001
00000000
00001000
00000100
00010000
00000000
,
00001000
01000000
00100000
00000000
10000000
00000000
10010000
00000000
,
01000000
00100000
00001000
00000000
00010000
00000000
00011000
00000000
,
00001000
00000100
00000001
00000000
00000010
00000000
00000110
00000000
,
00000100
00010000
00001000
00000000
00010000
00000000
00011000
00000000
,
01000000
00100000
01000000
00100000
10000000
00000000
10100000
00000000
,
01000000
00001000
01000000
00001000
00100000
00000000
00101000
00000000
,
00010000
00001000
00000100
00001000
00000100
00000001
00000010
00000000
,
00001000
00010000
00100000
00010000
00100000
10000000
01000000
00000000
,
00011000
00000000
00000000
00000000
00000000
00001020
00000000
00001000
,
00000000
00001030
00000000
00001000
00000100
00000010
00000100
00000000
,
00001100
00000000
00000011
00000000
00000001
00000100
00001000
00000100
,
00000000
00011000
00000000
00001000
00010000
01000000
00010000
00000000
,
11000000
00000000
00110000
00000000
10000000
01000000
00010000
01000000
,
00000000
00011000
00000000
00010000
00001000
00000100
00001000
00000000
,
00011000
00000000
00010100
00000000
00000100
00000010
00000001
00001000
,
00000000
00001000
00000000
00001000
00000010
00000100
00000001
00000010
,
00000002
00000000
00000000
00000203
00000000
00000000
00020300
00000000
,
01030000
20000000
00000000
30200000
00000000
00000000
00320000
00000000
,
00000000
00000000
00000000
00030000
;

//---------------dance-double - ----------------
#NOTES:
     dance-double:
     :
     Challenge:
     9:
     :
00000000
00000000
00000000
00000000
,
00000000
00000000
00000000
00000000
,
00000000
00000000
00000000
00000000
,
00000000
00000000
00000000
00000000
,
00000000
00000000
00000000
00000000
,
00011000
00000000
00000000
00000100
00000000
00000000
00000001
00000000
,
00000000
00001000
00000000
00011000
00000000
00000000
00010000
00000000
,
01000000
01010000
00010000
00011000
,
00000100
00000110
00000001
00001100
,
00011000
00000000
00000000
01010000
00000000
00000000
10000000
00000000
,
00000000
00000000
00010000
00000000
00000000
00000000
00011000
00000000
00000000
00000000
00000000
00000000
00000100
00000010
00000100
00000000
,
00001001
00000000
00000001
00000000
00001000
00000100
00010000
00001000
,
00000000
01001000
00000000
00100000
10000000
01000000
00100000
01000000
,
10000000
00000000
01000000
00000000
00010000
00001000
00000100
00001000
,
00000000
00011000
00000000
00000100
00000010
00000100
00001000
00000100
,
00000010
00000000
00001000
00000000
00000001
00000100
00001000
00000100
,
00000000
00000110
00000000
00000100
00001000
00010000
00001000
00000100
,
00001000
00000000
00011000
00000000
00010000
00100000
10000000
00100000
,
00010000
00100000
10000000
01000000
00010000
00001000
00000100
00000001
,
00000010
00000000
00000100
00000000
00000010
00000001
00000100
00000001
,
00000000
00001001
00000000
00001000
00010000
01000000
00010000
00001000
,
00010000
00000000
01000000
00000000
10000000
01000000
00010000
01000000
,
00000000
01100000
00000000
00010000
00001000
00000100
00001000
00010000
,
00001000
00000000
00000100
00000000
00000001
00000010
00001000
00000010
,
00000000
00001001
00000000
00000100
00001000
00010000
00001000
00000100
,
00001000
00000000
00011000
00000000
00001000
00000010
00000001
00000010
,
00001000
00000010
00000001
00000100
00001000
00010000
01000000
10000000
,
00200000
00000000
00000000
00300000
,
00000000
00000000
00000000
00000000
00000000
00000000
00000000
00000000
00011000
00000000
00000000
00000000
00010000
00001000
00010000
00001000
,
00010000
00000000
00000000
00010000
01000000
00000000
01000000
00100000
00000000
00000000
00010000
00000000
10000000
00000000
01000000
00000000
,
00000000
00100000
00000000
00001000
00000000
00010000
00000000
00000100
00000000
00000000
00000100
00000010
00000100
00000000
00001000
00000000
,
00000100
00000010
00000001
00000010
00000100
00010000
00001000
00010000
,
00000000
00000000
00000000
00000000
00000000
00000000
01000000
00000000
00000000
10000000
00000000
00010000
00100000
00010000
00100000
01000000
,
00100000
00000000
00000000
00000000
00000000
00000000
01000000
00000000
00000000
00100000
00000000
00001000
00000000
00010000
00000000
00000100
,
00001000
00000000
00000000
00000000
00000000
00000000
00000010
00000000
00000000
00001000
00000000
00001000
00000010
00001000
00000010
00000100
,
00000010
00000000
00000000
00000000
00000000
00000000
00000000
00000000
00000000
00000001
00000000
00000100
00000000
00001000
00000000
00000100
,
00000000
00000000
00002000
00000000
00000000
00203000
00000000
00000000
00320000
00000000
00000000
00030000
01000000
00000000
00100000
00000000
,
10000000
01000000
00010000
01000000
00000000
00010000
00001000
00000010
,
00000000
00000001
00000000
00000100
00000000
00001000
00000000
00000100
00000000
00000000
00001000
00000000
00010000
00000000
01000000
00000000
,
10000000
00000000
00000000
10000000
00000000
01000000
00000000
00010000
00000000
01000000
00000000
00000000
10000000
00000000
01100000
00000000
,
00000000
00000000
00000000
00000000
00000000
00000000
01100000
00000000
00000000
01000000
00000000
00010000
00000000
00001000
00000000
00000100
,
00001000
00000000
00000000
00000000
00000000
00000000
00000110
00000000
00000000
00000100
00000000
00001000
00000000
00010000
00000000
01000000
,
00010000
00000000
00000000
00000000
00000000
00000000
01100000
00000000
00000000
01000000
00000000
00010000
00000000
00001000
00000000
00000100
,
00001000
00000000
00000000
00000000
00000000
00000000
00000000
00000000
00000000
00100000
00000000
10000000
00000000
01000000
00000000
00010000
,
00000000
00002000
00000000
00000000
00003200
00000000
00000000
00000302
00000000
00000000
00000003
00000000
00000000
00000000
00000000
00000000
,
00001001
00000000
00000000
00000000
,
00000000
00010010
01001000
00000000
,
00100000
10000000
01000000
00100000
01000000
10000000
01000000
00100000
,
00001000
00010000
01000000
00010000
00001000
00010000
01000000
00010000
,
00001000
00000100
00000010
00000100
00001000
00000100
00000010
00000100
,
00000001
00000010
00000100
00000010
00000001
00000010
00000100
00010000
,
00010000
00001000
00000100
00001000
00010000
01000000
10000000
00100000
,
00010000
00001000
00000010
00000001
00000100
00001000
00010000
01000000
,
00010000
00001000
00000100
00001000
00010000
01000000
10000000
00100000
,
00010000
00001000
00000010
00000001
00000100
00001000
00000100
00000001
,
00000100
00001000
00100000
00010000
10000000
01000000
00100000
01000000
,
10000000
01000000
00010000
00001000
00000100
00000001
00000100
00001000
,
00010000
01000000
10000000
01000000
00010000
00001000
00000100
00000010
,
00000100
00001000
00000100
00000010
00010000
00001000
00010000
01000000
,
10000000
01000000
00100000
01000000
10000000
01000000
10000000
00100000
,
01000000
00010000
00100000
00001000
00010000
00000100
00001000
00000010
,
00000100
00000001
00000010
00000010
00000001
00000100
00000010
00001000
,
00000100
00010000
00001000
00100000
00010000
01000000
00100000
10000000
,
01000000
00000000
00000000
10000000
00000000
00010000
00000000
10000000
,
00000000
00010000
00000000
10000000
01000000
00010000
00001000
00000000
,
00000100
00000000
00000001
00000000
00000001
00000100
00001000
00010000
,
00000000
00001000
00000000
00010000
01000000
10000000
01000000
00000000
,
10000000
01000000
00100000
01000000
10000000
01000000
00100000
00001000
,
00010000
01000000
00010000
00001000
00010000
01000000
00010000
00000010
,
00000100
00001000
00000100
00000010
00000100
00001000
00000100
00000001
,
00000000
00001000
00000000
00000001
00000100
00000010
00001000
00000100
,
00010000
00000000
00010000
01000000
00000000
00000000
00100000
00000000
,
00100000
00001000
00000000
00000100
00000000
00000000
00001001
00000000
;
