#TITLE:Get Away;
#ARTIST:GRIDLOK;
#BANNER:Get Away.png;
#BACKGROUND:Get Away-bg.png;
#CDTITLE:./CDTITLES/Dance Dance Revolution ULTRAMIX4.png;
#MUSIC:Get Away.ogg;
#SAMPLESTART:33.498;
#SAMPLELENGTH:15;
#DISPLAYBPM:172;
#BPMS:0=171.986,264=173.045,266=174.725;
#BGCHANGES:4=Get Away.avi=1=0=0=0,264=Get Away-bg.png=1=0=0=1;

//---------------dance-single - ----------------
#NOTES:
     dance-single:
     :
     Beginner:
     1:
     :
0000
0000
0000
0000
,
0000
0000
0000
0000
,
0000
0000
0000
0000
,
0000
0000
0000
0000
,
0000
0000
0000
0000
,
0100
0000
0000
0000
,
0000
0000
0000
0000
,
1000
0000
0001
0000
,
0100
0000
0100
0000
,
0100
0000
0000
0000
,
0010
0000
0000
0000
,
0100
0000
0000
0000
,
0010
0000
0000
0000
,
1000
0000
0000
0000
,
0001
0000
0000
0000
,
0010
0000
0000
0000
,
1000
0000
1000
0000
,
1001
0000
0000
0000
,
0000
0000
0000
0000
,
0110
0000
0000
0000
,
0000
0000
0000
0000
,
1001
0000
0000
0000
,
1001
0000
0000
0000
,
0001
0000
1000
0000
,
0010
0000
0010
0000
,
0010
0000
0000
0000
,
0100
0000
0000
0000
,
0010
0000
0000
0000
,
0100
0000
0100
0000
,
0001
0000
0000
0000
,
1000
0000
0000
0000
,
0001
0000
1000
0000
,
0100
0000
0100
0000
,
0100
0000
0000
0000
,
0010
0000
0000
0000
,
0100
0000
0000
0000
,
0010
0000
0010
0000
,
0001
0000
0000
0000
,
1000
0000
0000
0000
,
0010
0000
0100
0000
,
0010
0000
0100
0000
,
0110
0000
0000
0000
,
0010
0000
0000
0000
,
0001
0000
0000
0000
,
0100
0000
0000
0000
,
1000
0000
0000
0000
,
0001
0000
0000
0000
,
1000
0000
0000
0000
,
0100
0000
0100
0000
,
0100
0000
0000
0000
,
0010
0000
0000
0000
,
0100
0000
0000
0000
,
1000
0000
1000
0000
,
0001
0000
0000
0000
,
0100
0000
0000
0000
,
0010
0000
0000
0000
,
0100
0000
0100
0000
,
0001
0000
0001
0000
,
0001
0000
0000
0000
,
1000
0000
1000
0000
,
1000
0000
0000
0000
,
0100
0000
0100
0000
,
0100
0000
0000
0000
,
0010
0000
0010
0000
,
0001
0000
1000
0000
,
0001
0000
0000
0000
;

//---------------dance-single - ----------------
#NOTES:
     dance-single:
     :
     Easy:
     3:
     :
0000
0000
0000
0000
,
0000
0000
0000
0000
,
0000
0000
0000
0000
,
0000
0000
0000
0000
,
0000
0000
0000
0000
,
1001
0000
0001
0000
,
1000
0000
0010
0000
,
0100
0000
0001
0000
,
1000
0010
0100
0001
,
2000
0000
0000
3000
,
0002
0000
0000
0003
,
2000
3000
0002
0003
,
1000
1000
0001
0001
,
0020
0000
0000
0030
,
0200
0000
0000
0300
,
0020
0030
0200
0300
,
1000
0100
0010
0001
,
1000
0000
0000
0000
,
0100
0000
0000
0000
,
1001
0000
0000
0000
,
0010
0000
0000
0000
,
1001
0000
0100
0000
,
1001
0000
0010
0000
,
1001
0000
1001
0000
,
0001
0100
0010
1000
,
0001
0000
0010
0000
,
1000
0000
0010
0001
,
0100
0000
1000
0000
,
0100
0000
0001
0010
,
0100
0000
1000
0000
,
0010
0000
0100
0010
,
2000
3000
0002
0003
,
1000
0001
0010
0100
,
1000
0000
0010
0000
,
0100
0000
0001
1000
,
0001
0000
0100
0000
,
0010
0000
1000
0001
,
1000
0000
0100
0000
,
0010
0000
0001
0100
,
0010
0000
1000
0000
,
0001
0000
1000
0000
,
1001
0000
0000
0000
,
0010
0000
0000
0000
,
0001
0000
0000
0000
,
0100
0000
0000
0000
,
1000
0000
0000
0000
,
0010
0000
0000
0000
,
0001
0000
0000
0000
,
0100
1000
0010
0001
,
0100
0000
0010
0000
,
1000
0000
0010
0000
,
0100
0000
0001
0000
,
0010
0000
0001
0000
,
1000
0000
0100
0000
,
0010
0000
0100
0000
,
1000
0000
0001
0000
,
0100
0000
0010
0000
,
1000
0000
0001
0000
,
0010
0010
0100
0000
,
1000
0000
1000
0000
,
0010
0010
0100
0000
,
0001
0000
0001
0000
,
0010
0010
0100
0000
,
2000
3000
0002
0003
,
1000
0100
0010
0001
,
1001
0000
0000
0000
;

//---------------dance-single - ----------------
#NOTES:
     dance-single:
     :
     Medium:
     6:
     :
0000
0000
0000
0000
,
0000
0000
0000
0000
,
0000
0000
0000
0000
,
0000
0000
0000
0000
,
0000
0000
0000
0000
,
0000
1000
0000
0100
,
0000
0001
0000
0010
,
0000
1000
0000
0001
,
1001
0001
0110
1000
,
1001
0000
0000
1000
0002
0000
0000
0103
,
0002
0000
0000
0013
0002
0000
0000
0013
,
0200
0000
0000
1300
0200
0000
0000
1300
,
0020
0000
0000
1030
0002
0000
0000
1003
,
1001
0000
0000
0010
0200
0000
0000
1300
,
0002
0000
0000
0103
0020
0000
0000
1030
,
0200
0000
0000
0310
0002
0000
0000
1003
,
0001
0000
1001
0000
0100
0000
1001
0200
,
0001
0000
0010
0000
,
1000
0000
0000
0000
0010
0000
0000
0302
,
0010
0000
1000
0000
,
0100
0000
0000
0000
1000
0000
0000
0023
,
0100
0000
0000
0000
0001
0000
0030
0200
,
1000
0000
0000
0000
0010
0000
0300
2000
,
0001
0000
3000
0020
0100
0000
0030
0100
,
0010
1001
0100
1001
,
0100
0001
0010
0100
,
1000
0010
0001
0010
,
0100
0010
1000
0100
,
1000
0001
0010
0001
,
1000
0100
0001
0100
,
0010
0001
0100
0010
,
0001
0010
1000
0001
,
1100
1000
0101
0001
,
0110
1000
0001
0010
,
0100
1100
0001
0101
,
1000
0010
0001
0010
,
1000
1100
0010
0011
,
0100
1000
0010
0100
,
0001
1100
1000
0101
,
0010
1000
0001
0100
,
0010
0101
0010
1100
,
0002
0000
0000
0000
,
0203
0000
0000
0000
,
2300
0000
0000
0000
,
3200
0000
0000
0000
,
0302
0000
0000
0000
,
2003
0000
0000
3000
,
0200
0000
0000
0300
,
0010
0011
0100
0101
,
1000
0001
0100
0000
0010
0000
1000
0000
,
0001
0010
1000
0010
,
0100
1000
0001
0000
0100
0000
0010
0000
,
0001
0010
1000
0001
,
0010
0001
0100
0000
0001
0000
0010
0000
,
0100
1000
0001
1000
,
0010
1000
0100
0000
0001
0000
0100
0000
,
1000
0100
0001
0100
,
1000
0001
1000
0000
0010
0000
0100
0000
,
0001
0000
0010
0000
0001
0100
0000
0010
,
1000
0100
1000
0001
,
0010
0000
0100
0000
1000
0010
0000
0100
,
0001
1000
0001
0010
,
1000
0000
0010
0000
0001
1000
0000
0100
,
0010
0001
0100
0010
,
0110
1000
0110
0001
,
1001
0000
0000
0000
;

//---------------dance-single - ----------------
#NOTES:
     dance-single:
     :
     Hard:
     8:
     :
0000
0000
0000
0000
,
0000
0000
0000
0000
,
0000
0000
0000
0000
,
0000
0000
0000
0000
,
0000
0000
0000
0000
,
1001
0100
0010
0000
0100
0001
0010
0000
,
0100
1000
0010
0000
0001
0010
1000
0000
,
0001
0100
1000
0000
0100
0001
0010
0000
,
1100
0011
0101
1010
,
1001
0000
0100
0001
0000
1000
0100
0010
,
0000
0001
0010
0100
0000
1000
0001
0100
,
0000
0010
0100
0001
0000
1000
0010
0100
,
0000
0001
1000
0100
0000
0010
0100
1000
,
0101
0000
0100
0001
0000
0010
0001
0100
,
0000
0010
1000
0001
0000
0100
0001
0010
,
0000
0100
1000
0001
0000
0010
0001
0100
,
1010
0101
0011
1100
,
1001
0000
0000
0100
0000
0000
1000
0000
0100
0000
0000
0010
0000
0000
0100
0000
,
1000
0000
0000
0010
0000
0000
1000
0000
0100
0000
0010
0001
0000
0000
1000
0000
,
0001
0000
0000
0100
0000
0000
0001
0000
0100
0000
0000
0010
0000
0000
0100
0000
,
0001
0000
0000
0010
0000
0000
0001
0000
0100
0000
0010
1000
0000
0000
0100
0000
,
1001
0000
0200
0000
0000
0300
0000
0000
,
0011
0000
0200
0000
0000
0300
0000
0000
,
1100
0000
0101
0000
,
0011
0101
1100
1010
,
1001
0100
0001
1000
0100
0010
1000
0010
,
0001
1000
0010
0001
0010
1000
0000
0001
,
0100
0010
1000
0100
1000
0001
0100
0001
,
0010
0100
1000
0001
0100
0010
0000
0010
,
0100
0001
1000
0100
0010
0001
0100
0001
,
1000
0100
1000
0010
0100
0001
0000
0001
,
0100
0010
1000
0000
0100
0010
0001
0000
,
1001
1100
0101
0011
,
1001
0000
0000
0100
0000
0000
0001
0000
1000
0000
0100
0000
0010
0000
0000
0000
,
0100
0000
0000
1000
0000
0000
0010
0000
0100
0000
0001
0000
0010
0000
0001
0000
,
1000
0000
0000
0010
0000
0000
0100
0000
0010
0000
1000
0000
0001
0000
0000
0000
,
0010
0000
0000
0100
0000
0000
0010
0000
0001
0000
0100
0000
0010
0000
1000
0000
,
0001
0000
0000
0010
0000
0000
0100
0000
1000
0000
0010
0000
1000
0000
0000
0000
,
0100
0000
0000
0010
0000
0000
0001
0000
0100
0000
0010
0000
1000
0000
0001
0000
,
1000
0000
0100
0010
0000
0001
0100
0001
,
0010
0000
0000
0000
0100
0000
1000
0000
0000
0000
0010
0100
0010
0000
0000
0000
,
1002
0000
0000
0000
0000
0000
0000
0000
0000
0000
0000
0000
0000
0000
0003
0100
,
0020
0000
0000
0000
0000
0000
0000
0000
0000
0000
0000
0000
0000
0000
0030
1000
,
0002
0000
0000
0000
0000
0000
0000
0000
0000
0000
0000
0000
0000
0000
0003
0100
,
0020
0000
0000
0000
0000
0000
0000
0000
0000
0000
0000
0000
0000
0000
0030
1000
,
0002
0000
0000
0000
0000
0000
0003
0000
0020
0000
0000
0000
0000
0000
0030
0100
,
2000
0000
0000
0000
0000
0000
3000
0000
0002
0000
0000
0000
0000
0000
0003
0010
,
0001
1000
0100
0010
,
1001
0101
0110
1010
,
1001
0100
0001
0000
1000
0010
1000
0000
,
0100
1000
0001
0100
0010
1000
0001
0010
,
0100
1000
0100
0000
0010
0001
0010
0000
,
0001
0010
0100
1000
0100
0010
0001
1000
,
0110
0001
1000
0000
0010
1000
0001
0000
,
0100
0010
1000
0100
1000
0001
0010
0100
,
1000
0010
0100
0000
0001
0100
0010
0000
,
1000
0001
0100
0010
0100
0001
0010
0100
,
1001
0000
0100
0020
0000
0000
1030
0002
,
0000
0000
0013
0200
0000
0000
1300
0001
,
1010
0000
0100
0002
0000
0000
0013
0200
,
0000
0000
1300
0020
0000
0000
0130
0001
,
1100
0000
1000
0100
1000
0010
0200
0000
,
0301
0100
0010
1000
0100
1000
0002
0000
,
0013
0100
1000
0010
0100
0001
0010
0001
,
1100
0101
1010
0011
,
2002
0000
0000
0000
,
3003
0000
0000
0000
;

//---------------dance-double - ----------------
#NOTES:
     dance-double:
     :
     Beginner:
     1:
     :
00000000
00000000
00000000
00000000
,
00000000
00000000
00000000
00000000
,
00000000
00000000
00000000
00000000
,
00000000
00000000
00000000
00000000
,
00000000
00000000
00000000
00000000
,
10000000
00000000
00000000
00000000
,
00000000
00000000
00000000
00000000
,
00010000
00000000
10000000
00000000
,
00100000
00000000
00100000
00000000
,
00100000
00000000
00000000
00000000
,
00010000
00000000
00000000
00000000
,
00001000
00000000
00000000
00000000
,
00000100
00000000
00000000
00000000
,
00000001
00000000
00000000
00000000
,
00000010
00000000
00000000
00000000
,
00001000
00000000
00000000
00000000
,
00010000
00000000
00010000
00000000
,
00011000
00000000
00000000
00000000
,
00000000
00000000
00000000
00000000
,
01100000
00000000
00000000
00000000
,
00000000
00000000
00000000
00000000
,
10010000
00000000
00000000
00000000
,
10010000
00000000
00000000
00000000
,
00100000
00000000
00001000
00000000
,
00010000
00000000
00010000
00000000
,
00010000
00000000
00000000
00000000
,
00001000
00000000
00000000
00000000
,
00000100
00000000
00000000
00000000
,
00000001
00000000
00000010
00000000
,
00000001
00000000
00000000
00000000
,
00000100
00000000
00000000
00000000
,
00001000
00000000
00010000
00000000
,
00001000
00000000
00001000
00000000
,
00001000
00000000
00000000
00000000
,
00010000
00000000
00000000
00000000
,
00100000
00000000
00000000
00000000
,
10000000
00000000
01000000
00000000
,
10000000
00000000
00000000
00000000
,
00100000
00000000
00000000
00000000
,
00010000
00000000
00001000
00000000
,
00010000
00000000
00001000
00000000
,
00011000
00000000
00000000
00000000
,
00001000
00000000
00000000
00000000
,
00000100
00000000
00000000
00000000
,
00000001
00000000
00000001
00000000
,
00000100
00000000
00000000
00000000
,
00001000
00000000
00000000
00000000
,
00010000
00000000
00000000
00000000
,
00001000
00000000
00001000
00000000
,
00001000
00000000
00000000
00000000
,
00100000
00000000
00000000
00000000
,
00010000
00000000
00000000
00000000
,
10000000
00000000
10000000
00000000
,
00100000
00000000
00000000
00000000
,
01000000
00000000
00000000
00000000
,
00001000
00000000
00000000
00000000
,
00010000
00000000
00000000
00000000
,
00001000
00000000
00001000
00000000
,
00001000
00000000
00000000
00000000
,
00000010
00000000
00000010
00000000
,
00000010
00000000
00000000
00000000
,
00000001
00000000
00000001
00000000
,
00000001
00000000
00000000
00000000
,
00000100
00000000
00000100
00000000
,
00001000
00000000
00010000
00000000
,
00001000
00000000
00000000
00000000
;

//---------------dance-double - ----------------
#NOTES:
     dance-double:
     :
     Easy:
     3:
     :
00000000
00000000
00000000
00000000
,
00000000
00000000
00000000
00000000
,
00000000
00000000
00000000
00000000
,
00000000
00000000
00000000
00000000
,
00000000
00000000
00000000
00000000
,
00001001
00000000
00000010
00000000
,
00001000
00000000
00000100
00000000
,
00010000
00000000
00001000
00000000
,
00100000
00010000
01000000
00100000
,
20000000
00000000
00000000
30000000
,
00020000
00000000
00000000
00030000
,
00200000
00300000
00002000
00003000
,
00010000
00010000
00001000
00001000
,
00020000
00000000
00000000
00030000
,
00000200
00000000
00000000
00000300
,
00002000
00003000
00000002
00000003
,
00001000
00000010
00000100
00000001
,
00001001
00000000
00000000
00000000
,
00000100
00000000
00000000
00000000
,
00011000
00000000
00000000
00000000
,
00100000
00000000
00000000
00000000
,
10010000
00000000
01000000
00000000
,
01100000
00000000
00010000
00000000
,
00011000
00000000
00011000
00000000
,
00000100
00001000
00000010
00000100
,
00000001
00000000
00000010
00000000
,
00000100
00000000
00001000
00000100
,
00010000
00000000
00001000
00000000
,
00100000
00000000
00010000
00100000
,
01000000
00000000
10000000
00000000
,
00100000
00000000
01000000
00010000
,
00200000
00300000
00002000
00003000
,
00010000
00000100
00001000
00000010
,
00000100
00000000
00000001
00000000
,
00001000
00000000
00000100
00000010
,
00000100
00000000
00010000
00000000
,
00001000
00000000
00100000
00010000
,
00100000
00000000
01000000
00000000
,
10000000
00000000
00010000
01000000
,
00010000
00000000
00100000
00000000
,
00001000
00000000
00010000
00000000
,
00011000
00000000
00000000
00000000
,
00000100
00000000
00000000
00000000
,
00000001
00000000
00000000
00000000
,
00000010
00000000
00000000
00000000
,
00001000
00000000
00000000
00000000
,
00010000
00000000
00000000
00000000
,
00100000
00000000
00000000
00000000
,
10000000
01000000
00100000
00010000
,
10000000
00000000
00010000
00000000
,
00100000
00000000
00001000
00000000
,
00010000
00000000
00000010
00000000
,
00001000
00000000
00000001
00000000
,
00000100
00000000
00000010
00000000
,
00001000
00000000
00000100
00000000
,
00010000
00000000
00001000
00000000
,
01000000
00000000
00010000
00000000
,
10000000
00000000
01000000
00000000
,
00010000
00010000
00001000
00000000
,
00000100
00000000
00000001
00000000
,
00000100
00000100
00001000
00000000
,
00010000
00000000
01000000
00000000
,
10000000
10000000
01000000
00000000
,
00020000
00030000
00002000
00003000
,
00010000
00001000
00010000
00001000
,
00011000
00000000
00000000
00000000
;

//---------------dance-double - ----------------
#NOTES:
     dance-double:
     :
     Medium:
     6:
     :
00000000
00000000
00000000
00000000
,
00000000
00000000
00000000
00000000
,
00000000
00000000
00000000
00000000
,
00000000
00000000
00000000
00000000
,
00000000
00000000
00000000
00000000
,
00000000
00001000
00000000
00000100
,
00000000
00001000
00000000
00010000
,
00000000
01000000
00000000
00010000
,
00011000
00001000
00001100
00000100
,
00000101
00000000
00000000
00000001
00000020
00000000
00000030
00000010
,
00000200
00000000
00000300
00000100
00020000
00000000
00030000
00010000
,
00002000
00000000
00003000
00001000
02000000
00000000
03000000
01000000
,
00020000
00000000
00030000
00010000
20000000
00000000
30000000
10000000
,
10200000
00000000
00300000
01000000
00020000
00000000
00030000
00100000
,
20000000
00000000
30000000
00100000
00020000
00000000
00030000
01000000
,
00002000
00000000
00003000
00010000
00000200
00000000
00000300
00001000
,
00000002
00000000
00000023
00000000
00002030
00000000
00003010
00000002
,
00000100
00000000
00001000
00000000
,
00000010
00000000
00000000
00000000
00001003
00000000
00000000
00000020
,
00000100
00000000
00001000
00000000
,
00010000
00000000
00000000
00000000
00001030
00000000
00000000
00000200
,
00001000
00000000
00000000
00000000
00010300
00000000
00000000
00002000
,
00010000
00000000
00000000
00000000
00103000
00000000
00000000
00020000
,
01000000
00000000
00030000
20000000
01000000
00000000
30000000
01000000
,
00200000
20300000
30200000
00320000
,
10030000
00010000
01000000
00100000
,
00010000
00001000
00000100
00000010
,
00001000
00000100
00000010
00001000
,
00010000
01000000
00100000
00010000
,
10000000
00100000
01000000
00010000
,
00100000
00001000
00010000
00000100
,
00001000
00000010
00000100
00000001
,
00000020
00002030
00003020
00000032
,
00001003
00000001
00000100
00001000
,
00010000
00021000
00031000
00012000
,
00013000
00100000
10000000
01000000
,
00100000
00210000
00310000
00120000
,
00130000
01000000
10000000
00010000
,
01000000
02100000
03100000
01200000
,
01300000
00001000
00010000
00000100
,
00001000
00002001
00003001
00001002
,
00000203
00000000
00000000
00000300
,
00002000
00000000
00000000
00003000
,
00020000
00000000
00000000
00030000
,
02000000
00000000
00000000
03000000
,
20000000
00000000
00000000
30000000
,
00200000
00000000
00000000
00300000
,
00020000
00000000
00000000
00030000
,
00002000
00003200
00000302
00000023
,
00000130
00001000
00000100
00000000
00001000
00000000
00000010
00000000
,
00000100
00000001
00000100
00001000
,
00010000
00001000
00010000
00000000
00001000
00000000
00100000
00000000
,
00010000
01000000
00100000
10000000
,
01000000
10000000
01000000
00000000
00100000
00000000
00010000
00000000
,
01000000
00001000
00010000
00000100
,
00001000
00000010
00001000
00000000
00000001
00000000
00000010
00000000
,
00000100
00001000
00000010
00010000
,
00001000
00010000
00001000
00000000
00100000
00000000
00010000
00000000
,
01000000
00000000
00100000
00000000
10000000
01000000
00000000
10000000
,
00100000
01000000
00010000
01000000
,
00100000
00000000
00010000
00000000
00001000
00010000
00000000
00001000
,
00000100
00000010
00001000
00000010
,
00000100
00000000
00000001
00000000
00001000
00000001
00000000
00001000
,
00000100
00010000
00001000
00100000
,
00120000
10030000
20100000
30010000
,
01100000
00000000
00000000
00000000
;

//---------------dance-double - ----------------
#NOTES:
     dance-double:
     :
     Hard:
     8:
     :
00000000
00000000
00000000
00000000
,
00000000
00000000
00000000
00000000
,
00000000
00000000
00000000
00000000
,
00000000
00000000
00000000
00000000
,
00000000
00000000
00000000
00000000
,
00000110
00001000
00010000
01000000
,
10000000
01000000
00010000
00001000
,
00000100
00000001
00000100
00000000
00001000
00000100
00001000
00000000
,
00000011
00001001
00001100
00010100
,
00011000
00100000
00010000
00000000
10000000
00100000
10000000
00000000
,
00010000
01000000
00100000
00000000
01000000
00001000
00010000
00000000
,
00001000
00010000
00000100
00000000
00000010
00000100
00001000
00000000
,
00000001
00000010
00000001
00000000
00001000
00000100
00001000
00000000
,
00011000
01000000
00010000
00000000
10000000
01000000
10000000
00000000
,
00010000
00100000
01000000
00000000
00100000
00001000
00010000
00000000
,
00001000
00010000
00000010
00000000
00000100
00000010
00001000
00000000
,
00001001
00000110
00001100
00011000
,
01010000
00000000
00000000
10000000
00100000
00000000
00000000
00010000
,
00001000
00000000
00000000
00000000
00000000
00000000
00000100
00000000
00000001
00000000
00000000
00000100
00000000
00000000
00001000
00000000
,
00010000
00000000
00000000
01000000
10000000
00000000
00000000
01000000
,
00010000
00000000
00000000
00000000
00000000
00000000
00001000
00000000
00000010
00000000
00000000
00000001
00000000
00000000
00000010
00000000
,
00000210
00001300
00000000
00000000
,
02100000
03010000
00000000
00000000
,
00001100
00000000
01010000
00000000
,
00001010
00011000
00110000
00011000
,
00001100
00000000
00000000
00000001
00000000
00000000
00000100
00000000
00001000
00000000
00000000
00000100
00000000
00000000
00000001
00000000
,
00000100
00000000
00000000
00001000
00000000
00000000
00010000
00000000
00001000
00000000
00000000
00010000
00000000
00000000
01000000
00000000
,
10000000
00000000
00000000
01000000
00000000
00000000
00010000
00000000
01000000
00000000
00000000
10000000
00000000
00000000
01000000
00000000
,
00010000
00000000
00000000
00001000
00000000
00000000
00010000
00000000
00001000
00000000
00000000
00000100
00000000
00000000
00000001
00000000
,
00000010
00000000
00000000
00001000
00000000
00000000
00000010
00000000
00000001
00000000
00000000
00000100
00000000
00000000
00001000
00000000
,
00010000
00000000
00000000
01000000
00000000
00000000
10000000
00000000
00100000
00000000
00000000
00010000
00000000
00000000
00100000
00000000
,
10000000
01000000
10000000
00000000
00010000
01000000
00010000
00000000
,
10100000
01010000
00101000
00010100
,
00001010
00000000
00000000
00000100
00000000
00000000
00000001
00000000
00001000
00000000
00000100
00000000
00000010
00000000
00000000
00000000
,
00000100
00000000
00000000
00010000
00000000
00000000
00001000
00000000
01000000
00000000
00100000
00000000
01000000
00000000
00000000
00000000
,
00010000
00000000
00000000
00100000
00000000
00000000
01000000
00000000
10000000
00000000
00100000
00000000
10000000
00000000
00000000
00000000
,
01000000
00000000
00000000
00010000
00000000
00000000
00001000
00000000
00000100
00000000
00000001
00000000
00000010
00000000
00000001
00000000
,
00000100
00000000
00000000
00000010
00000000
00000000
00000001
00000000
00000010
00000000
00001000
00000000
00000100
00000000
00000000
00000000
,
00010000
00000000
00000000
00001000
00000000
00000000
00100000
00000000
01000000
00000000
00010000
00000000
01000000
00000000
10000000
00000000
,
00100000
01000000
01000000
00000000
00001000
00010000
00010000
00000000
,
00000100
00000000
00000010
00000000
00000010
00000000
00000000
00000000
00000100
00000000
00001000
00000001
00001000
00000000
00000000
00000000
,
00001001
00000000
00000000
00000000
00000001
00000000
00000000
00000000
00000000
00000000
00000000
00000000
00000000
00000000
00000000
00001000
,
00010000
00000000
00000000
00000000
00001000
00000000
00000000
00000000
00000000
00000000
00000000
00000000
00000000
00000000
00000000
00010000
,
10000000
00000000
00000000
00000000
00010000
00000000
00000000
00000000
00000000
00000000
00000000
00000000
00000000
00000000
00000000
00010000
,
00001000
00000000
00000000
00000000
00010000
00000000
00000000
00000000
00000000
00000000
00000000
00000000
00000000
00000000
00000000
00001000
,
00000001
00000000
00000000
00000000
00001000
00000000
00000000
00000000
00000100
00000000
00000000
00000000
00010000
00000000
00000000
00001000
,
00010000
00000000
00000000
00000000
00001000
00000000
00000000
00000000
01000000
00000000
00000000
00000000
00010000
00000000
00000000
10000000
,
00010000
10000000
01000000
00010000
,
00011000
00010100
00011000
01001000
,
00011000
00000100
00001000
00000010
00000100
00000010
00001000
00000000
,
00000001
00000010
00000100
00000010
00000001
00000100
00000010
00000000
,
00001000
00000100
00010000
00001000
00100000
00010000
10000000
00010000
,
01000000
00001000
00010000
00000100
00001000
00000001
00001000
00000000
,
00000010
00000100
00000001
00001000
00000001
00000100
00001000
00000000
,
00010000
01000000
10000000
00010000
10000000
01000000
00100000
00000000
,
00010000
10000000
00010000
01000000
00001000
00010000
00000100
00001000
,
00000001
00001000
00000010
00010000
00001000
01000000
00010000
10000000
,
00010000
00000000
00100000
00010000
01000000
00000000
10000000
01000000
,
00010000
00000000
00100000
00001000
00010000
00000000
00000010
00001000
,
00000100
00000000
00000001
00000100
00001000
00000000
00000010
00010000
,
00001000
00000000
01000000
00010000
00100000
00000000
10000000
00100000
,
00010000
00000000
01000000
00100000
00010000
00000000
00001000
00000100
,
00000010
00000000
00001000
00000100
00000001
00000000
00000100
00001000
,
00000010
00000000
00010000
00001000
01000000
00000000
00010000
00100000
,
10010000
01010000
00011000
00001100
,
00002002
00000000
00000000
00000000
00000000
00000000
00000000
00003003
;
