#TITLE:GIRIGIRI DADDY;
#ARTIST:Shoichiro Hirata;
#BANNER:GIRIGIRI DADDY.png;
#BACKGROUND:GIRIGIRI DADDY-bg.png;
#CDTITLE:./CDTITLES/beatmaniaIIDX.png;
#MUSIC:GIRIGIRI DADDY.ogg;
#SAMPLESTART:63.609;
#SAMPLELENGTH:15;
#DISPLAYBPM:98;
#BPMS:0=98.1,156=98.16;

//---------------dance-single - ----------------
#NOTES:
     dance-single:
     :
     Beginner:
     1:
     :
0000
0000
0000
0000
,
0000
0000
0000
0000
,
0001
0000
0000
0000
,
1001
0000
0000
0000
,
1000
0000
0000
0000
,
1001
0000
0000
0000
,
0010
0010
0000
0000
,
0100
0100
0000
0000
,
0010
0010
0000
0000
,
1000
1000
0000
0000
,
0001
0001
0000
0000
,
0001
0000
0000
0001
,
0000
1000
0000
1000
,
0000
1000
1000
0000
,
0010
0010
0010
0000
,
1000
1000
1000
0000
,
0001
0001
0001
0000
,
0200
0000
0300
0000
,
0010
0010
0010
0000
,
1000
1000
1000
0000
,
0001
0001
0001
0000
,
0200
0000
0300
0000
,
1001
0000
0000
0000
,
1001
0000
0000
0000
,
0110
0000
0000
0000
,
0110
0000
0000
0000
,
0010
0010
0010
0000
,
0100
0100
0100
0000
,
0000
1000
0000
1000
,
1000
0000
0000
0000
,
0010
0010
0010
0000
,
0001
0001
0001
0000
,
1000
1000
1000
0000
,
0200
0000
0300
0000
,
0010
0010
0010
0000
,
0001
0001
0001
0000
,
1000
1000
1000
0000
,
0200
0000
0300
0000
,
0001
0001
0001
0000
,
1000
1000
1000
0000
,
0010
0010
0010
0000
,
1001
0000
0000
0000
;

//---------------dance-single - ----------------
#NOTES:
     dance-single:
     :
     Easy:
     3:
     :
0000
0000
0000
0000
,
0000
0000
0000
0000
,
0010
0000
0001
0000
,
0100
0000
1000
0000
,
0001
1000
0001
0000
,
2000
0000
0000
0000
0000
0000
0000
0000
0000
3000
0000
0000
0000
0000
0000
0000
,
0001
0001
0001
0000
,
1000
1000
1000
0000
,
0001
1000
0001
0000
,
0010
0000
0100
0000
,
0010
0010
0100
0000
,
0100
0100
0010
0000
,
0001
1000
0000
0001
,
0001
0000
2000
3000
,
1000
0001
1000
0000
,
0001
1000
0001
0000
,
0010
0100
0100
0000
,
0200
0000
0000
0300
,
0010
0100
0010
0000
,
0100
0010
0100
0000
,
0001
1000
1000
0000
,
0002
0000
0000
0003
,
2000
0000
3000
0000
,
0002
0000
0003
0000
,
0200
0000
0300
0000
,
0010
0000
0110
0000
,
0010
0100
0010
0010
,
1000
0001
1000
1000
,
0100
0000
0010
0000
,
1001
0000
0000
0000
,
1000
0001
1000
0000
,
0001
1000
0001
0000
,
0010
0100
0100
0000
,
0200
0000
0000
0300
,
0010
0100
0010
0000
,
0100
0010
0100
0000
,
0001
1000
1000
0000
,
0002
0000
0000
0003
,
0001
1000
0001
0000
,
1000
0001
1000
0000
,
0100
0010
0010
0000
,
0020
0000
0000
0030
;

//---------------dance-single - ----------------
#NOTES:
     dance-single:
     :
     Medium:
     5:
     :
0000
0000
0000
0000
,
0000
0000
0000
0000
,
0010
0001
0010
0001
,
1000
0010
1000
0010
,
0100
0001
0100
0001
,
2002
0000
3003
0000
,
1000
0000
1000
0000
1000
0100
1000
0000
,
0001
0000
0001
0000
0001
0100
0001
0000
,
1000
0001
2000
3010
,
0002
0000
0103
0000
0001
1000
0001
0100
,
0001
1000
0100
0001
,
0100
0000
0010
0000
0100
0010
0100
0000
,
0001
0010
0100
1000
,
0100
0000
0010
0000
0001
1000
1001
0000
,
1010
0000
1001
0000
0001
0010
0001
0000
,
0101
0000
1001
0000
0010
0000
0100
0010
,
0110
0000
1001
0000
0001
0010
0100
0000
,
0110
1001
0110
0000
,
0011
0000
1001
0000
1000
0010
1000
0000
,
1100
0000
1001
0000
0010
0000
0100
0010
,
0110
0000
1001
0000
1000
0010
0100
0000
,
0110
1001
0110
0000
,
0010
1000
0100
1000
0010
1000
0100
0000
,
0010
0001
0100
0001
0010
0001
0100
0000
,
0010
0100
0001
1000
0010
0100
1000
0000
,
0001
1000
0100
0010
2001
0000
3002
0003
,
0010
0100
0010
0001
,
1000
0000
0100
0000
0010
0100
0010
0000
,
1000
0000
0001
0000
1000
0100
1000
0000
,
0001
0000
0000
1001
0000
0000
1000
0000
0000
1001
0000
0000
0001
0000
0000
0000
,
1100
0000
1001
0000
0001
0100
0001
0000
,
0011
0000
1001
0000
0100
0000
0010
0100
,
0110
0000
1001
0000
0001
0100
0010
0000
,
0110
1001
0110
0000
,
0101
0000
1001
0000
1000
0100
1000
0000
,
1010
0000
1001
0000
0100
0000
0010
0100
,
0110
0000
1001
0000
1000
0100
0010
0000
,
0110
1001
0110
0000
,
1100
0000
1001
0000
0001
0100
0001
0000
,
0011
0000
1001
0000
0100
0000
0010
0100
,
0110
0000
1001
0000
0001
0100
0010
0000
,
0110
0000
0000
0000
;

//---------------dance-single - ----------------
#NOTES:
     dance-single:
     :
     Hard:
     7:
     :
0000
0000
0000
0000
,
0000
0000
0000
0000
,
0120
0031
0120
1030
,
0120
0001
0130
1000
0010
0100
1001
0000
,
0120
0001
0130
0000
0120
1000
0130
0000
,
0001
0000
0000
0011
0000
1000
0000
0101
0000
2000
0000
0000
0000
0000
0000
0000
,
3001
0000
1000
0001
0100
0000
0010
0000
0110
0000
1000
0001
0000
0000
0001
0000
,
1000
0000
0100
0010
0100
0000
1000
0000
0001
1000
0001
0100
0010
0000
1001
0000
,
0100
0000
1000
0000
0101
0000
0010
1000
0100
0000
0000
0001
1000
0001
0100
0010
,
1000
0000
0000
0010
0100
0000
0001
0000
0011
0000
0000
1100
0000
0000
0010
0001
,
0011
0000
0100
0000
0001
0000
0000
0001
1000
0000
0010
0001
0010
0001
0000
0000
,
1010
0000
0010
0000
0110
0000
0100
0000
0001
0100
0001
1000
0001
0010
0000
0100
,
1000
0000
0001
0100
1000
0000
0000
0010
0000
0100
0001
0100
1000
0100
0010
0000
,
1000
0000
0001
0000
0100
0000
0010
1000
0100
1000
0010
1000
0100
0010
0000
0000
,
0001
0010
0100
0010
0001
0000
0000
1000
0010
0100
0010
1000
0000
0000
0001
0000
,
0101
0000
0000
0000
0110
0000
0000
1100
0000
0101
0000
1000
0010
0010
0100
0000
,
0110
0000
0000
0000
1001
0000
0000
0001
0010
0001
1000
0100
0000
0000
0010
0000
,
0001
0000
0100
0010
0000
1000
0000
1100
0000
0101
0000
1001
0000
0000
0000
0000
,
1000
0010
0100
0010
1000
0000
0000
0001
0010
0100
0010
0001
0000
0000
1000
0000
,
1100
0000
0000
0000
0110
0000
0000
0101
0000
1100
0000
0001
0010
0010
0100
0000
,
0110
0000
0000
0000
1001
0000
0000
1000
0010
1000
0001
0100
0000
0000
0010
0000
,
1000
0000
0100
0010
0000
0001
0000
0101
0000
1100
0000
1001
0000
0000
0000
0000
,
0001
0000
0010
0000
0001
0000
1000
0100
1000
0000
0001
0000
0010
0000
0001
0100
,
0001
0000
1000
0000
0010
0000
0001
0010
0001
0000
0010
0000
1000
0000
0100
1000
,
0010
1000
0100
0000
0010
0000
0001
0100
0001
0000
1000
0000
0010
0000
0100
0001
,
0010
0000
0000
0000
0001
0000
0000
0000
0100
0000
0000
0000
0000
0000
0000
0000
0010
0000
0000
0000
0000
0000
0000
0000
1000
0000
0000
0000
0000
0000
0000
0000
1001
0000
0000
0000
0000
0000
0000
0100
0000
0000
0000
0010
0000
0000
0000
0000
1000
0000
0000
0000
0000
0000
0000
0000
0001
0000
0000
0000
0000
0000
0000
0000
,
0100
0001
0100
0010
0100
0000
1000
0000
0010
0000
0100
0001
1000
0001
0000
0000
,
0100
0001
0100
0010
1000
0000
0010
0001
1000
0001
0100
0001
0010
0100
0000
0000
,
0100
0001
0100
1000
0001
1000
0000
0010
0100
1000
0100
0001
1000
0001
0000
1000
,
0200
0000
0301
0200
0000
1300
0200
0000
0301
0020
0000
1030
0010
0001
1001
0000
,
0101
0000
0000
0000
0011
0000
0000
0000
0100
1000
0010
1000
0000
0000
0101
0000
,
0010
0000
0000
0000
1100
0000
0000
0011
0000
0001
0000
1000
0001
0010
0001
0000
,
1100
0000
0000
0000
1010
0000
0000
0000
0100
0001
0010
0001
0000
0000
1000
0000
,
0001
0000
0100
0010
0000
1000
0000
1010
0000
0011
0000
1001
0000
0000
0000
0000
,
1100
0000
0000
0000
1010
0000
0000
0000
0100
0001
0010
0001
0000
0000
1100
0000
,
0010
0000
0000
0000
0101
0000
0000
1010
0000
1000
0000
0001
1000
0010
1000
0000
,
0101
0000
0000
0000
0011
0000
0000
0000
0100
1000
0010
1000
0000
0000
0001
0000
,
1000
0000
0100
0010
0000
0001
0000
0011
0000
1010
0000
1001
0000
0000
0000
0000
,
0001
0010
0100
0010
0001
0000
0000
1000
0010
0100
0010
1000
0000
0000
0001
0000
,
0101
0000
0000
0000
0110
0000
0000
1100
0000
0101
0000
1000
0010
0010
0100
0000
,
0110
0000
0000
0000
1001
0000
0000
0001
0010
0001
1000
0100
0000
0000
0010
0000
,
0001
0000
0100
0010
0000
1000
0000
1100
0000
0101
0000
1001
0000
0000
0000
0000
;

//---------------dance-double - ----------------
#NOTES:
     dance-double:
     :
     Beginner:
     1:
     :
00000000
00000000
00000000
00000000
,
00000000
00000000
00000000
00000000
,
10000000
00000000
00000000
00000000
,
10010000
00000000
00000000
00000000
,
10000000
00000000
00000000
00000000
,
10010000
00000000
00000000
00000000
,
00100000
00100000
00000000
00000000
,
01000000
01000000
00000000
00000000
,
00100000
00100000
00000000
00000000
,
00001000
00001000
00000000
00000000
,
00010000
00010000
00000000
00000000
,
00001000
00000000
00000000
00001000
,
00000000
00010000
00000000
00010000
,
00000000
00000010
00000010
00000000
,
00001000
00001000
00001000
00000000
,
00000001
00000001
00000001
00000000
,
00000100
00000100
00000100
00000000
,
00002000
00000000
00003000
00000000
,
00010000
00010000
00010000
00000000
,
00001000
00001000
00001000
00000000
,
00100000
00100000
00100000
00000000
,
00020000
00000000
00030000
00000000
,
10010000
00000000
00000000
00000000
,
10010000
00000000
00000000
00000000
,
01100000
00000000
00000000
00000000
,
01100000
00000000
00000000
00000000
,
00010000
00010000
00010000
00000000
,
10000000
10000000
10000000
00000000
,
00000000
00010000
00000000
00010000
,
00010000
00000000
00000000
00000000
,
00010000
00010000
00010000
00000000
,
10000000
10000000
10000000
00000000
,
01000000
01000000
01000000
00000000
,
00020000
00000000
00030000
00000000
,
00001000
00001000
00001000
00000000
,
00010000
00010000
00010000
00000000
,
00000010
00000010
00000010
00000000
,
00002000
00000000
00003000
00000000
,
00000100
00000100
00000100
00000000
,
00001000
00001000
00001000
00000000
,
00010000
00010000
00010000
00000000
,
00011000
00000000
00000000
00000000
;

//---------------dance-double - ----------------
#NOTES:
     dance-double:
     :
     Easy:
     3:
     :
00000000
00000000
00000000
00000000
,
00000000
00000000
00000000
00000000
,
00000001
00000000
00000010
00000000
,
00001000
00000000
00000100
00000000
,
00010000
00001000
00010000
00000000
,
00200000
00000000
00300000
00000000
,
10000000
10000000
10000000
00000000
,
00010000
00010000
00010000
00000000
,
00001000
00010000
00001000
00000000
,
00000010
00000000
00000100
00000000
,
00000001
00000001
00001000
00000000
,
00001000
00001000
00000001
00000000
,
00000100
00001000
00000000
00010000
,
00000000
00000000
00011000
00000000
,
00100000
00100000
10000000
00000000
,
01000000
01000000
00000000
00000000
,
00001000
00010000
00010000
00000000
,
00002000
00000000
00000000
00003000
,
00000010
00000010
00000001
00000000
,
00000100
00000100
00000000
00000000
,
00010000
00001000
00001000
00000000
,
00020000
00000000
00000000
00030000
,
00200000
00000000
00300000
00000000
,
00002000
00000000
00003000
00000000
,
00020000
00000000
00030000
00000000
,
00000010
00000000
00001001
00000000
,
00000010
00000010
00000100
00000000
,
00010000
00010000
00001000
00000000
,
00010000
00000000
10000000
00000000
,
10010000
00000000
00000000
00000000
,
01000000
01000000
10000000
00000000
,
00100000
00100000
00000000
00000000
,
00001000
00010000
00010000
00000000
,
00002000
00000000
00000000
00003000
,
00000100
00000100
00000001
00000000
,
00000010
00000010
00000000
00000000
,
00010000
00001000
00001000
00000000
,
00020000
00000000
00000000
00030000
,
00000010
00001000
00000001
00000000
,
00001000
00000100
00010000
00000000
,
00001000
00100000
00010000
00000000
,
20000000
00000000
00000000
30000000
;

//---------------dance-double - ----------------
#NOTES:
     dance-double:
     :
     Medium:
     6:
     :
00000000
00000000
00000000
00000000
,
00000000
00000000
00000000
00000000
,
00100000
00010000
00100000
00010000
,
10000000
01000000
10000000
01000000
,
00010000
00001000
00010000
00001000
,
00022000
00000000
00033000
00000000
,
00000001
00000000
00000001
00000000
00001000
00000100
00001000
00000000
,
00010000
00000000
00010000
00000000
00001000
00010000
00001000
00000000
,
00100000
00010000
20000000
30100000
,
00020000
00000000
01030000
00000000
10000000
01000000
00010000
00001000
,
00010000
00000010
00000100
00000001
,
00001000
00000000
00000001
00000000
00001000
00000100
00001000
00000000
,
00010000
00100000
01000000
00000000
,
10000000
00000000
00010000
00000000
00100000
00010000
10010000
00000000
,
10100000
00000000
10010000
00000000
01000000
00010000
00001000
00000000
,
00011000
00000000
00010100
00000000
00001000
00000000
00001000
00010000
,
00011000
00000000
01100000
00000000
10000000
01000000
00010000
00000000
,
00011000
00001010
00001100
00000000
,
00000011
00000000
00001001
00000000
00000100
00001000
00010000
00000000
,
00011000
00000000
01001000
00000000
00010000
00000000
00010000
00001000
,
00011000
00000000
00000110
00000000
00000001
00000100
00001000
00000000
,
00011000
00110000
01010000
00000000
,
00100000
10000000
01000000
10000000
00100000
10000000
01000000
00000000
,
00010000
00001000
00100000
00001000
00010000
00000010
00001000
00000000
,
00000010
00000001
00000100
00000001
00000010
00000001
00000100
00000000
,
00001000
00010000
00000010
00010000
00002000
00000000
00203000
00300000
,
00010000
10000000
01000000
00100000
,
00010000
00000000
10000000
00000000
01000000
10000000
01000000
00000000
,
00010000
00000000
00001000
00000000
00010000
00001000
00010000
00000000
,
00000010
00000000
00000000
00000110
00000000
00000000
00000100
00000000
00000000
00000110
00000000
00000000
00000010
00000000
00000000
00000000
,
00000011
00000000
00001001
00000000
00000100
00001000
00010000
00000000
,
00011000
00000000
01001000
00000000
00010000
00000000
00010000
00001000
,
00011000
00000000
00000110
00000000
00000001
00000100
00001000
00000000
,
00011000
00110000
01010000
00000000
,
10100000
00000000
10010000
00000000
01000000
00010000
00001000
00000000
,
00011000
00000000
00010100
00000000
00001000
00000000
00001000
00010000
,
00011000
00000000
01100000
00000000
10000000
01000000
00010000
00000000
,
00011000
00001010
00001100
00000000
,
00000101
00000000
00001001
00000000
00000010
00001000
00010000
00000000
,
00011000
00000000
00101000
00000000
00010000
00000000
00010000
00001000
,
00011000
00000000
00000110
00000000
00000001
00000010
00001000
00000000
,
00011000
00000000
00000000
00000000
;

//---------------dance-double - ----------------
#NOTES:
     dance-double:
     :
     Hard:
     8:
     :
00000000
00000000
00000000
00000000
,
00000000
00000000
00000000
00000000
,
01000000
00010000
10000000
00000000
01000000
00010000
00001000
00000000
,
00000001
00000100
00001000
00010000
00001000
00000100
00000001
00000000
,
00000010
00001000
00000001
00000000
00000010
00001000
00010000
00000000
,
00011000
00000000
00000000
00101000
00000000
00110000
00000000
01020000
00000000
00031000
00000000
00000000
00000000
00000000
20000000
30000000
,
00010000
01000000
00010000
00100000
10000000
00010000
00000000
00001000
,
00010000
00000000
00100000
00000000
00010000
00000000
00001000
00000000
00100000
00000000
00001000
00000000
00000010
00000000
00000002
00000003
,
00001000
00000001
00001000
00010000
00011000
00000000
00100000
00010000
,
10010000
00000000
00000000
00000000
10000000
00000000
01000000
00000000
00020000
00000000
00030000
00000020
00000000
00000030
00001000
00000000
,
00000100
00010000
00001000
00000000
00001000
00000001
00000100
00000000
,
00000010
00000000
00001000
00000000
00010000
00000000
01000000
00000000
10000000
00000000
00010000
10000000
00010000
10000000
00000000
00000000
,
00100000
00010000
01000000
00000000
10000000
01000000
00010000
00001000
,
00000100
00000001
00000100
00001000
00011000
01001000
01010000
00000000
,
00100000
00000000
01000000
00000000
00010000
00000000
10000000
00000000
01000000
00000000
00010000
00001000
00000000
00001000
00100000
00000000
,
01000000
00000000
00010000
00000000
00001000
00000000
00000100
00000001
00000000
00000001
00000000
00001000
00000010
00000100
00000010
00000000
,
00000100
00000000
00001000
00000000
00010000
00000000
01000000
00000000
10000000
00000000
10000000
01000000
00000000
01000000
00010000
00000000
,
00001000
00000000
00100000
00010000
00000000
01000000
00000000
00011000
00000000
00010010
00000000
00001010
00000000
00000000
00000000
00000000
,
00000010
00000000
00000100
00000000
00001000
00000000
00000001
00000000
00000100
00000000
00001000
00010000
00000000
00010000
00000010
00000000
,
00000100
00000000
00001000
00000000
00010000
00000000
01000000
10000000
00000000
10000000
00000000
00010000
00100000
01000000
00100000
00000000
,
01000000
00000000
00010000
00000000
00001000
00000000
00000100
00000000
00000001
00000000
00000001
00000100
00000000
00000100
00001000
00000000
,
00001000
00000000
00100000
00010000
00000000
01000000
00000000
00011000
00000000
00101000
00000000
00110000
00000000
00000000
00000000
00000000
,
01010000
00000000
00000000
00000000
00000000
01001000
00000000
00000000
00000000
00000000
00000000
00010100
00000000
00000000
00000000
00000000
00000010
00000000
00000000
00000000
00001000
00000000
00000000
00000000
00010000
00000000
00000000
00000000
01000000
00000000
00000000
00000000
,
11000000
00000000
00000000
00000000
00000000
01010000
00000000
00000000
00000000
00000000
00000000
01001000
00000000
00000000
00000000
00000000
00010000
00000000
00000000
00000000
00001000
00000000
00000000
00000000
00000100
00000000
00000000
00000000
00000001
00000000
00000000
00000000
,
00001010
00000000
00000000
00000000
00000000
00010010
00000000
00000000
00000000
00000000
00000000
00101000
00000000
00000000
00000000
00000000
01000000
00000000
00000000
00000000
00010000
00000000
00000000
00000000
00001000
00000000
00000000
00000000
00000010
00000000
00000000
00000000
,
00000011
00000000
00000000
00000000
00000000
00001010
00000000
00000000
00000000
00000000
00000000
00010010
00000000
00000000
00000000
00000000
00011000
00000000
00000000
00001000
00000000
00100000
00000000
00000000
00020000
00000000
00030000
00000000
20000000
00000000
30000000
00000000
,
01000000
00000000
00010000
00000000
00001000
00000000
00000010
00000000
00000001
00000000
00001000
00000100
00010000
00001000
00000000
00000000
,
00100000
00000000
00010000
00000000
10000000
00000000
01000000
00000000
10000000
01000000
00010000
00001000
00010000
00001000
00000000
00000000
,
00010000
00001000
00000100
00000001
00001000
00000001
00000000
00001000
00000001
00000100
00001000
00010000
00001000
00010000
00000000
00000010
,
00002000
00003000
00100000
00020000
00030000
01000000
00002000
00003000
00010000
00000200
00000300
00000010
00000001
00001000
00001001
00000000
,
00001010
00000000
00000000
00000000
00000011
00000000
00000000
00000000
00001000
00000100
00010000
00001000
00000000
00000000
00101000
00000000
,
00010000
00000000
00000000
00000000
11000000
00000000
00000000
10100000
00000000
01000000
00000000
00100000
00001000
00010000
00000100
00000000
,
00001001
00000000
00000000
00000000
00000101
00000000
00000000
00000000
00000010
00001000
00010000
00001000
00000000
00000000
00001000
00000000
,
00100000
00000000
00001000
00010000
00000000
00001000
00000000
00101000
00000000
00110000
00000000
10010000
00000000
00000000
00000000
00000000
,
00100000
00000000
01000000
00000000
00010000
00000000
10000000
00000000
01000000
00000000
00010000
00001000
00000000
00001000
00100000
00000000
,
01000000
00000000
00010000
00000000
00001000
00000000
00000100
00000001
00000000
00000001
00000000
00001000
00000010
00000100
00000010
00000000
,
00000100
00000000
00001000
00000000
00010000
00000000
01000000
00000000
10000000
00000000
10000000
01000000
00000000
01000000
00010000
00000000
,
00001000
00000000
00100000
00010000
00000000
01000000
00000000
00011000
00000000
00010010
00000000
00001010
00000000
00000000
00000000
00000000
,
00010000
00000010
00010000
00001000
00100000
00000000
00000000
00001000
01000000
00010000
00100000
00001000
00000000
00000000
01000000
00000000
,
01100000
00000000
00000000
00000000
10010000
00000000
00000000
01001000
00000000
00010000
00000000
00001000
00010000
00010000
00001000
00000000
,
00000110
00000000
00000000
00000000
00001001
00000000
00000000
00000010
00001000
00000001
00000100
00001000
00000000
00000000
00010000
00000000
,
00001000
00000000
01000000
00100000
00000000
10000000
00000000
10100000
00000000
00110000
00000000
10010000
00000000
00000000
00000000
00000000
;
