#TITLE:Free (Liberation Mix);
#ARTIST:Blue October;
#BANNER:Free (Liberation Mix).png;
#BACKGROUND:Free (Liberation Mix)-bg.png;
#CDTITLE:./CDTITLES/Dance Dance Revolution ULTRAMIX4.png;
#MUSIC:Free (Liberation Mix).ogg;
#SAMPLESTART:66.816;
#SAMPLELENGTH:15;
#DISPLAYBPM:139;
#BPMS:0=139.85,4=140;

//---------------dance-single - ----------------
#NOTES:
     dance-single:
     :
     Beginner:
     1:
     :
0000
0000
0000
0000
,
0000
0000
0000
0000
,
0000
0000
0000
0000
,
1000
0000
0000
0000
,
0001
0000
0000
0000
,
0001
0000
0001
0000
,
0100
0000
0000
0000
,
0010
0000
0010
0000
,
1000
0000
1000
0000
,
1000
0000
0001
0000
,
1000
0000
0000
0000
,
0001
0000
0100
0000
,
0010
0000
0010
0000
,
1000
0000
0000
0000
,
0010
0000
0000
0000
,
1000
0000
1000
0000
,
0001
0000
0001
0000
,
0100
0000
0000
0000
,
0010
0000
0000
0000
,
0100
0000
0100
0000
,
0001
0000
0001
0000
,
1000
0000
1000
0000
,
0010
0000
0000
0000
,
1000
0000
1000
0000
,
0001
0000
0001
0000
,
0010
0000
0010
0000
,
0100
0000
0000
0000
,
1000
0000
1000
0000
,
0010
0000
0010
0000
,
0110
0000
0000
0000
,
0000
0000
0000
0000
,
1000
0000
0000
0000
,
0001
0000
0000
0000
,
1001
0000
0000
0000
,
0000
0000
0000
0000
,
2000
0000
0000
3000
,
0000
0000
0000
0000
,
0002
0000
0000
0003
,
0000
0000
0000
0000
,
1000
1000
1000
0000
,
0001
0001
0001
0000
,
0100
0000
0100
0000
,
0010
0010
0010
0000
,
1000
1000
1000
0000
,
0100
0100
0100
0000
,
0010
0000
0010
0000
,
0001
0001
0001
0000
,
1000
0000
0000
0000
,
0001
0000
0000
0000
,
1000
0000
0001
0000
,
1000
0000
1000
0000
,
0001
0000
0001
0000
,
0100
0000
0100
0000
,
0010
0000
0010
0000
,
0010
0000
0000
0000
,
0110
0000
0000
0000
;

//---------------dance-single - ----------------
#NOTES:
     dance-single:
     :
     Easy:
     3:
     :
0000
0000
0000
0000
,
0000
0000
0000
0000
,
0000
0000
0000
0000
,
0010
0000
0100
0000
,
1001
0000
0000
0000
,
0001
0100
0010
0000
,
1000
1000
1000
0000
,
0001
0100
0010
1000
,
0001
0000
1000
0000
,
0001
1000
0100
0000
,
0010
0010
0010
0000
,
0001
1000
0010
0100
,
0001
0001
0001
0000
,
1001
0000
0100
0000
,
0100
0010
0100
0000
,
0100
0001
0100
0000
,
0010
1000
0010
1000
,
1001
0000
0001
0000
,
0100
0001
0100
0000
,
0010
0100
0010
0000
,
1000
0000
0001
0000
,
1000
0010
1000
0100
,
1000
0000
0001
0000
,
0100
0001
0100
0000
,
0100
0001
0100
0010
,
1000
0001
1000
0010
,
1000
0000
0001
0000
,
1000
0100
1000
0010
,
0100
0001
0100
0000
,
0110
0000
0000
0000
,
1001
0000
0000
0000
,
1000
0000
0001
0000
,
1001
0000
0000
0000
,
1001
0000
0000
0000
,
0110
0000
0000
0000
,
2000
0000
0000
0000
,
0000
0000
0001
3001
,
0001
0000
0000
0000
,
0100
0000
0001
1000
,
0010
1000
0100
0010
,
0001
0000
0001
0000
,
0010
0100
1000
0001
,
0100
0001
1000
0000
,
1000
0010
0100
0001
,
1000
0000
1000
0000
,
0010
0100
0001
0010
,
0100
0010
0100
0000
,
2000
0000
0000
0000
,
3001
0000
0000
0000
,
1000
0000
1000
0010
,
1000
0000
1000
0001
,
1000
0000
0001
0100
,
0010
0000
0010
1000
,
0100
0000
0100
1000
,
0001
0000
1000
0000
,
2002
0000
0000
0000
,
0000
0000
0000
0000
,
0000
0000
0000
3003
;

//---------------dance-single - ----------------
#NOTES:
     dance-single:
     :
     Medium:
     5:
     :
0000
0000
0000
0000
,
0000
0000
0000
0000
,
0000
0000
0000
0000
,
0001
1000
0100
0010
,
0002
0000
0000
0003
,
1000
1000
0001
0010
,
0100
1000
0100
0000
1000
0000
0001
0000
,
0100
0010
0100
0010
,
2000
0000
3001
1000
,
0001
0001
1000
0100
,
0010
0001
0010
0000
0001
0000
1000
0000
,
0010
0100
0010
0100
,
0002
0000
1003
0001
,
1000
0100
0010
0000
0010
0000
0000
0000
,
0001
1000
0100
0000
0100
0000
0000
0000
,
0010
0100
1000
0000
1000
0000
0000
0000
,
1001
1100
0101
1001
,
0001
1000
0020
0000
0130
0000
0000
0000
,
0010
1000
0200
0000
1300
0000
0000
0000
,
0010
0100
0002
0000
1003
0000
0000
0000
,
0110
0011
1001
0000
,
0001
0010
0001
0000
1000
0000
0001
0000
,
0200
0310
0000
1000
,
0100
0010
0001
0000
0100
0010
0001
0000
,
0011
1001
1100
1001
,
1000
0100
1000
0000
0001
0000
0010
0000
,
0200
1300
0000
0001
,
0100
0010
1000
0000
0100
0010
1000
0000
,
1010
1001
0101
1001
,
0220
0000
0000
0000
,
0000
0000
0330
0000
,
2000
3000
0002
0003
,
2001
0100
3001
0000
,
2002
0000
0000
0000
,
0000
3003
0000
0000
,
2002
3003
0000
0000
,
0000
0000
0110
0110
,
0220
0000
0000
0000
,
0330
0000
0100
0010
,
1000
0001
0010
0000
0001
0100
1000
0000
,
0001
0000
1000
0000
0010
1000
0010
0000
,
1000
1010
0100
0101
,
2002
0000
0000
0000
0000
3003
0000
0000
,
0001
0010
0100
0000
1000
0010
0100
0000
,
0010
0000
1000
0000
0100
0010
0001
0000
,
0001
0011
1000
1001
,
0202
0000
0303
0000
,
2002
0000
0000
0000
,
0000
0000
0000
3003
,
0001
0000
0000
0000
0100
0000
0010
1000
,
0100
0000
0000
0000
1000
0000
0001
0100
,
0010
0000
0000
0000
0100
0000
0010
0100
,
0001
0000
0000
0000
1000
0000
0001
0010
,
0100
0000
0010
0001
,
0011
0011
1001
1001
,
2200
0000
0000
0000
,
0000
0000
0000
0000
,
0000
0000
0000
3300
;

//---------------dance-single - ----------------
#NOTES:
     dance-single:
     :
     Hard:
     8:
     :
0000
0000
0000
0000
,
0000
0000
0000
0000
,
0000
0000
0000
0000
,
1000
0110
0001
0110
,
2002
0000
0000
0000
0000
0000
0000
3003
,
0000
1000
0100
0010
0000
0001
0100
0010
,
1000
0100
0010
0001
0100
0010
1000
0000
,
0000
0001
0010
0100
0000
1000
0010
1010
,
0000
1001
0000
0202
0000
0000
0000
0303
,
0000
0010
1000
0100
0000
1000
0100
0001
,
0100
1000
0001
0100
0010
1000
0010
0000
,
0000
0100
0001
0010
0000
0001
0010
0011
,
0000
1001
0000
2200
0000
0000
0000
0000
,
3300
0000
1000
1000
0010
0000
0100
0000
,
0001
0001
0010
0000
0011
0000
1001
0000
,
0001
0100
1000
0000
1000
0100
0001
0200
,
0000
0010
0000
1000
0000
0310
0000
0110
,
0000
0000
0100
0100
0001
0000
1000
0000
,
0100
0100
0010
0000
0110
0000
1001
0000
,
0010
0001
0100
0000
0100
0001
0010
0002
,
0000
1000
0000
0020
0000
0000
0000
0033
,
0000
0000
0010
0001
1000
0001
0010
0100
,
1000
0100
1000
0000
0001
0000
0000
0000
0100
0000
0010
0000
1000
0000
0000
0000
,
0001
0100
0001
0000
1000
0000
0000
0000
0001
0000
0010
0000
0100
0000
2000
0000
,
0000
0001
0000
0100
0000
3010
0000
1010
,
0000
0000
0010
1000
0100
0010
0001
0100
,
0010
1000
0010
0000
0100
0000
0000
0000
0001
0000
1000
0000
0100
0000
0000
0000
,
0010
0001
0010
0000
0100
0000
0000
0000
1000
0000
0100
0000
0001
0000
0100
0000
,
0000
0110
0000
1001
0000
0000
0000
0000
,
2002
0000
0000
0000
,
0000
0000
0000
3000
0000
0100
0100
0103
,
0000
0010
0000
1000
0000
0001
0000
1010
,
0000
0000
0000
0000
,
2200
0000
0000
0000
,
3300
0000
0000
0000
,
0022
0000
0000
0033
,
0000
0000
1010
0101
,
2002
0000
0000
0000
,
0000
0000
3003
0000
0000
0000
0000
0000
0001
0000
0000
1000
0001
0000
1000
0000
,
0100
0010
0100
1000
0001
0100
0010
0001
,
0010
1000
0001
1000
0100
0010
0001
0000
,
0001
0100
0010
1000
0100
0010
0110
0000
,
0010
0001
0010
0000
0100
0000
1000
0001
0000
1000
0100
1000
0100
0000
0000
0000
,
0010
0000
0100
0000
0010
0000
0001
1000
0100
0000
0010
0000
0001
0000
0100
0000
,
1000
0000
0100
0000
0001
0000
1000
0100
0010
0000
0001
0000
1000
0000
0000
0000
,
0001
1000
0100
0010
0001
1000
1001
0000
,
0010
1000
0010
0000
0100
0000
0001
1000
0000
0001
0100
0001
0100
0000
0000
0000
,
2002
0000
0000
0000
,
0000
0000
0000
3003
,
1000
0000
0000
0100
0000
0000
0010
0000
0000
0001
0000
0000
0100
0000
0001
0000
,
1000
0000
0000
0100
0000
0000
1000
0000
0000
0010
0000
0000
0001
0000
0010
0000
,
1000
0000
0000
0001
0000
0000
0010
0000
0000
0001
0000
1000
0001
0000
0100
0000
,
0010
0000
0000
1000
0000
0000
0001
0000
0000
0100
0000
0010
1000
0000
0010
0000
,
1000
0000
0000
0100
0000
0000
0010
0000
0000
0001
0000
0100
0010
0000
0100
0000
,
0001
0010
0100
0000
1000
0000
1000
0000
0001
0100
0001
0100
0001
0000
1000
0000
,
2001
0000
0000
0000
0000
0000
0000
0000
0000
0000
0000
0000
0000
0000
3001
0020
,
0200
0000
0000
0000
,
0000
0000
0000
0330
;

//---------------dance-double - ----------------
#NOTES:
     dance-double:
     :
     Beginner:
     1:
     :
00000000
00000000
00000000
00000000
,
00000000
00000000
00000000
00000000
,
00000000
00000000
00000000
00000000
,
00010000
00000000
00000000
00000000
,
01000000
00000000
00000000
00000000
,
00001000
00000000
00001000
00000000
,
00010000
00000000
00000000
00000000
,
00000100
00000000
00000100
00000000
,
00000010
00000000
00000001
00000000
,
00000001
00000000
00001000
00000000
,
00000100
00000000
00000000
00000000
,
00010000
00000000
00001000
00000000
,
00100000
00000000
00100000
00000000
,
00010000
00000000
00000000
00000000
,
01000000
00000000
00000000
00000000
,
00100000
00000000
00100000
00000000
,
10000000
00000000
10000000
00000000
,
01000000
00000000
00010000
00000000
,
00001000
00000000
00000000
00000000
,
00000010
00000000
00000010
00000000
,
00000001
00000000
00001000
00000000
,
00000001
00000000
00000001
00000000
,
00000100
00000000
00000000
00000000
,
00001000
00000000
00001000
00000000
,
00010000
00000000
00010000
00000000
,
00100000
00000000
00100000
00000000
,
10000000
00000000
00000000
00000000
,
01000000
00000000
01000000
00000000
,
00100000
00000000
00100000
00000000
,
01100000
00000000
00000000
00000000
,
00000000
00000000
00000000
00000000
,
00001000
00000000
00000000
00000000
,
00010000
00000000
00000000
00000000
,
00011000
00000000
00000000
00000000
,
00000000
00000000
00000000
00000000
,
00000200
00000000
00000000
00000300
,
00000000
00000000
00000000
00000000
,
00000020
00000000
00000000
00000030
,
00000000
00000000
00000000
00000000
,
00000001
00000001
00000001
00000000
,
00000100
00000100
00000100
00000000
,
00001000
00000000
00010000
00000000
,
00100000
00100000
00100000
00000000
,
10000000
10000000
10000000
00000000
,
00010000
00010000
00010000
00000000
,
01000000
00000000
00001000
00000000
,
00010000
00010000
00010000
00000000
,
00000100
00000000
00000000
00000000
,
00000010
00000000
00000000
00000000
,
00000001
00000000
00000000
00000000
,
00000100
00000000
00000100
00000000
,
00001000
00000000
00001000
00000000
,
01000000
00000000
01000000
00000000
,
00100000
00000000
00100000
00000000
,
10000000
00000000
00000000
00000000
,
10010000
00000000
00000000
00000000
;

//---------------dance-double - ----------------
#NOTES:
     dance-double:
     :
     Easy:
     3:
     :
00000000
00000000
00000000
00000000
,
00000000
00000000
00000000
00000000
,
00000000
00000000
00000000
00000000
,
00001000
00000000
00010000
00000000
,
00011000
00000000
00000000
00000000
,
01000000
00010000
10000000
00000000
,
01000000
01000000
01000000
00000000
,
00100000
00001000
00010000
00000100
,
00000010
00000000
00000001
00000000
,
00000001
00000100
00001000
00000000
,
00010000
00010000
00010000
00000000
,
00001000
01000000
00100000
10000000
,
00010000
00010000
00010000
00000000
,
10010000
00000000
00010000
00000000
,
01000000
00001000
01000000
00000000
,
00001000
00010000
00001000
00000000
,
00010000
00000100
00000010
00000001
,
00001001
00000000
00000001
00000000
,
00000100
00000010
00000100
00000000
,
00000010
00010000
00000010
00000000
,
00010000
00000000
00001000
00000000
,
01000000
00100000
10000000
01000000
,
00010000
00000000
00001000
00000000
,
00000010
00000001
00000010
00000000
,
00000001
00000100
00000010
00010000
,
00001000
01000000
00100000
10000000
,
00100000
00000000
01000000
00000000
,
00010000
10000000
01000000
00100000
,
00001000
00000010
00000100
00000000
,
00000110
00000000
00000000
00000000
,
00001001
00000000
00000000
00000000
,
00000001
00000000
00001000
00000000
,
00001001
00000000
00000000
00000000
,
00000110
00000000
00000000
00000000
,
00001001
00000000
00000000
00000000
,
00000200
00000000
00000000
00000000
,
00000000
00000000
00010000
00010300
,
00010000
00000000
00000000
00000000
,
00001000
00000000
00100000
00010000
,
10000000
01000000
00010000
00001000
,
00000010
00000000
00000100
00000000
,
00000001
00000100
00001000
00010000
,
01000000
10000000
00100000
00000000
,
10000000
00010000
01000000
00001000
,
00010000
00000000
00000100
00000000
,
00001000
00000001
00000100
00000010
,
00010000
00001000
01000000
00000000
,
00020000
00000000
00000000
00000000
,
10030000
00000000
00000000
00000000
,
01000000
00000000
10000000
01000000
,
00100000
00000000
01000000
00100000
,
00001000
00000000
00100000
00001000
,
00010000
00000000
00001000
00010000
,
00000100
00000000
00010000
00000100
,
00000010
00000000
00000100
00000000
,
00000220
00000000
00000000
00000000
,
00000000
00000000
00000000
00000000
,
00000000
00000000
00000000
00000330
;

//---------------dance-double - ----------------
#NOTES:
     dance-double:
     :
     Medium:
     6:
     :
00000000
00000000
00000000
00000000
,
00000000
00000000
00000000
00000000
,
00000000
00000000
00000000
00000000
,
00002002
00003003
00000202
00000303
,
00002020
00000000
00000000
00003030
,
00001000
00000001
00000100
00000001
,
00000001
00000100
00001000
00000000
00010000
01000000
10000000
00000000
,
00010000
00000000
10000000
00000000
01000000
00000000
20000000
00010000
,
00000000
00100000
00000000
01000000
00000000
00000000
30000000
00000000
,
00010000
10000000
00100000
10000000
,
10000000
01000000
00010000
00000000
00001000
00000010
00000001
00000000
,
00001000
00000000
00000001
00000000
00000100
00000000
00000002
00001000
,
00000000
00000100
00000000
00000010
00000000
00000000
00000003
00000000
,
00000001
00001010
00000010
00010010
,
00011000
02010000
03100000
00000000
,
01100000
10020000
01030000
00000000
,
20000000
00000000
02000000
30000000
03100000
00001000
00010000
00000100
,
00001000
00000101
00000001
00001010
,
00011000
00210000
01300000
00000000
,
01100000
12000000
00100000
13000000
,
10000000
01000000
00010000
00000000
00000100
00000010
00000001
00000000
,
00001001
00000011
00001010
00000110
,
00011000
01100000
10020000
01000000
,
10000000
00100000
10030000
00000000
,
20000000
00000000
00020000
30000000
00130000
00001000
00010000
00000100
,
00001100
00000101
00001100
00000101
,
00001010
00000000
00001001
00000000
00000001
00000100
00000010
00010000
,
00000000
00001000
00000000
00100000
00000000
00010000
01000000
00100000
,
00000000
10000000
00000000
10100000
00000000
00000000
00000000
00000000
,
00220000
00000000
00000000
00000000
,
00000000
00000000
00000000
00330000
,
20000000
00000000
32000000
00000000
,
03200000
00001000
00010000
00301000
,
00022000
00000000
00000000
00000000
,
00000000
00000000
00000000
00033000
,
00001100
00000000
00000000
00000000
,
00000000
00000000
00001001
00000101
,
00000220
00000000
00000000
00000000
,
00000330
00000000
00000001
00001000
,
00000001
00001000
00000100
00000000
00010000
00001000
00100000
00000000
,
00010000
01000000
00100000
00000000
01000000
00100000
10000000
00000000
,
02000000
03100000
00200000
01300000
,
00100000
10000000
01000000
00010000
00001000
00000010
00000100
00000000
,
00001000
00000100
00000010
00000000
00000001
00000100
00000010
00000000
,
00000100
00001000
00010000
00000000
01000000
00100000
10000000
00000000
,
00020000
10030000
20000000
31000000
,
00100000
00010000
10000000
01000000
00010000
00001000
00000010
00000000
,
00000110
00000000
00000000
00000000
00000000
00000000
00000000
00000001
,
00001000
00000000
00000000
00000000
,
00000001
00000000
00001002
00000000
00000000
00000000
00001003
00000100
,
00010000
00000000
02010000
00000000
00000000
00000000
03010000
10000000
,
00100000
00000000
20010000
00000000
00000000
00000000
31000000
00100000
,
00010000
00000000
00102000
00000000
00000000
00000000
00013000
00000100
,
00000010
00000000
00000012
00000000
00000000
00000000
00000103
00000010
,
00001010
00011000
00110000
00011000
,
00002200
00000000
00000000
00000000
,
00000000
00000000
00000000
00000000
,
00000000
00000000
00000000
00003300
;

//---------------dance-double - ----------------
#NOTES:
     dance-double:
     :
     Hard:
     8:
     :
00000000
00000000
00000000
00000000
,
00000000
00000000
00000000
00000000
,
00000000
00000000
00000000
00000000
,
00000001
00000001
00001000
00000000
00000100
00000100
00010000
00000000
,
00022000
00000000
00000000
00033000
,
00000000
00001000
00010000
01000000
00000000
00010000
00001000
00000100
,
00000001
00000100
00001000
00010000
00100000
01000000
00200000
00000000
,
00300000
10000000
00100000
00010000
00000000
00100000
10000000
02000000
,
00000000
00200000
03000000
00002000
00000000
00000000
00303000
00000000
,
00000000
00001000
00010000
01000000
00000000
00010000
00001000
00000100
,
00000001
00000010
00000100
00001000
00000010
00010000
00200000
00000000
,
00300000
01000000
00010000
10000000
00000000
01000000
00100000
00002000
,
00000000
00020000
00003000
00000200
00000000
00000000
00030300
00000000
,
00010100
00000000
00000000
00000000
00001100
00000000
00000000
00000000
00000001
00000000
00000000
00001000
00000001
00000000
00000100
00000000
,
00000101
00000000
00000000
00000000
00000110
00000000
00000000
00000000
00010000
00000000
00000000
00001000
01000000
00000000
00001000
00000000
,
01001000
00000000
00000000
00000000
01010000
00000000
00000000
00000000
00010000
00000000
00000000
00100000
01000000
00000000
20000000
00000000
,
00000000
02000000
30000000
00020000
03000000
00000200
00030000
00000020
,
00000330
00000000
00000000
00000000
00000011
00000000
00000000
00000000
00000001
00000000
00000100
00000001
00000100
00000000
00000010
00000000
,
00000110
00000000
00000000
00000000
00010010
00000000
00000000
00000000
00001000
00000000
01000000
00010000
10000000
00000000
01000000
00000000
,
11000000
00000000
00000000
00000000
01010000
00000000
00000000
00000000
10000000
00000000
01000000
00100000
00001000
00000000
00020000
00000000
,
00000000
00000200
00030000
00000020
00000000
00000000
00000330
00000000
,
00000001
00000100
00001000
00010000
00100000
01000000
01100000
00100000
,
01000000
00100000
10000000
01000000
00100000
00001000
00010000
00000000
,
00011000
00010000
00001100
00001000
00001001
00000001
00000011
00000002
,
00000000
00000200
00000003
00002000
00000300
00020000
00003000
00200000
,
00330000
00000000
01000000
00100000
10000000
00010000
10010000
10000000
,
01000000
00010000
00001000
00000100
00000001
00000010
00000001
00000200
,
00000000
00000020
00000300
00020000
00000030
00031000
01000000
00020000
,
00000000
00200000
00030000
00002000
00300000
00000000
00003000
00000000
,
00011000
00000000
00000000
00000000
00000000
00000000
00000000
00000000
00000000
00000000
00000000
00000000
00000000
00000000
00001000
00010000
,
02000000
00000000
00000000
00000000
03000000
00100000
01000000
10000000
,
00000000
11000000
00000000
00110000
00000000
00011000
00000000
00010000
,
00000100
00001000
00000001
00000000
00001000
00000000
00000100
00000010
00000000
00000001
00000010
00000001
00000010
00000000
00000000
00000000
,
00001001
00000000
00000000
00000000
00000000
00000000
00000000
00000000
00000000
00000000
00000000
00000000
00000000
00000000
00000001
00000010
,
00000100
00000000
00000000
00000000
,
00002002
00000000
00000000
00003003
,
00000000
00000000
00000110
00011000
,
02200000
00000000
00000000
03300000
,
00000000
00000000
00000000
00000000
00000000
00000000
00000000
00000000
00010000
00000000
00000000
10000000
00100000
00000000
10000000
00000000
,
01000000
00010000
01000000
10000000
00100000
00010000
00100000
10000000
,
01000000
00200000
00010000
00300000
00000000
00011000
00000000
00001010
,
00000000
00000011
00000000
00001001
00000000
00000101
00000000
00000220
,
00000000
00000000
00000000
00000330
,
00000010
00000100
00010000
01000000
00100000
10000000
01000000
00100000
,
00010000
20000000
00010000
30000000
00000000
01100000
00000000
11000000
,
00000000
01100000
00000000
00011000
00000000
00000000
00000000
00020020
,
00000000
00000000
00000000
00030030
,
00202000
00000000
00000000
00000000
,
00000000
00000000
00000000
00303000
,
00010000
00000000
00000000
10000000
00000000
00000000
01000000
00000000
00000000
00100000
00000000
00000000
01000000
00000000
10000000
00000000
,
00010000
00000000
00000000
01000000
00000000
00000000
00001000
00000000
00000000
00010000
00000000
00000000
00000100
00000000
00000010
00000000
,
00000001
00000000
00000000
00001000
00000000
00000000
00000001
00000000
00000000
00001000
00000000
00000000
00000010
00000000
00000100
00000000
,
00001000
00000000
00000000
01000000
00000000
00000000
00100000
00000000
00000000
10000000
00000000
00000000
00010000
00000000
00100000
00000000
,
01000000
00000000
00000000
10000000
00000000
00000000
00010000
00000000
00000000
01000000
00000000
00000000
00010000
00000000
00000000
00000000
,
10000000
01000000
00100000
00010000
00100000
01000000
10000000
00010000
10000000
00000000
00010000
00000000
01010000
00000000
00000000
00000000
,
00022000
00000000
00000000
00000000
,
00000000
00000000
00000000
00000000
,
00000000
00000000
00000000
00033000
;
