#TITLE:Forever Young (Everlasting Mix);
#ARTIST:Ella;
#BANNER:Forever Young (Everlasting Mix).png;
#BACKGROUND:Forever Young (Everlasting Mix)-bg.png;
#CDTITLE:./CDTITLES/Dance Dance Revolution ULTRAMIX4.png;
#MUSIC:Forever Young (Everlasting Mix).ogg;
#SAMPLESTART:56.573;
#SAMPLELENGTH:15;
#DISPLAYBPM:140;
#BPMS:0=139.65,4=140;

//---------------dance-single - ----------------
#NOTES:
     dance-single:
     :
     Beginner:
     1:
     :
0000
0000
0000
0000
,
0000
0000
0000
0000
,
0000
0000
0000
0000
,
0000
0000
0000
0000
,
0000
0000
0000
0000
,
1000
0000
0000
0000
,
1000
0000
0000
0000
,
0001
0000
1000
0000
,
1001
0000
0000
0000
,
0010
0000
0100
0000
,
0010
0000
0100
0000
,
0001
0001
0000
0000
,
1000
1000
0000
0000
,
0100
0000
0010
0000
,
0100
0000
0010
0000
,
0001
0001
0000
0000
,
1000
1000
0000
0000
,
0001
0000
0000
0000
,
0100
0000
0000
0000
,
0010
0000
1000
0000
,
0010
0000
0100
0100
,
0100
0000
0000
0000
,
0001
0000
0000
0000
,
0010
0000
0001
0000
,
2000
0000
0000
3000
,
0000
0001
0000
1000
,
0000
0100
0000
1000
,
0000
0000
0001
0000
,
0100
0000
0001
0000
,
1000
0000
0000
0100
,
0000
0100
0000
0010
,
0000
0010
0000
0001
,
0002
0000
0000
0003
,
0000
1000
0000
0010
,
0000
0100
0000
0010
,
0000
1000
0000
0100
,
0000
0010
0000
0100
,
0000
1000
0000
0001
,
0000
0010
0000
0100
,
0000
0010
0000
0001
,
0000
1000
0000
0001
,
0001
0000
0100
0000
,
0010
0000
1000
0000
,
0001
0000
1000
0000
,
0100
0000
0010
0000
,
0001
0000
0100
0000
,
0010
0000
0100
0000
,
0001
0000
0000
0000
,
1000
0000
0000
0000
,
0100
0000
0100
0000
,
1000
0000
1000
0000
,
0010
0000
0000
0000
,
0100
0000
0000
0000
,
0001
0000
0001
0000
,
0010
0000
0010
0000
,
0100
0000
0000
0000
,
1000
0000
0000
0000
,
1001
0000
0000
0000
;

//---------------dance-single - ----------------
#NOTES:
     dance-single:
     :
     Easy:
     3:
     :
0000
0000
0000
0000
,
0000
0000
0000
0000
,
0000
0000
0000
0000
,
0000
0000
0000
0000
,
0000
0000
0000
0000
,
0000
0001
0000
1000
,
0000
0001
0000
0100
,
0001
1000
0100
1000
,
1001
0000
0000
0000
,
0010
0000
1000
0100
,
1000
0000
0001
0100
,
0001
0001
1000
1000
,
0100
0000
0010
0000
,
0001
0000
0100
0000
,
0010
0000
1000
0010
,
1000
0000
0001
0010
,
0001
0001
1000
1000
,
0100
0000
0100
0000
,
0010
0001
0010
0001
,
1000
0000
0001
0000
,
0100
0010
0100
0010
,
1000
0000
0001
0000
,
1000
0000
0001
0010
,
0100
0100
1000
0010
,
0100
0100
0000
0000
,
0001
0100
1000
0000
,
0001
0010
0100
0000
,
1000
0100
0001
0000
,
1000
0010
0100
0000
,
0001
0000
0010
0100
,
1000
0000
0001
1000
,
0001
0000
0100
0010
,
0220
0000
0330
0000
,
0100
0000
0001
0000
,
0010
0001
0010
0001
,
0100
0000
0010
0000
,
1000
0010
1000
0010
,
0100
0000
0001
0000
,
1000
0100
1000
0100
,
0010
0000
0001
0000
,
1000
0001
1000
0001
,
0100
0000
0010
0000
,
1000
0100
1000
0100
,
0010
0000
0001
0000
,
0100
0010
0100
0010
,
1000
0000
0001
0000
,
0010
0100
0010
0100
,
0220
0000
0000
0330
,
0000
0000
1000
0001
,
1000
0000
1000
0000
,
0100
0000
1000
0100
,
0010
0000
0010
0000
,
0001
0000
0010
0001
,
0100
0000
0100
0000
,
0010
0000
0100
0010
,
1000
0000
1000
0000
,
0001
0000
1000
0001
,
1001
0000
0000
0000
;

//---------------dance-single - ----------------
#NOTES:
     dance-single:
     :
     Medium:
     5:
     :
0000
0000
0000
0000
,
0000
0000
0000
0000
,
0000
0000
0000
0000
,
0000
0000
0000
0000
,
0000
0000
0000
0000
,
1000
1000
1000
1000
,
0001
0001
0001
0001
,
0100
0000
0010
0000
0100
0000
0010
1000
,
0002
0000
0000
0003
,
0010
0000
0100
0000
0010
0100
1000
0000
,
0001
0000
0100
0010
0000
0010
0100
0000
,
0001
0000
1000
0000
0100
0000
0010
0100
,
0000
0100
0010
0000
0001
0000
1000
0000
,
0001
0001
1000
1000
,
0010
0100
0001
1000
,
0100
1000
1000
0001
,
0001
0010
0100
0000
0010
0100
1000
0000
,
1001
0000
0100
0001
,
0100
0000
1000
0000
0010
0000
0100
0001
,
0000
0001
0000
0000
0010
0000
1000
0000
,
0010
0000
0001
0000
0100
0000
0010
1000
,
0000
1000
0000
0000
0010
0000
0100
0000
,
0001
0001
0010
0100
,
1000
1100
0010
0100
,
0001
1001
0000
1001
,
0001
0010
0200
0000
,
1300
0010
0200
0000
,
0301
0001
1000
1000
,
0100
0010
0100
0000
0010
0001
0100
0001
,
2000
0000
0000
0000
3001
1000
0001
0000
,
0010
0000
0100
0000
1000
0100
1000
0001
,
0000
0100
0001
1000
,
0002
0000
1003
0001
,
0110
0000
0010
1000
0000
0000
1000
0100
,
0000
0000
0010
0000
0100
0010
0100
0000
,
0010
0001
1000
0001
,
0100
0100
0010
0010
,
1000
0000
0001
0000
0100
0010
0100
0000
,
0001
0000
1000
0000
0100
0010
0100
0000
,
0010
0001
0100
0001
,
1001
0110
1001
0110
,
0001
0000
1000
0100
0000
0000
0100
0010
,
0000
0000
0001
0000
1000
0001
1000
0000
,
0100
0000
1000
0020
0000
0000
0130
0000
,
0002
1000
1000
1003
,
1001
0000
0001
0010
0100
0000
0010
0000
,
0100
0000
1000
0001
0000
2000
0000
0000
,
0001
0000
0000
0001
0000
0000
3002
0000
,
1000
0000
0000
1000
0000
0000
1003
0001
,
1000
0000
0100
0000
1000
0100
1000
0100
,
0000
0010
0000
0001
1000
0000
0010
0000
,
0100
0000
0001
0000
0100
0001
0100
0001
,
0000
0010
0000
0001
1000
0000
0100
0000
,
1000
0000
0100
0000
0010
0001
0010
0001
,
0000
1000
0000
0001
1000
0000
0010
0000
,
0100
0020
0000
0000
1030
0000
0001
0000
,
0010
0200
0000
0000
1300
0000
0001
0000
,
1001
0000
0000
0000
;

//---------------dance-single - ----------------
#NOTES:
     dance-single:
     :
     Hard:
     8:
     :
0000
0000
0000
0000
,
0000
0000
0000
0000
,
0000
0000
0000
0000
,
0000
0000
0000
0000
,
0000
0000
0000
0000
,
1000
0000
0000
1000
0000
0000
0010
0000
0000
0010
0000
0000
0100
0000
0000
0000
,
0001
0000
0000
0001
0000
0000
0010
0000
0000
0010
0000
0000
0100
0000
0000
0000
,
1000
0000
0000
0010
0000
0000
0100
0000
0000
0001
0000
0000
0010
0000
0100
0000
,
1001
0000
0000
0000
0000
0000
0000
0000
1000
0010
1000
0000
0010
0000
0100
0001
,
0100
0001
0100
0001
0010
0001
0010
0001
,
1000
0100
1000
0100
0010
0001
0100
0001
,
1000
0000
0001
0000
1000
0100
1000
0010
,
0000
0010
0100
0001
0010
0001
1000
0010
,
0100
0000
0001
0000
1000
0010
0100
0010
,
1000
0001
0010
0100
0010
0001
1000
0100
,
0010
0000
0001
0010
0100
1000
0010
0100
,
0001
0000
1000
0000
0001
0000
0000
0000
1000
0000
0001
0000
1000
0100
0010
0000
,
0100
0000
0010
0000
0100
1000
0010
0100
,
0000
0100
0010
0001
0010
0100
0001
2000
,
0000
3002
0000
0013
0001
0100
0010
1000
,
0100
0010
1000
0010
0100
0001
0100
2000
,
0000
3002
0000
0103
0001
0010
0100
1000
,
0100
0010
0001
1000
0010
0100
0001
1000
,
1010
0000
0101
0000
0010
1000
0001
0010
,
0011
0000
0000
0000
1100
0000
0000
0000
0001
0100
0010
0000
1000
0000
0010
0100
,
0001
0100
0001
0010
0100
1000
0001
0100
,
1000
0100
0001
0010
0100
0010
0001
0000
,
1001
0000
0100
0000
1000
0010
0100
0001
,
0010
0000
0001
1000
0100
0010
0100
0000
,
1001
0000
0100
0000
0010
1000
0001
0101
,
0000
1010
0000
0100
0001
1000
0100
1100
,
0000
0011
0000
0100
1000
0010
0100
0001
,
2002
0000
0000
0000
0000
0000
0000
0000
3003
0000
0000
0000
0001
0000
0010
0100
,
1000
0001
1000
0001
0100
0010
1000
0001
,
0010
0000
0100
0000
0010
0000
0100
0000
1000
0000
0010
0000
0100
0000
0001
0100
,
0010
1000
0010
1000
0001
0010
0100
1000
,
0001
0000
0100
0000
0001
0000
0100
0000
0010
0000
1000
0000
0100
0000
0010
0100
,
1000
0100
1000
0100
0010
0001
1000
0010
,
0100
0000
0001
0000
0100
0000
0001
0000
0010
0000
0100
0000
1000
0000
0001
0100
,
0001
0000
0010
0100
0000
0000
1000
0100
1000
0000
0010
0100
0000
0000
0001
1000
,
0001
1000
0001
1001
0000
0110
0000
1001
,
1000
0000
0100
0000
0010
0000
0001
0000
0010
0000
0100
0000
1000
0000
0100
0010
,
0001
0000
0100
0001
0000
1000
0010
0000
1000
0100
0000
0010
0001
0000
1000
0001
,
1000
0000
0010
0000
0100
0000
0001
0000
0100
0000
0010
0000
1000
0000
0010
0100
,
0001
0000
0010
0001
0000
1000
0100
0000
1000
0010
0000
0100
0001
0000
1000
0001
,
1000
0000
0001
0000
0010
0000
1000
0000
0010
0000
0001
0000
1000
0000
0010
0100
,
0001
0000
1000
0100
0000
0010
0001
0000
1000
0010
0000
0100
0001
0000
1000
0001
,
1000
0000
0000
0100
0000
0000
0001
0000
0000
0100
0000
0000
1000
0000
0010
0000
,
0220
0000
0000
0000
0000
0000
0330
0000
0001
0010
0100
0000
1000
0000
0010
0100
,
0001
1000
0000
1000
0100
0010
0100
0001
,
0000
0001
0100
0010
0001
0001
0010
0010
,
0100
1000
0000
1000
0010
0100
0010
0001
,
0000
0001
0010
0100
0001
0001
0100
0100
,
0010
1000
0000
1000
0001
1000
0100
0010
,
0001
0100
0000
0100
0010
0010
0100
0100
,
0001
0010
0000
0010
0100
1000
0010
0100
,
0001
0000
1000
0000
0000
0000
1000
0000
0001
0010
0001
0000
0100
0000
0001
2000
,
0002
0000
0000
0000
,
0000
0000
0000
3003
;

//---------------dance-double - ----------------
#NOTES:
     dance-double:
     :
     Beginner:
     1:
     :
00000000
00000000
00000000
00000000
,
00000000
00000000
00000000
00000000
,
00000000
00000000
00000000
00000000
,
00000000
00000000
00000000
00000000
,
00000000
00000000
00000000
00000000
,
00000001
00000000
00000000
00000000
,
00000001
00000000
00000000
00000000
,
00001000
00000000
00000001
00000000
,
00001001
00000000
00000000
00000000
,
00000100
00000000
00000010
00000000
,
00000100
00000000
00001000
00000000
,
00010000
00010000
00000000
00000000
,
00001000
00001000
00000000
00000000
,
00010000
00000000
01000000
00000000
,
00100000
00000000
01000000
00000000
,
10000000
10000000
00000000
00000000
,
00010000
00010000
00000000
00000000
,
10000000
00000000
00000000
00000000
,
00100000
00000000
00000000
00000000
,
01000000
00000000
00010000
00000000
,
01000000
00000000
00010000
00010000
,
00010000
00000000
00000000
00000000
,
00001000
00000000
00000000
00000000
,
00000100
00000000
00000010
00000000
,
00000002
00000000
00000000
00000003
,
00000000
00001000
00000000
00000001
,
00000000
00001000
00000000
00000001
,
00000000
00000000
00000100
00000000
,
00001000
00000000
00010000
00000000
,
00001000
00000000
00000000
00010000
,
00000000
00010000
00000000
00100000
,
00000000
00100000
00000000
10000000
,
20000000
00000000
00000000
30000000
,
00000000
10000000
00000000
00010000
,
00000000
00100000
00000000
00010000
,
00000000
01000000
00000000
00100000
,
00000000
00010000
00000000
00001000
,
00000000
00010000
00000000
00001000
,
00000000
00000100
00000000
00000010
,
00000000
00001000
00000000
00000001
,
00000000
00001000
00000000
00000100
,
00000100
00000000
00000010
00000000
,
00001000
00000000
00010000
00000000
,
00001000
00000000
00010000
00000000
,
00100000
00000000
01000000
00000000
,
00010000
00000000
10000000
00000000
,
00100000
00000000
01000000
00000000
,
00010000
00000000
00000000
00000000
,
10000000
00000000
00000000
00000000
,
01000000
00000000
00010000
00000000
,
00010000
00000000
00001000
00000000
,
00001000
00000000
00000000
00000000
,
00000100
00000000
00000000
00000000
,
00000010
00000000
00000010
00000000
,
00001000
00000000
00001000
00000000
,
00000001
00000000
00000000
00000000
,
00001000
00000000
00000000
00000000
,
00001001
00000000
00000000
00000000
;

//---------------dance-double - ----------------
#NOTES:
     dance-double:
     :
     Easy:
     3:
     :
00000000
00000000
00000000
00000000
,
00000000
00000000
00000000
00000000
,
00000000
00000000
00000000
00000000
,
00000000
00000000
00000000
00000000
,
00000000
00000000
00000000
00000000
,
00000000
00010000
00000000
00001000
,
00000000
00010000
00000000
01000000
,
10000000
01000000
10000000
00010000
,
10010000
00000000
00000000
00000000
,
00100000
00000000
00010000
01000000
,
00010000
00000000
10000000
01000000
,
10000000
10000000
00100000
00100000
,
00010000
00000000
00001000
00000000
,
00000100
00000000
00000001
00000000
,
00000010
00000000
00001000
00000100
,
00001000
00000000
00000001
00000010
,
00000001
00000001
00000100
00000100
,
00001000
00000000
00010000
00000000
,
00001000
00010000
00001000
00010000
,
00100000
00000000
01000000
00000000
,
00010000
10000000
00010000
10000000
,
01000000
00000000
00010000
00000000
,
00001000
00000000
00010000
00001000
,
00010000
00010000
00001000
00000100
,
00001000
00001000
00000000
00000000
,
00000010
00001000
00000100
00000000
,
00000010
00000001
00000100
00000000
,
00001000
00010000
00001000
00000000
,
00010000
00001000
00010000
00000000
,
01000000
00000000
10000000
00100000
,
10000000
00000000
00010000
01000000
,
00100000
00000000
00010000
00001000
,
00022000
00000000
00033000
00000000
,
00001000
00000000
00000100
00000000
,
00000001
00001000
00000100
00001000
,
00000001
00000000
00000100
00000000
,
00001000
00010000
00000100
00010000
,
00001000
00000000
00010000
00000000
,
01000000
00100000
00010000
00100000
,
01000000
00000000
10000000
00000000
,
00100000
01000000
00010000
01000000
,
00100000
00000000
00010000
00000000
,
00001000
00010000
00100000
00010000
,
00001000
00000000
00010000
00000000
,
00001000
00000100
00000010
00000100
,
00001000
00000000
00000100
00000000
,
00000001
00001000
00000001
00001000
,
00002002
00000000
00000000
00003003
,
00000000
00000000
00000100
00000010
,
00000100
00000000
00000100
00000000
,
00000001
00000000
00000010
00000001
,
00000100
00000000
00000100
00000000
,
00001000
00000000
00010000
00001000
,
00100000
00000000
00100000
00000000
,
00010000
00000000
01000000
00010000
,
00100000
00000000
00100000
00000000
,
01000000
00000000
10000000
00010000
,
10010000
00000000
00000000
00000000
;

//---------------dance-double - ----------------
#NOTES:
     dance-double:
     :
     Medium:
     5:
     :
00000000
00000000
00000000
00000000
,
00000000
00000000
00000000
00000000
,
00000000
00000000
00000000
00000000
,
00000000
00000000
00000000
00000000
,
00000000
00000000
00000000
00000000
,
00000001
00000001
00000100
00000100
,
00001000
00001000
00010000
00010000
,
01000000
00000000
01000000
00000000
10000000
00000000
10000000
00010000
,
20000000
00000000
00000000
30000000
,
00010000
00000000
10000000
00000000
00100000
01000000
00100000
00000000
,
01000000
00000000
00010000
10000000
00000000
10000000
00010000
00000000
,
01000000
00000000
00001000
00000000
00010000
00000000
00000100
00001000
,
00000000
00001000
00000100
00000000
00000010
00000000
00000010
00000000
,
00000001
00000001
00001000
00001000
,
00000010
00000100
00000001
00001000
,
00000010
00000100
00000100
00001000
,
00010000
00001000
00010000
00000000
00010000
00001000
00010000
00000000
,
00011000
00000000
00100000
00010000
,
01000000
00000000
00010000
00000000
00100000
00000000
01000000
10000000
,
00000000
20000000
00000000
00000000
30100000
00000000
10000000
00000000
,
01000000
00000000
10000000
00000000
00100000
00000000
00010000
00001000
,
00000000
00001000
00000000
00000000
00010000
00000000
00000100
00000000
,
00001000
00000010
00000100
00000001
,
00000010
00000011
00000001
00000010
,
00000100
00001100
00000000
00000101
,
00000001
00001000
00000002
00000000
,
00000013
00001000
00020000
00000000
,
00031000
00010000
01000000
01000000
,
00100000
00010000
00100000
00000000
00010000
01000000
00100000
10000000
,
00020000
00000000
00000000
00000000
10030000
00010000
10000000
00000000
,
00100000
00000000
00010000
00000000
00001000
00010000
00001000
00010000
,
00000000
00000100
00001000
00000010
,
00000200
00000000
00000310
00000100
,
00000110
00000000
00000001
00001000
00000000
00000000
00001000
00000001
,
00000000
00000000
00000010
00000000
00000100
00001000
00000100
00000000
,
00010000
00001000
01000000
00010000
,
10000000
10000000
00100000
00100000
,
01000000
00000000
00010000
00000000
00100000
01000000
00100000
00000000
,
00001000
00000000
00010000
00000000
00000010
00000100
00000010
00000000
,
00001000
00000001
00000100
00000010
,
00000200
00002300
00023000
02030000
,
13000000
00000000
00010000
10000000
00000000
00000000
10000000
00010000
,
00000000
00000000
00100000
00000000
01000000
10000000
00010000
00000000
,
00100000
00000000
00001000
00020000
00000000
00000000
00031000
00000000
,
00000200
00000010
00000010
00000310
,
00000110
00000000
00000100
00000001
00001000
00000000
00000001
00000000
,
00001000
00000000
00000100
00000010
00000000
00000000
00002000
00000000
,
00010000
00000000
00000000
00010000
00000000
00000000
00023000
00000000
,
00001000
00000000
00000000
00001000
00000000
00000000
00031000
00010000
,
00001000
00000000
00100000
00000000
00010000
01000000
00010000
01000000
,
00000000
00100000
00000000
10000000
00010000
00000000
00100000
00000000
,
01000000
00000000
10000000
00000000
00010000
00100000
00010000
00100000
,
00000000
00001000
00000000
00010000
00001000
00000000
00000100
00000000
,
00000010
00000000
00001000
00000000
00000001
00000100
00000001
00000100
,
00000000
00000010
00000000
00001000
00000001
00000000
00000010
00000000
,
00000100
00020000
00000000
00000000
00030100
00000000
00010000
00000000
,
00001000
02000000
00000000
00000000
03010000
00000000
00100000
00000000
,
01100000
00000000
00000000
00000000
;

//---------------dance-double - ----------------
#NOTES:
     dance-double:
     :
     Hard:
     8:
     :
00000000
00000000
00000000
00000000
,
00000000
00000000
00000000
00000000
,
00000000
00000000
00000000
00000000
,
00000000
00000000
00000000
00000000
,
00000000
00000000
00000000
00000000
,
00000000
00001000
00000000
00010000
00000000
01000000
00000000
10000000
,
00000000
00100000
00000000
00010000
00000000
00001000
00000000
00000100
,
00000000
00000001
00000000
00000010
00000000
00001000
00000000
00010000
,
00011000
00000000
00000000
00000000
00000000
00000000
00000000
00000000
00000000
00000000
00000000
00000000
10010000
00000000
01000000
00100000
,
01000000
00000000
00010000
00000000
00100000
00010000
10000000
00010000
,
01000000
00000000
00100000
10000000
00100000
00010000
00001000
00000100
,
00000010
00000000
00001000
00000000
00000100
00001000
00000001
00001000
,
00000010
00000000
00000100
00000001
00000100
00001000
00010000
00100000
,
01000000
00000000
00100000
00000000
10000000
00010000
00100000
01000000
,
10000000
00000000
01000000
10000000
01000000
00100000
00010000
01000000
,
00010000
00000000
00100000
00001000
00010000
00000010
00010000
00001000
,
00022000
00000000
00000000
00033000
00000000
00000000
00000100
00000010
,
00001001
00000000
00000100
00000001
00000010
00000100
00010000
00001000
,
00000100
00000010
00010000
00001000
01000000
00001000
00010000
00200000
,
00000000
20300000
00000000
30000000
10000000
00100000
01000000
00001000
,
00010000
01000000
00100000
00001000
00010000
00000100
00010000
00002000
,
00000000
00003020
00000000
00000030
00000001
00001000
00000100
00010000
,
00000010
00001000
00000001
00000100
00001000
00010000
01000000
00100000
,
00002000
00000000
02003000
00000000
03100000
10000000
01000000
00100000
,
00002000
00000000
02003000
00000000
03100000
10000000
00010000
10000000
,
10010000
00000000
00100000
00010000
01000000
00001000
00010000
00000100
,
00001000
00000010
00000100
00000001
00000100
00001000
00010000
00000000
,
00010010
00000000
00000010
00001000
00000100
00010000
00001000
01000000
,
00010000
00100000
01000000
10000000
01000000
00010000
00001000
00000000
,
00101000
00000000
00010000
00100000
01000000
10000000
01000000
00001000
,
00010000
00000100
00001000
00000100
00010000
00000010
00001000
00000001
,
00000010
00000000
00000100
00000010
00000001
00000100
00000010
00001000
,
00002002
00000000
00000000
00000000
00000000
00000000
00000000
00000000
00003003
00000000
00000000
00000000
00000110
00000000
00000001
00001000
,
00000001
00000100
00000010
00001000
00000001
00000100
00000010
00000001
,
00000010
00000000
00001000
00000000
00010000
00000000
01000000
00000000
10000000
00000000
01000000
00000000
00100000
00000000
00000000
10000000
,
00010000
01000000
00100000
10000000
00010000
01000000
00100000
10000000
,
00100000
00000000
00010000
00000000
00001000
00000000
00000100
00000000
00000001
00000000
00000100
00000000
00000010
00000000
00000000
00001000
,
00000001
00000100
00000001
00000010
00000100
00001000
00000100
00010000
,
00001000
00100000
00010000
01000000
00100000
10000000
01000000
00100000
,
00010000
01000000
10000000
01000000
00010000
01000000
10000000
01000000
,
00010000
00100000
00001000
00010000
00000100
00001000
00000010
00000100
,
00000001
00000010
00000100
00001000
00000000
00001000
00000001
00000100
,
00000001
00001000
00000100
00010000
00001000
00100000
00010000
01000000
,
00000000
01000000
00100000
10000000
01000000
10000000
00010000
00100000
,
01000000
00100000
00010000
01000000
00001000
00010000
00000100
00000000
,
00001000
00000010
00000001
00000010
00001000
00010000
00001000
00000010
,
00000100
00000001
00000010
00000001
00001000
00000100
00000010
00001000
,
00010000
00000000
00000000
00100000
00000000
00000000
10000000
00000000
00000000
00100000
00000000
00000000
00010000
00000000
00001000
00000000
,
00022000
00000000
00000000
00000000
00000000
00000000
00000000
00000000
00033000
00000000
00000000
00000000
00011000
00000000
00001000
00010000
,
00001000
00000100
00000010
00000100
00001000
00000100
00000010
00000100
,
00000001
00000010
00001000
00010000
01000000
10000000
01000000
00010000
,
01000000
00100000
01000000
00010000
01000000
00100000
01000000
10000000
,
00100000
00010000
00001000
00000100
00000010
00001000
00000001
00000010
,
00000100
00001000
00000010
00001000
00000100
00001000
00000010
00000100
,
00000001
00000100
00001000
00010000
00100000
10000000
01000000
10000000
,
00010000
00100000
00010000
01000000
00010000
00100000
00010000
10000000
,
01000000
00010000
00001000
00000100
00000010
00001000
00000100
00010000
,
00002000
00000000
00000000
00000000
,
00000000
00000000
00000000
00003000
;
