#TITLE:Electric Air;
#ARTIST:Amit;
#BANNER:Electric Air.png;
#BACKGROUND:Electric Air-bg.png;
#CDTITLE:./CDTITLES/Dance Dance Revolution ULTRAMIX4.png;
#MUSIC:Electric Air.ogg;
#SAMPLESTART:9.167;
#SAMPLELENGTH:15;
#DISPLAYBPM:130;
#BPMS:0=131.031,20=129.85,36=130,148=130.029,208=130.228;

//---------------dance-single - ----------------
#NOTES:
     dance-single:
     :
     Beginner:
     1:
     :
0000
0000
0000
0000
,
0000
0000
0000
0000
,
0000
0000
0000
0000
,
1000
0000
0000
0000
,
0001
0000
0000
0000
,
0100
0100
0000
0000
,
0010
0000
0000
0000
,
0100
0000
0100
0000
,
0010
0000
0000
0000
,
0100
0100
0000
0000
,
0001
0000
0000
0000
,
1000
0000
1000
0000
,
0001
0000
0000
0000
,
0010
0010
0000
0000
,
1000
0000
0000
0000
,
0001
0000
0001
0000
,
1000
0000
0000
0000
,
1001
0000
0000
0000
,
0100
0000
0000
0000
,
0010
0000
0010
0000
,
1000
0000
0000
0000
,
0001
0001
0000
0000
,
0100
0100
0000
0000
,
0010
0010
0000
0000
,
1000
1000
0000
0000
,
0001
0000
1000
0000
,
0010
0000
1000
0000
,
0001
0000
0001
0000
,
1000
0000
1000
0000
,
0100
0000
0010
0000
,
0001
0000
0010
0000
,
0001
0000
0001
0000
,
0100
0000
0100
0000
,
0020
0000
0000
0030
,
0000
0000
0000
0000
,
0200
0000
0000
0300
,
0000
0000
0000
0000
,
0001
0001
0000
0000
,
0100
0100
0000
0000
,
0010
0000
1000
0000
,
0010
0000
0000
0000
,
1000
1000
0000
0000
,
0100
0100
0000
0000
,
0010
0000
0001
0000
,
0010
0000
0000
0000
,
0001
0001
0000
0000
,
1000
1000
0000
0000
,
0010
0010
0000
0000
,
0100
0000
0100
0000
,
0100
0100
0000
0000
,
0010
0010
0000
0000
,
1000
0000
0001
0000
,
1000
0000
0001
0000
,
1000
0000
0000
0000
;

//---------------dance-single - ----------------
#NOTES:
     dance-single:
     :
     Easy:
     3:
     :
0000
0000
0000
0000
,
0000
0000
0000
0000
,
0000
0000
0000
0000
,
1000
0000
0000
0000
,
0001
0000
0000
0000
,
0100
0100
0001
1000
,
0010
0000
0000
0000
,
0100
0000
0100
0000
,
0100
0000
0000
0000
,
0010
1000
0001
0100
,
0010
0000
0000
0000
,
1000
0000
1000
0000
,
1000
0000
0000
0000
,
1001
0000
0000
0000
,
0100
0000
0000
0000
,
1000
0000
1000
0000
,
0010
0000
0000
0000
,
0100
0001
0010
0100
,
1000
0000
0000
0000
,
0001
0000
0001
0000
,
0001
0000
0000
0000
,
1000
0000
0001
0100
,
0010
0000
1000
0001
,
0100
0000
0001
1000
,
0010
0000
0000
1000
,
0001
0001
1000
0001
,
1000
1000
0001
1000
,
0010
0010
0100
0010
,
0100
0100
0010
0000
,
1000
0100
0010
0000
,
1000
0100
0010
0000
,
0001
0010
0100
0000
,
0001
0010
0100
1000
,
0020
0000
0000
0000
,
0000
0030
0000
0000
,
2000
0000
3000
0000
,
0002
0000
0003
0000
,
1000
0010
1000
0001
,
1000
0000
0001
0000
,
1000
1000
1000
0000
,
1000
0000
0000
0000
,
0010
1000
0100
0010
,
0001
0000
1000
0000
,
0100
0100
0100
0000
,
0100
0000
0000
0000
,
0010
1000
0001
0100
,
0001
1000
0010
1000
,
0010
0000
1000
0000
,
0010
0000
1000
0000
,
0001
1000
0010
0100
,
0001
1000
0001
0010
,
0001
0000
1000
0000
,
0020
0000
0000
0000
,
0030
0000
0000
0000
;

//---------------dance-single - ----------------
#NOTES:
     dance-single:
     :
     Medium:
     4:
     :
0000
0000
0000
0000
,
0000
0000
0000
0000
,
0000
0000
0000
0000
,
0010
0000
0100
0000
,
0010
0000
0010
0000
0010
0100
0010
0000
,
2000
0000
0000
0000
3001
0000
0100
0020
,
0000
0000
0030
0100
,
0010
1000
0010
1000
,
0001
0000
0000
0000
,
2000
0000
0000
0000
3010
0000
0100
0002
,
0000
0000
0003
1000
,
0010
1000
0010
1000
,
0100
0000
0000
0000
,
1002
0000
0000
0000
0103
0000
0010
0200
,
0000
0000
0300
0001
,
1000
0100
1000
0100
,
0010
0000
0000
0000
,
0012
0000
0000
0000
1003
0000
0100
0020
,
0000
0000
0030
0001
,
1000
0001
1000
0001
,
0010
0000
0000
0000
,
1001
0000
1000
0001
,
1001
0000
0010
0100
,
1001
0000
0001
0100
,
1001
0000
0000
1001
,
1000
0100
0010
0100
,
1000
0010
0100
0001
,
1000
0100
0010
0001
,
1000
0100
0010
0000
,
0001
0010
0100
0010
,
0001
0100
0010
1000
,
0001
0010
0100
1000
,
0001
0010
0100
0000
,
2001
0000
0000
3000
,
0120
0000
0000
0030
,
0201
0000
0000
0300
,
0011
0000
1000
0001
,
1000
0100
1000
0000
0010
0000
0010
0000
,
1000
0100
0010
0000
0100
0000
0010
0000
,
0001
0010
0001
0000
0100
0000
0100
0000
,
0110
0000
0000
0000
,
0010
0100
0010
0000
1000
0000
1000
0000
,
0001
0100
0010
0000
1000
0000
0001
0000
,
0100
0010
0100
0000
0001
0000
0001
0000
,
1001
0000
0000
0110
,
0100
0010
0100
0010
,
1000
0001
1000
0001
,
1000
0100
0010
0001
,
2000
0000
3000
1001
,
0010
0100
0010
0100
,
0001
1000
0001
1000
,
0001
0010
0100
1000
,
0002
0000
0003
0100
,
0110
0000
0000
0000
;

//---------------dance-single - ----------------
#NOTES:
     dance-single:
     :
     Hard:
     6:
     :
0000
0000
0000
0000
,
0000
0000
0000
0000
,
0000
0000
0000
0000
,
1000
0001
1000
0001
,
1000
1000
0001
0001
0100
0100
0010
0010
,
1001
0000
0110
0000
0010
0001
1000
0020
,
0000
0000
0000
0000
0000
1030
1000
1000
,
0002
0000
1000
0000
0103
0010
0000
0220
,
0000
0000
0330
0000
,
1001
0000
0110
0000
0010
1000
0100
0020
,
0000
0000
0000
0000
0000
0130
0100
0100
,
0020
0000
0001
0000
0130
1000
0000
0101
,
0000
0000
0000
0000
0000
0000
0000
0000
0000
0000
1000
0000
0000
0001
0000
0000
,
0101
0000
1010
0000
1000
0100
0010
0002
,
0000
0000
0000
0000
0000
1003
1000
1000
,
0020
0000
0100
0000
1030
0001
0000
2002
,
0000
0000
3003
0000
,
0110
0000
1100
0000
0001
0100
0010
2000
,
0000
0000
0000
0000
0000
3010
0010
0010
,
2000
0000
3200
0000
0310
0001
0000
2002
,
0000
0000
3003
0000
,
1000
0001
0100
0101
,
1000
0100
0010
1100
,
0001
1000
0010
1000
,
0001
0010
0100
1000
,
2000
0000
0002
3000
0200
0003
0020
0300
,
2000
0030
0200
3000
0020
0300
0031
1000
,
0200
0000
0020
0300
0002
0030
2000
0003
,
0020
3000
0200
0030
0301
0000
0110
0000
,
1002
0000
0200
0003
0020
0300
2000
0030
,
0200
3000
0002
0300
0200
0003
1300
0001
,
0200
0000
2000
0300
0200
3000
0002
0300
,
1003
0000
0000
0000
,
1001
0001
0100
0100
0001
0001
1000
1000
,
0100
0100
1000
1000
0010
0010
0100
0100
,
0010
0010
0100
0100
0001
0001
1000
1000
,
0001
0000
0000
1000
0100
0010
0001
0001
,
0011
0000
1100
0000
1010
0000
1000
0002
,
0000
0000
0103
0000
1000
0100
0010
0001
,
0001
0010
0100
1000
0010
0100
0000
0220
,
0000
0000
0330
0000
,
0110
0000
1010
0000
0101
0000
0001
0020
,
0000
0000
0130
0000
0010
0001
0100
0010
,
0010
1000
0100
0010
0001
0010
0000
0220
,
0000
0000
0330
0000
,
1000
0100
0010
0001
,
1000
0001
0100
0001
,
0010
0001
0100
0000
0010
1000
0100
0000
,
0010
0001
0100
1000
,
0010
0001
0010
0001
,
1000
0100
1000
0100
,
1000
0100
0010
0001
1000
0100
0010
0001
,
0100
0010
1000
0001
0100
0010
1000
0001
,
0010
0000
0000
0000
;

//---------------dance-double - ----------------
#NOTES:
     dance-double:
     :
     Beginner:
     1:
     :
00000000
00000000
00000000
00000000
,
00000000
00000000
00000000
00000000
,
00000000
00000000
00000000
00000000
,
00010000
00000000
00000000
00000000
,
00000100
00000000
00000000
00000000
,
00001000
00001000
00000000
00000000
,
00000010
00000000
00000000
00000000
,
00000100
00000000
00000100
00000000
,
00000001
00000000
00000000
00000000
,
00001000
00001000
00000000
00000000
,
00000100
00000000
00000000
00000000
,
00010000
00000000
00010000
00000000
,
00001000
00000000
00000000
00000000
,
00100000
00100000
00000000
00000000
,
00010000
00000000
00000000
00000000
,
10000000
00000000
10000000
00000000
,
00100000
00000000
00000000
00000000
,
01100000
00000000
00000000
00000000
,
01000000
00000000
00000000
00000000
,
00100000
00000000
00001000
00000000
,
00010000
00000000
00000000
00000000
,
00000100
00000100
00000000
00000000
,
00001000
00001000
00000000
00000000
,
00000010
00000010
00000000
00000000
,
00000100
00000100
00000000
00000000
,
00000010
00000000
00010000
00000000
,
00001000
00000000
01000000
00000000
,
00010000
00000000
00010000
00000000
,
00100000
00000000
00100000
00000000
,
01000000
00000000
00100000
00000000
,
00001000
00000000
00010000
00000000
,
00001000
00000000
00001000
00000000
,
00010000
00000000
00010000
00000000
,
00002000
00000000
00000000
00003000
,
00000000
00000000
00000000
00000000
,
02000000
00000000
00000000
03000000
,
00000000
00000000
00000000
00000000
,
00100000
00100000
00000000
00000000
,
10000000
10000000
00000000
00000000
,
01000000
00000000
00100000
00000000
,
00010000
00000000
00000000
00000000
,
00100000
00100000
00000000
00000000
,
00001000
00001000
00000000
00000000
,
00010000
00000000
00000100
00000000
,
00001000
00000000
00000000
00000000
,
00000010
00000010
00000000
00000000
,
00001000
00001000
00000000
00000000
,
00000100
00000100
00000000
00000000
,
00000010
00000000
00010000
00000000
,
00001000
00001000
00000000
00000000
,
00010000
00010000
00000000
00000000
,
00001000
00000000
00010000
00000000
,
00001000
00000000
00010000
00000000
,
00001000
00000000
00000000
00000000
;

//---------------dance-double - ----------------
#NOTES:
     dance-double:
     :
     Easy:
     4:
     :
00000000
00000000
00000000
00000000
,
00000000
00000000
00000000
00000000
,
00000000
00000000
00000000
00000000
,
00000010
00000000
00001000
00000000
,
00000100
00010000
00001000
00000000
,
00011000
00000000
00000000
00000000
,
00001000
00100000
00010000
00000000
,
10000000
10000000
01000000
00000000
,
00100000
00000000
00000000
00000000
,
01100000
00000000
00000000
00000000
,
00100000
00001000
00010000
00000000
,
00000100
00000100
00001000
00000000
,
00000001
00000000
00000000
00000100
,
00000110
00000000
00000000
00000000
,
00000010
00010000
00001000
00000000
,
00100000
00100000
00010000
00000000
,
10000000
00000000
00000000
00000000
,
10010000
00000000
00000000
00000000
,
10000000
01000000
00100000
00000000
,
00001000
00000010
00000001
00000000
,
00000010
00000000
00000000
00000000
,
00000001
00001000
00000100
00010000
,
00001000
00100000
00010000
00000000
,
01000000
01000000
00000000
00000000
,
00100000
00100000
10000000
00010000
,
00100000
01000000
00010000
00000000
,
00001000
00000010
00000001
00000001
,
00000100
00000100
00000100
00000000
,
00000010
00010000
00001000
01000000
,
00100000
10000000
01000000
00000000
,
00100000
00001000
00010000
00010000
,
00000100
00000100
00000100
00000000
,
00001000
00000100
00000010
00000001
,
00002000
00000000
00000000
00000000
,
00003000
00000000
00000000
00000000
,
00000200
00000000
00000300
00000000
,
00010000
00000000
00000000
00001000
,
00100000
00100000
00010000
00100000
,
00010000
00000000
10000000
00000000
,
00010000
01000000
00001000
00010000
,
00000010
00000000
00000000
00000000
,
00000100
00000100
00000001
00000100
,
00000010
00000000
00000000
00000100
,
00000001
00001000
00000100
00010000
,
00001000
00000000
00000000
00000000
,
00100000
00010000
00100000
00010000
,
01000000
01000000
01000000
00000000
,
00100000
00000000
01000000
00000000
,
00100000
10000000
00100000
10000000
,
00010000
00010000
00010000
00000000
,
00100000
00001000
00010000
00000100
,
00001000
00001000
00000010
00000100
,
00000001
00000000
00002000
00000000
,
00003000
00000000
00000000
00000000
;

//---------------dance-double - ----------------
#NOTES:
     dance-double:
     :
     Medium:
     5:
     :
00000000
00000000
00000000
00000000
,
00000000
00000000
00000000
00000000
,
00000000
00000000
00000000
00000000
,
00000001
00001000
00000010
00010000
,
00002000
00000000
00000000
00000000
00010000
00010000
00013000
00000000
,
00000100
00000000
00010000
00000000
00001000
00010000
00001000
00000000
,
02000000
03000000
00200000
00300000
,
10000000
01000000
00010000
00001000
,
00000020
00000000
00000030
00000000
,
00000001
00000000
00001000
00000000
00000010
00001000
00000100
00000000
,
00010000
01000000
00100000
00000000
,
00010000
00100000
01000000
10000000
,
10010000
00000000
00000000
01000000
,
00001000
00000000
00010000
00000000
00000010
00001000
00000100
00000000
,
00001000
00000100
00000010
00000001
,
00000002
00000003
00002000
00003000
,
00000200
00000000
00000300
00000000
,
00010000
00000000
00001000
00000000
01000000
00010000
01000000
00000000
,
00100000
10000000
01000000
00100000
,
01000000
10000000
00010000
00100000
,
00002000
00000000
00003000
00000000
,
00010000
00000100
00001000
00000000
,
00000010
00001000
00000001
00000000
,
00000001
00000100
00000010
00000000
,
00001000
00000000
00000100
00000000
00010000
00000000
00001000
00010000
,
01000000
00100000
00010000
10000000
,
02000000
03000000
00200000
00300000
,
00001000
00000010
00000010
00000100
,
00000020
00000030
00000200
00000300
,
00001000
00000100
00010000
00001000
,
00100000
00000000
00010000
00000000
01000000
00000000
00100000
10000000
,
01000000
00100000
00001000
00000010
,
00000002
00000000
00000003
00000000
,
00002000
00000000
00003000
00000000
,
00000200
00000000
00000300
00000000
,
00020000
00000000
00030000
00000000
,
00002000
00000000
00003000
00000000
,
00100000
00010000
01000000
00100000
,
20000000
30000000
00020000
00030000
,
10000000
00100000
10000000
00000000
00010000
00100000
00010000
00000000
,
00100000
00001000
00010000
00000000
,
00001000
00000100
00000010
00000001
,
00001000
00000100
00010000
00000000
,
00001000
00100000
00001000
00000000
00100000
00010000
00100000
00000000
,
01000000
00100000
00010000
00000000
00100000
00000000
00001000
00000000
,
00010000
00000010
00001000
00000000
,
00000001
00001000
00000001
00000000
,
00000010
00000100
00010000
00001000
,
02000000
00000000
03000000
00000000
,
00100000
00000000
10000000
00000000
00010000
01000000
00001000
00000000
,
00010000
00000100
00001000
00000000
00000001
00001000
00000010
00000000
,
00001000
00000100
00010000
00000000
00001000
00100000
00010000
00000000
,
10000000
01000000
00100000
00000000
00001000
00010000
00001000
00000000
,
00011000
00000000
00000000
00000000
;

//---------------dance-double - ----------------
#NOTES:
     dance-double:
     :
     Hard:
     7:
     :
00000000
00000000
00000000
00000000
,
00000000
00000000
00000000
00000000
,
00000000
00000000
00000000
00000000
,
00000001
00001000
00000001
00001000
,
00000100
00000100
00010000
00010000
00001000
00001000
00100000
00100000
,
00011000
00000000
00110000
00000000
00100000
00010000
10000000
00200000
,
00000000
00000000
00000000
00000000
00000000
01300000
01000000
01000000
,
00002000
00000000
00010000
00000000
00103000
00010000
00000000
00022000
,
00000000
00000000
00033000
00000000
,
00001010
00000000
00000110
00000000
00001000
00000100
00000010
00000002
,
00000000
00000000
00000000
00000000
00000000
00000103
00000100
00000100
,
00000020
00000000
00010000
00000000
00001030
00000100
00000000
00011000
,
00000000
00000000
00000000
00000000
00000000
00000000
00000000
00000000
00000000
00000000
01000000
00000000
00000000
00010000
00000000
00000000
,
01010000
00000000
11000000
00000000
00100000
00001000
00100000
00020000
,
00000000
00000000
00000000
00000000
00000000
01030000
01000000
01000000
,
00200000
00000000
10000000
00000000
01300000
00010000
00000000
02020000
,
00000000
00000000
03030000
00000000
,
00011000
00000000
00010100
00000000
00001000
00000001
00000100
00002000
,
00000000
00000000
00000000
00000000
00000000
00003000
00000100
00000100
,
00000010
00000000
00020000
00000000
00001000
00031000
00000000
00022000
,
00000000
00000000
00033000
00000000
,
01010000
10000000
01100000
10000000
,
00110000
01000000
00011000
01000000
,
00001000
00010000
00000100
00000010
,
00000001
00000020
00000130
00000000
,
00001100
00001010
00001100
00011000
,
00110000
00000000
01010000
00000000
10010000
00000000
00010000
10000000
,
10010000
10100000
00110000
00011000
,
00001100
00011000
00110000
00000000
,
00001100
00001010
00001100
00011000
,
00110000
00000000
01100000
00000000
11000000
00000000
10000000
01000000
,
11000000
01010000
00011000
00001010
,
00001001
00000000
00000000
00000000
,
00000001
00000001
00000100
00000100
00001000
00001000
00010000
00010000
,
00100000
00100000
00010000
00010000
00100000
00100000
01000000
01000000
,
00010000
00010000
10000000
10000000
01000000
01000000
00100000
00100000
,
01100000
00000000
00000000
10000000
01000000
00100000
00001000
00000100
,
00000010
00000000
00000120
00000000
00000031
00000000
00000100
00000020
,
00000000
00000000
00000130
00000000
00001000
01000000
00100000
10000000
,
10000000
01000000
00100000
00010000
00001000
00000100
00000000
00000220
,
00000000
00000000
00000330
00000000
,
00000021
00000000
00000130
00000000
00001000
00000000
00000010
00020000
,
00000000
00000000
00031000
00000000
00100000
00010000
10000000
01000000
,
01000000
10000000
01000000
00100000
00001000
00000100
00000000
00002200
,
00000000
00000000
00003300
00000000
,
00001000
00000001
00000100
00001000
,
00010000
01000000
10000000
00100000
,
10000000
01000000
00100000
00000000
10000000
01000000
00100000
00000000
,
00001000
00000010
00000010
00000001
,
00001000
00000100
00001000
00000100
,
00010000
00001000
00010000
00001000
,
01000000
00001000
00100000
00010000
01000000
00001000
00010000
00000100
,
00010000
00001000
00100000
00010000
01000000
00100000
10000000
01000000
,
00100000
00000000
00000000
00000000
;
