#TITLE:ECSTASY;
#ARTIST:d-complex;
#BANNER:ECSTASY.png;
#BACKGROUND:ECSTASY-bg.png;
#CDTITLE:./CDTITLES/Song Pack 16.png;
#MUSIC:ECSTASY.ogg;
#SAMPLESTART:54.789;
#SAMPLELENGTH:15;
#DISPLAYBPM:0:145;
#BPMS:0=145.749,4=145.259,100=140.187,105=136.364,106=130.435,107=125,108=120,109=145.278,189=136.364,190=150.313;
#STOPS:100=2.933,189=6.287;

//---------------dance-single - ----------------
#NOTES:
     dance-single:
     :
     Beginner:
     1:
     :
0000
0000
0000
0000
,
0000
0000
0000
0000
,
0000
0000
0000
0000
,
0000
0000
0000
0000
,
0000
0000
0000
0000
,
0010
0000
0000
0000
,
0001
0000
0000
0000
,
1000
0000
0000
0000
,
0100
0000
0000
0000
,
0001
0001
0001
0001
,
0001
0001
0001
0000
,
1000
1000
1000
1000
,
1000
1000
1000
0000
,
0010
0000
0100
0000
,
0010
0000
0100
0000
,
1000
0000
0001
0000
,
1000
0000
0001
0000
,
0010
0010
0010
0010
,
0010
0010
0010
0000
,
0100
0100
0100
0100
,
0100
0100
0100
0000
,
0001
0000
0001
0000
,
0100
0000
0100
0000
,
0100
0000
0100
0000
,
1000
0000
1000
0000
,
0100
0100
0000
0000
,
0000
0001
0000
0000
,
0000
1000
0000
0100
,
0000
0010
0000
0100
,
0100
0100
0000
1000
,
0000
0001
0000
1000
,
0000
1001
1001
1001
,
1001
1001
1001
1001
,
0000
0110
0110
0110
,
0110
0110
0110
0110
,
0000
0001
0000
0000
,
0000
1000
0000
0000
,
0000
0100
0000
0000
,
0000
0010
0000
0000
,
0000
0001
0000
0001
,
0000
1000
0000
1000
,
0000
0010
0000
0100
,
0000
0001
0000
1000
,
0000
0001
0001
0001
,
0001
0001
0001
0001
,
0000
1000
1000
1000
,
1000
1000
1000
1000
,
1000
1000
1000
0000
,
0001
0000
0100
0000
,
0100
0000
0001
0000
,
0001
0000
0010
0000
,
1000
0000
0001
0000
,
1000
0000
0001
0000
,
1000
0000
0100
0000
,
0001
0000
1000
0000
,
0010
0000
0100
0000
;

//---------------dance-single - ----------------
#NOTES:
     dance-single:
     :
     Easy:
     4:
     :
0000
0000
0000
0000
,
0000
0000
0000
0000
,
0000
0000
0000
0000
,
0000
0000
0000
0000
,
0000
0000
0000
0000
,
0010
1000
0001
0100
,
0010
1000
0001
0100
,
1000
0100
0001
0100
,
1000
0100
0001
0100
,
1001
0001
0100
0001
,
1001
1000
0100
1000
,
1001
0001
0100
0001
,
1001
1000
0100
1000
,
0010
1000
0001
0100
,
0010
1000
0001
0100
,
1000
0000
0001
0000
,
1000
0000
0001
0000
,
1000
0100
0001
0100
,
1000
0100
0001
0100
,
0010
0010
0100
0100
,
0001
1000
0100
0001
,
1001
0100
1000
0100
,
0001
1000
0010
0100
,
0001
1000
0010
0100
,
0001
1000
0001
1000
,
0100
0100
0000
0100
,
0000
0001
0000
1000
,
0000
0001
0000
0100
,
0000
0010
1000
0100
,
0100
0001
0100
1000
,
0100
0001
0100
1000
,
0100
1001
0100
0010
,
1000
0001
0100
0010
,
1000
0001
0100
1000
,
0100
0010
0001
1000
,
0100
0001
0000
0000
,
0000
1000
0000
0000
,
0000
0100
0000
0000
,
0000
0010
0000
0000
,
0000
0001
0000
0001
,
0000
1000
0000
1000
,
0000
0010
0000
0100
,
0000
0001
0000
1000
,
0000
1001
0100
1000
,
0100
1001
0100
0001
,
0100
1001
0010
1000
,
0100
1001
0010
0001
,
0100
1000
0100
0000
,
1001
0000
0100
0000
,
0100
0000
0001
1000
,
0001
0100
1000
0001
,
1000
0100
0001
0100
,
1000
0100
0001
0010
,
1000
0010
0100
0100
,
0001
0100
1000
1000
,
0010
0100
0001
0000
;

//---------------dance-single - ----------------
#NOTES:
     dance-single:
     :
     Medium:
     6:
     :
0000
0000
0000
0000
,
0000
0000
0000
0000
,
0000
0000
0000
0000
,
0000
0000
0000
0000
,
0000
0000
0000
0000
,
0010
0000
1000
0000
0001
1000
0100
0000
,
0010
0000
1000
0000
0001
1000
0100
0000
,
1000
0000
0100
0000
0001
0100
0001
0000
,
1000
0000
0100
0000
0010
0001
0100
0000
,
1001
0000
0100
0000
0010
0001
0010
0000
,
0001
1000
0100
0000
0001
0000
0101
0000
,
1001
0000
0001
0000
0010
1000
0100
0000
,
0001
1000
0100
0000
0010
0000
1001
0000
,
0010
0000
1000
0000
0001
0100
0001
0000
,
1000
0001
1000
0000
0010
0000
0100
0000
,
1000
0000
0100
0000
0010
0001
0001
0000
,
1000
0100
0100
0000
0001
0000
0100
0000
,
1000
0000
0100
0000
0001
1000
0001
0000
,
1000
1000
0100
0000
0010
0000
0001
0000
,
0010
0000
0010
0000
0100
0100
0100
0000
,
0001
0010
0100
0000
1000
0000
0100
0000
,
1001
0000
0100
0000
0010
0001
0100
0000
,
0010
1000
0100
0000
0001
0000
0100
0000
,
0001
0001
1000
1000
,
0001
1000
0001
1000
0001
1000
0100
0000
,
0100
0100
0000
0100
,
0000
0001
1000
0001
,
0100
0000
1000
0100
0100
0000
0100
0000
,
0000
0000
0010
1000
1000
0000
0100
0000
,
0000
0000
0001
0100
0100
0000
1000
0000
,
0000
0000
1000
0100
0100
0000
1000
0000
,
0000
0000
1001
0000
0100
0000
0010
1000
,
0100
0000
0001
0010
0100
0000
0010
0000
,
1000
0000
0001
0000
0100
0000
1000
1000
,
0100
0000
0010
0010
0001
0000
1000
0000
,
0100
0000
0001
0000
0000
1000
0000
0000
,
0100
0000
0000
1000
0000
0001
0000
0100
,
0000
1000
0000
0100
0000
0001
0000
1000
,
0000
0100
0000
0010
0000
0001
0000
1000
,
0000
0100
0100
0000
0000
0000
0000
0000
,
0000
0000
0000
0000
,
0000
0010
0010
0010
,
0010
0010
0010
0010
,
0010
0000
1001
0100
0010
0000
1001
0100
,
0010
0000
1001
0100
0010
0000
0001
0000
,
0100
0010
1000
0100
,
0001
0000
0010
1000
0010
1000
0001
1000
,
0100
1001
0110
0000
,
0110
0000
0110
0000
,
0110
0000
0000
0000
0001
1000
0100
0000
,
1000
0001
0100
0000
0001
1000
0001
1000
,
0010
1000
0100
0000
0001
0100
0001
0000
,
1000
0100
1000
0000
0001
0010
0100
0100
,
1000
0001
0100
0000
0100
0100
0100
0000
,
0010
1000
0100
0000
1000
0001
1000
0001
,
0001
1000
0100
0000
0001
0000
0000
0000
;

//---------------dance-single - ----------------
#NOTES:
     dance-single:
     :
     Hard:
     7:
     :
0000
0000
0000
0000
,
0000
0000
0000
0000
,
0000
0000
0000
0000
,
0000
0000
0000
0000
,
0000
0000
0000
0000
,
0010
1000
0100
0001
0100
1000
1000
0000
,
1000
0010
1000
0100
0010
0001
0100
0000
,
1000
0000
0001
0100
0010
1000
0100
0000
,
0100
0000
1000
0100
0000
0001
0100
0000
,
1001
0000
1000
0100
0000
0001
0000
0100
,
0000
0010
1000
0100
0001
0000
1100
0000
,
1001
0000
0001
0100
0000
1000
0000
0100
,
0000
0010
0001
0100
1000
0000
1100
0000
,
0001
0000
1000
0100
0000
0010
0000
0001
,
0000
1000
0100
1000
0100
0000
0101
0000
,
0100
0000
0010
1000
0000
0001
0000
0100
,
0000
1000
0100
0010
0001
0000
1100
0000
,
0001
0000
1000
0100
0000
1000
0000
0001
,
0000
1000
0000
0100
0000
0001
0100
0000
,
1000
0000
0001
0100
0000
0010
0000
0100
,
0000
1000
0000
0100
0000
0001
0100
0000
,
1000
0001
1000
0001
1000
0100
1000
0000
,
0001
0010
0001
0010
0001
1000
0100
0000
,
0010
1000
0100
1000
0001
0010
0100
1000
,
0001
0100
0010
1000
0100
0010
0001
0100
,
0010
0100
0000
0000
,
0000
0100
0000
0000
,
0000
0000
1001
0000
0100
1000
0000
0001
,
0000
1000
0000
0010
0001
0100
0000
0000
,
0100
0000
0001
0000
0001
0001
0000
1000
,
0000
0001
0000
0100
0010
1000
0000
0000
,
0100
0000
1100
0000
1001
0000
0010
1000
,
0100
0000
0100
0000
0101
0000
0010
1000
,
0100
0000
0101
0000
1001
0000
0010
0001
,
0100
0000
0100
0000
1100
0000
0010
0001
,
0100
0000
0100
0000
0000
1000
0000
0000
,
0100
0000
0000
0010
1000
0100
0000
0010
,
0001
1000
0000
0100
0010
0001
0000
1000
,
0001
0100
0000
0010
0100
0001
0000
1000
,
0001
0100
0100
0000
0100
0000
1000
0000
,
0100
1000
0100
1000
,
0100
0000
0010
0001
0100
0010
1000
0100
,
1000
0001
0010
1000
0010
0001
0100
0010
,
1100
0000
1001
1001
1001
0000
0010
1000
,
0100
0000
0001
0100
0001
0000
1000
0000
,
0101
0000
0010
0100
0001
0100
0010
1000
,
0100
1000
0010
1000
0100
0010
0001
0010
,
0100
1000
0001
0000
1001
0000
0000
0000
,
0100
1000
0100
0000
1001
0000
0000
0000
,
0100
0001
0100
0000
0010
0000
1100
0000
,
0010
0001
0010
0100
1000
0000
0101
0000
,
0010
1000
0010
0100
0001
0000
0000
1000
,
0000
0000
0100
0000
0010
0001
0100
1000
,
0100
0001
0010
0100
1000
0010
0100
0001
,
0010
0100
1000
0001
0100
0010
1000
0100
,
0010
0001
0100
0010
1000
0000
0000
0001
,
0000
0100
0000
0000
;

//---------------dance-single - ----------------
#NOTES:
     dance-single:
     :
     Challenge:
     8:
     :
0000
0000
0000
0000
,
0000
0000
0000
0000
,
0000
0000
0000
0000
,
0000
0000
0000
0000
,
0000
0000
0000
0000
,
1000
0000
0100
0000
0010
0000
0001
0000
1000
0000
0100
0000
0000
0100
0000
0000
,
0100
0000
1000
0000
0001
0000
0100
0000
0010
0000
1000
0000
0000
1000
0000
0000
,
1000
0000
0010
0000
0100
0000
0001
0000
1000
0000
0001
0000
0000
1000
0000
0000
,
2002
0000
0000
3003
,
0010
1000
0001
0020
0000
0100
0000
1000
,
0000
0130
0010
0001
0000
0100
0001
0100
,
0010
1000
0001
0200
0000
0010
0000
1000
,
0000
0310
0100
0001
0000
1000
0100
1000
,
0010
0100
0001
0020
0000
1000
0000
0100
,
0000
0031
0010
0100
0000
1000
0010
1000
,
0100
0010
0001
0200
0000
1000
0000
0010
,
0000
0301
0100
0010
0000
0100
0001
1000
,
1001
0100
0001
0010
0100
1000
0100
0001
,
0100
1000
0010
2000
0000
0001
0001
3001
,
1000
0100
1000
0010
0100
0001
0100
1000
,
0100
0001
0010
0002
0000
1000
1000
1003
,
1010
0000
0000
0110
0000
0000
0101
0000
,
0000
0001
0010
0001
0000
1000
0100
1000
,
0000
0001
0100
0001
0000
0010
1000
0010
,
0001
0010
0100
1000
0100
0001
0100
1000
,
0002
2003
0000
0000
,
0000
0200
0000
0000
,
3300
0000
0012
0000
0010
1000
0000
0100
,
0000
1000
0003
0100
0001
0010
0000
0010
,
0001
0010
2100
0000
0100
0001
0000
0010
,
0000
0001
3000
0010
1000
0100
0000
0100
,
1000
0100
0010
0001
0100
0000
0010
1000
,
0100
0000
0001
0100
1000
0010
1000
0100
,
0010
0000
0100
1000
0010
0000
0100
0001
,
0010
0000
1000
0010
0001
0100
0001
0010
,
0100
1000
0020
0000
0000
0230
0000
0000
,
0302
0000
0000
1003
0000
0001
0000
0100
,
0020
0001
0000
0130
0000
0010
0000
1000
,
0200
0010
0000
1300
0000
0001
0000
1000
,
0100
0000
0010
0000
0001
0000
0000
1001
0000
0000
1001
0000
0000
0000
0000
0000
,
0000
1010
0000
0000
0110
0000
0000
0110
0000
0000
0101
0000
0000
0000
0011
0000
,
0000
0011
0000
0000
0001
0000
0010
0000
0100
1000
0100
1000
0010
0000
0100
0000
,
0001
0100
0001
0100
0010
0000
1000
0000
0100
1000
0100
1000
0010
0000
0100
0000
,
0001
0100
0001
0100
0010
0000
1000
0000
0010
0000
1000
0000
0001
0000
0100
0000
,
0001
0100
0001
0010
0001
0010
0100
1000
,
0100
1000
0001
0010
0100
1000
0001
0100
,
0010
1000
0100
0010
0001
0100
1000
0100
,
0001
0000
0010
0000
0220
0000
0330
0000
1001
0000
0000
0000
0000
0000
0001
0100
,
0000
0001
0000
1000
0010
1000
0000
0001
0100
0000
0000
0000
0000
0000
0001
0010
,
0000
0001
0000
0100
1000
0100
0000
0010
0001
0000
1000
0000
0110
0000
1000
0000
,
0010
1000
0110
1000
0100
0001
0110
0001
,
0010
0001
0110
0001
0100
0001
0100
0010
,
0100
0010
1000
0010
1000
0001
0010
0100
,
1000
0001
1000
0100
0010
0001
0100
0010
,
1000
0001
0100
1000
0100
0001
0010
0100
,
1000
0000
0001
0000
1000
0100
0010
0001
2000
0000
0000
0000
0000
0000
3002
0000
,
0000
0203
0000
0000
,
0000
0300
0000
0000
;

//---------------dance-double - ----------------
#NOTES:
     dance-double:
     :
     Beginner:
     1:
     :
00000000
00000000
00000000
00000000
,
00000000
00000000
00000000
00000000
,
00000000
00000000
00000000
00000000
,
00000000
00000000
00000000
00000000
,
00000000
00000000
00000000
00000000
,
00000001
00000000
00000000
00000000
,
00000100
00000000
00000000
00000000
,
00001000
00000000
00000000
00000000
,
00011000
00000000
00000000
00000000
,
00010000
00000000
00010000
00000000
,
00010000
00000000
00000000
00000000
,
01000000
00000000
01000000
00000000
,
01000000
00000000
00000000
00000000
,
10000000
00000000
10000000
00000000
,
10000000
00000000
00000000
00000000
,
00100000
00000000
00100000
00000000
,
00100000
00000000
00000000
00000000
,
00010000
00010000
00000000
00000000
,
00001000
00000000
00001000
00000000
,
00000100
00000100
00000000
00000000
,
00000001
00000000
00000001
00000000
,
00001000
00000000
00000000
00000000
,
00000001
00000000
00000000
00000000
,
00001000
00000000
00000100
00000000
,
00010000
00000000
00001000
00000000
,
00010000
00001000
00000000
00000000
,
00000000
00010000
00000000
00000000
,
00000000
01000000
00000000
00000000
,
00000000
10000000
00000000
00000000
,
00000000
01000000
00000000
00000000
,
00000000
00100000
00000000
00000000
,
00000000
00010000
00000000
00010000
,
00000000
10000000
00000000
10000000
,
00000000
00100000
00000000
00100000
,
00000000
00010000
00000000
00010000
,
00000000
00001000
00000000
00000000
,
00010000
00000000
00000000
00000000
,
00001000
00000000
00010000
00000000
,
00000100
00000000
00001000
00000000
,
00000001
00000000
00000000
00000000
,
00000000
00001000
00000000
00000000
,
00000000
00000001
00000000
00001000
,
00000000
00000010
00000000
00001000
,
00000000
00000100
00000000
00000100
,
00000000
00010000
00000000
00010000
,
00000000
00001000
00000000
00000000
,
00000000
00010000
00000000
00000000
,
00000000
00011000
00010000
00000000
,
00000000
00000000
00100000
00000000
,
00000000
00000000
01000000
00000000
,
01000000
00000000
00100000
00000000
,
00100000
00000000
01000000
00000000
,
01000000
00000000
00100000
00000000
,
00100000
00000000
10000000
00000000
,
01000000
00000000
00010000
00000000
,
00001000
00000000
00011000
00000000
;

//---------------dance-double - ----------------
#NOTES:
     dance-double:
     :
     Easy:
     4:
     :
00000000
00000000
00000000
00000000
,
00000000
00000000
00000000
00000000
,
00000000
00000000
00000000
00000000
,
00000000
00000000
00000000
00000000
,
00000000
00000000
00000000
00000000
,
00100000
10000000
01000000
00010000
,
00001000
00000100
00000001
00000010
,
00000010
00000001
00000100
00001000
,
00010000
01000000
10000000
00100000
,
10000000
01100000
00010000
00011000
,
00000100
00000110
00000001
00001001
,
00000001
00000110
00001000
00011000
,
01000000
01100000
10000000
10010000
,
00100000
10000000
01000000
00010000
,
00001000
00000010
00000001
00000100
,
00000010
00000001
00000100
00001000
,
00010000
00100000
10000000
01000000
,
10000000
01000000
00010000
00001000
,
00001000
00010000
01000000
00100000
,
00100000
00001000
00010000
00000100
,
00000100
00000010
00000001
00000100
,
00001001
00000100
00001000
00010000
,
01000000
10000000
00100000
10000000
,
10000000
01000000
00010000
00001000
,
00000100
00000001
00000010
00000001
,
00000001
00000100
00000000
00001000
,
00000000
00010000
00000000
01000000
,
00000000
10010000
00100000
10000000
,
01000000
00010000
00001000
00010000
,
01000000
01000000
00010000
00001000
,
00000100
00000001
00000010
00000001
,
00000100
00000010
00001001
00000100
,
00001100
00010000
00011000
01000000
,
10010000
00100000
10010000
01000000
,
01010000
00001000
00011000
00000100
,
00001001
00000010
00000010
00000100
,
00000100
00001000
00001000
00010000
,
01000000
10000000
00000000
01000000
,
00000000
00010000
00000000
00001000
,
00000000
00000100
00000000
00000000
,
00000000
00000001
00000000
00000001
,
00000000
00000001
00000000
00000001
,
00000000
00000001
00000000
00000100
,
00011000
00100000
10100000
10000000
,
11000000
00010000
01010000
00001000
,
00011000
00000010
00000110
00000001
,
00001100
00001000
00011000
00010000
,
01100000
01100000
01100000
00000000
,
10000000
00000000
01000000
00000000
,
00010000
00000000
00001000
00000100
,
00000001
00000010
00000010
00000010
,
00000010
00000010
00000001
00000100
,
00001000
00010000
00001000
00000100
,
00001000
00010000
01000000
10000000
,
00100000
01000000
00010000
10000000
,
01000000
00010000
00001000
00000000
;

//---------------dance-double - ----------------
#NOTES:
     dance-double:
     :
     Medium:
     6:
     :
00000000
00000000
00000000
00000000
,
00000000
00000000
00000000
00000000
,
00000000
00000000
00000000
00000000
,
00000000
00000000
00000000
00000000
,
00000000
00000000
00000000
00000000
,
00100000
00000000
10000000
00000000
01000000
00010000
00001000
00000000
,
00001000
00000100
00000001
00000000
00000001
00001000
00000100
00000000
,
00000010
00000000
00000001
00000000
00000100
00001000
00000100
00000000
,
00001000
00010000
01000000
00000000
10000000
00000000
01010000
00000000
,
10000000
01100000
00010000
00011000
,
00000100
00000000
00000110
00000000
00000001
00001000
00000100
00000000
,
00000001
00000110
00001000
00011000
,
01000000
00000000
01100000
00000000
10000000
00010000
01000000
00000000
,
00100000
00000000
10000000
00000000
01000000
10000000
00010000
00000000
,
01000000
00000000
00001000
00000000
00010000
00000100
00000010
00000000
,
00001000
00000000
00000001
00000000
00000100
00001000
00000100
00000000
,
00010000
00000000
00100000
00000000
01000000
10000000
01000000
00000000
,
00100000
10000000
01000000
00000000
00100000
00010000
01000000
00000000
,
00001000
00000100
00000010
00000000
00000001
00001000
00000100
00000000
,
00010000
00100000
00010000
00001000
,
00000010
00000000
00001000
00000000
00010000
00001000
00000100
00000000
,
00001001
00000100
00001000
00010000
,
01000000
00000000
10000000
00000000
00100000
10000000
01000000
00000000
,
10000000
01000000
00010000
00000000
00010000
00001000
00000100
00000000
,
00000100
00000001
00000010
00000100
00000010
00000001
00000100
00000000
,
00001001
00000100
00000000
00001000
,
00000000
00010000
00000000
01000000
,
00000000
10000000
00100000
10000000
,
01000000
00000000
00010000
00000000
00001000
00000000
00010000
01000000
,
01000000
01000000
00010000
00001000
,
00000100
00000000
00000001
00000000
00001000
00000000
00000001
00000100
,
00000100
00000010
00001001
00000100
,
00011000
00000000
00100000
00000000
10010000
00000000
10000000
01000000
,
00100000
00100000
10010000
01000000
,
00011000
00000000
00000010
00000000
00001001
00000000
00000001
00000100
,
00000010
00001000
00001000
00000001
,
00000100
00001000
00001000
00010000
,
01000000
00000000
10000000
00010000
01000000
00000000
10000000
01000000
,
00100000
00001000
00000000
00010000
,
00000000
00001000
00000000
00000000
,
00000000
00000000
00000001
00001000
00000100
00000000
00000001
00001000
,
00000100
00000000
00000100
00010000
00001000
00000000
00000100
00010000
,
00001000
00000000
00100000
00010000
10000000
00000000
00100000
00010000
,
10000000
00000000
00100000
00000000
10100000
00000000
00100000
10000000
,
01000000
00000000
00010000
00000000
01010000
00000000
00001000
00010000
,
00000100
00000000
00000010
00000000
00000110
00000000
00000001
00001000
,
00000100
00000000
00001000
00000000
00011000
00000000
00010000
01000000
,
10000000
01100000
01100000
00000000
,
01100000
00000000
10000000
00000000
,
01000000
00000000
00010000
00001000
,
00000100
00000001
00000010
00000000
00000010
00000001
00000100
00000000
,
00001000
00010100
00001000
00010100
,
00010000
01001000
00010000
01001000
,
00001000
00000000
00010000
00000000
00100000
10000000
01000000
00000000
,
00010000
10000000
01000000
00000000
10000000
01000000
00010000
00001000
,
00010000
01000000
00100000
00000000
00001000
00000000
00000000
00000000
;

//---------------dance-double - ----------------
#NOTES:
     dance-double:
     :
     Hard:
     7:
     :
00000000
00000000
00000000
00000000
,
00000000
00000000
00000000
00000000
,
00000000
00000000
00000000
00000000
,
00000000
00000000
00000000
00000000
,
00000000
00000000
00000000
00000000
,
00100000
10000000
01000000
00010000
00001000
00000000
01010000
00000000
,
00100000
00010000
01000000
00001000
00010000
00000000
00001100
00000000
,
00000010
00000000
00000001
00001000
00000100
00000000
00011000
00000000
,
01000000
00000000
10000000
01000000
00000000
00000000
01010000
00000000
,
00100000
10000000
01000000
00010000
00001000
00000100
00001000
00010000
,
00001000
00000100
00000001
00000010
00000100
00010000
00001000
00000000
,
00100000
01000000
10000000
00010000
01000000
00100000
01000000
00010000
,
00100000
00001000
00010000
01000000
00010000
00001000
00000100
00000000
,
00000001
00000100
00001000
00010000
00001000
00000100
00001000
00000100
,
00000001
00000010
00001000
00010000
00100000
00010000
00001000
00000000
,
00000010
00000001
00000100
00001000
00010000
01000000
00100000
00010000
,
01000000
00001000
00010000
01000000
00010000
00001000
00000100
00000000
,
00000001
00000000
00001000
00000100
00000000
00000001
00000000
00000100
,
00000000
00010000
00000000
10000000
00000000
01000000
10000000
00000000
,
10000000
00000000
00010000
01000000
00000000
10000000
00000000
01000000
,
00000000
00001000
00000000
00000001
00000000
00000100
00000001
00000000
,
00000010
00000000
00000000
00001000
00000000
00000000
00000000
00000000
,
00100000
10000000
01000000
00010000
,
00001000
00000100
00000001
00000010
00000001
00000100
00001000
00010000
,
01000000
00000000
10000000
00000000
00010000
00000000
01000000
00000000
00010000
01000000
00000000
00010000
01000000
00000000
10000000
00000000
,
01000000
01000000
00000000
00000000
,
00000000
01000000
00000000
00000000
,
00000000
00000000
10010000
00000000
01000000
00010000
00001000
00000100
,
00001000
00010000
00010000
00001000
00000100
00000001
00000010
00000100
,
00001000
00000000
00000010
00000100
00001000
00010000
00001000
00000100
,
00001000
00010000
01000000
10000000
00100000
00010000
00001000
00100000
,
01000000
00000000
10010000
00000000
11000000
00000000
00100000
00010000
,
01000000
00001000
00010000
00001000
00000100
00000001
00000010
00000100
,
00001000
00000000
00110000
00000000
10010000
00000000
00100000
10000000
,
01000000
00010000
00001000
00000100
00001000
00010000
01000000
00000000
,
00011000
00000000
00000001
00000000
00000000
00000100
00000000
00000000
,
00001000
00000000
00000000
00010000
01000000
10000000
00000000
10000000
,
01000000
00010000
00000000
00001000
00000100
00000001
00000000
00000010
,
00000100
00001000
00000000
00000010
00010000
00001000
00000000
00100000
,
01000000
10000000
01010000
00000000
10000000
00000000
01000000
00000000
,
00010000
00001000
00000100
00000100
,
00000100
00000000
00000001
00000010
00000100
00001000
00000001
00000100
,
00001000
00010000
01000000
10000000
00010000
00100000
01000000
10000000
,
00010000
00000000
10100000
00000000
11000000
00000000
00010000
10000000
,
01000000
00000000
01000000
00010000
00001000
00000000
00001000
00000100
,
00000001
00000000
00000011
00000000
00000101
00000000
00001000
00000001
,
00000100
00000000
00000100
00001000
00010000
00000000
00010000
01000000
,
10000000
10010000
11000000
00000000
,
01000000
00010000
00001000
00000000
00000101
00000000
00000000
00000000
,
00000100
00001000
00010000
00000000
01000000
00000000
11000000
00000000
,
01000000
00100000
00001000
00010000
01000000
00000000
11000000
00000000
,
01000000
00100000
00001000
00010000
01000000
00000000
00000000
10000000
,
00000000
00000000
00010000
00000000
00100000
00010000
10000000
01000000
,
00010000
00001000
00000100
00000010
00001000
00000100
00010000
00001000
,
00000010
00000001
00000100
00001000
00010000
01000000
10000000
00100000
,
10000000
01000000
00010000
00001000
00000100
00000000
00000000
00010000
,
00000000
10000000
00000000
00000000
;

//---------------dance-double - ----------------
#NOTES:
     dance-double:
     :
     Challenge:
     9:
     :
00000000
00000000
00000000
00000000
,
00000000
00000000
00000000
00000000
,
00000000
00000000
00000000
00000000
,
00000000
00000000
00000000
00000000
,
00000000
00000000
00000000
00000000
,
10000000
00000000
01000000
00000000
00010000
00000000
00001000
00000000
00000100
00000000
00000000
00000000
00000000
00000001
00000000
00000000
,
00000100
00000000
00001000
00000000
00010000
00000000
01000000
00000000
10000000
00000000
00010000
00000000
00000000
00010000
00000000
00000000
,
00010000
00000000
10000000
00000000
00100000
00000000
00010000
00000000
00001000
00000000
00000000
00000000
00000000
00000110
00000000
00000000
,
00000220
00000000
00000000
00000330
,
00000001
00001000
00000020
00000001
00000000
00000100
00000000
00010000
,
00000000
00001030
00000100
00010000
00000000
00001000
00100000
00010000
,
10000000
00010000
02000000
10000000
00000000
00100000
00000000
00001000
,
00000000
03010000
00100000
00001000
00000000
00010000
01000000
00010000
,
00001000
00000010
00000200
00000001
00000000
00000010
00000000
00001000
,
00000000
00010300
00001000
01000000
00000000
00100000
01000000
00010000
,
10000000
00100000
02000000
10000000
00000000
00100000
00000000
00010000
,
00000000
03001000
00010000
00000100
00000000
00000010
00000100
00001000
,
00001001
00000100
00000010
00000200
00000000
00002300
00000000
00023000
,
00000000
00230000
00000000
20300000
00000000
01000000
01000000
31000000
,
10000000
00100000
01000000
00200000
00000000
00320000
00000000
00032000
,
00000000
00003200
00000000
00000302
00000000
00001000
00001000
00001003
,
00001001
00000000
00000000
00001100
00000000
00000000
00000101
00000000
,
00000000
00001000
00000100
00010000
00000000
00001000
01000000
00010000
,
00000000
00100000
00001000
00010000
00000000
00000010
00001000
00000100
,
00001000
00000010
00010000
00001000
00100000
00010000
01000000
00010000
,
00200000
10300000
00000000
00100000
,
00000000
00010000
00000000
10000000
,
00000000
00000000
10010000
00000000
01000000
10000000
00000000
01000000
,
00000000
00010000
00000000
00001000
00000100
00001000
00000000
00010000
,
01000000
00010000
00011000
00000000
00001000
00000100
00000000
00000001
,
00000000
00000010
00000000
00000100
00010000
00000100
00000000
00100000
,
00001000
00100000
00010000
10000000
01000000
00000000
10000000
00010000
,
01000000
00000000
00100000
10000000
00010000
01000000
00001000
00010000
,
00000100
00000000
00000010
00000001
00001000
00000000
00000100
00001000
,
00000001
00000000
00000100
00000001
00001000
00000010
00010000
00001000
,
01000000
00010000
00200000
00000000
00000000
02300000
00000000
00000000
,
23000000
00000000
00000000
30010000
00000000
10000000
00000000
01000000
,
00100000
01000000
00000000
00010000
00001000
00010000
00000000
00000010
,
00000100
00000010
00000000
00010000
00001000
00010000
00000000
01000000
,
00100000
00000000
01000000
00000000
11000000
00000000
00000000
11000000
00000000
00000000
10010000
00000000
00000000
00000000
00000000
00000000
,
00000000
01010000
00000000
00000000
01100000
00000000
00000000
01100000
00000000
00000000
00110000
00000000
00000000
00000000
00011000
00000000
,
00000000
00011000
00000000
00000000
00001000
00000000
00000100
00000000
00000010
00000100
00000010
00000100
00001000
00000000
00010000
00000000
,
01000000
00100000
01000000
00100000
01000000
00000000
00010000
00000000
00001000
00000100
00000010
00000100
00000010
00000000
00000100
00000000
,
00001000
00010000
00001000
00010000
00001000
00000000
00010000
00000000
00001000
00000000
00010000
00000000
01000000
00000000
10000000
00000000
,
01000000
00100000
00010000
01000000
00010000
01000000
00001000
00010000
,
00000100
00001000
00000001
00000100
00000001
00000100
00000010
00000001
,
00000010
00000100
00001000
00010000
01000000
10000000
00100000
10000000
,
01000000
00000000
00010000
00000000
00022000
00000000
00033000
00000000
00000110
00000000
00000000
00000000
00000000
00000000
00000001
00001000
,
00000000
00000001
00000000
00000100
00000010
00000100
00000000
00001000
00010000
00000000
00000000
00000000
00000000
00000000
00001000
00010000
,
00000000
00001000
00000000
00100000
01000000
00100000
00000000
00010000
10000000
00000000
00010000
00000000
01000000
00000000
10000000
00000000
,
01000000
00010000
00100000
00001000
01000000
00100000
01000000
00001000
,
00010000
00000100
00001000
00000010
00010000
00010000
00000100
00001000
,
00001000
00000001
00000010
00000010
00000100
00010000
00001000
01000000
,
00100000
10000000
00010000
01000000
00001000
00010000
00000100
00000010
,
00000001
00001000
00000100
00010000
00001000
01000000
00100000
10000000
,
01000000
00000000
00010000
00000000
00001000
00010000
00001000
00010000
00002000
00000000
00000000
00000000
00000000
00000000
00003200
00000000
,
00000000
00000302
00000000
00000000
,
00000000
00000003
00000000
00000000
;
