#TITLE:Dreaming;
#ARTIST:DJ Flip;
#BANNER:Dreaming.png;
#BACKGROUND:Dreaming-bg.png;
#CDTITLE:./CDTITLES/Song Pack 17.png;
#MUSIC:Dreaming.ogg;
#SAMPLESTART:18.184;
#SAMPLELENGTH:15;
#BPMS:0=132;

//---------------dance-single - ----------------
#NOTES:
     dance-single:
     :
     Beginner:
     1:
     :
0000
0000
0000
0000
,
0000
0000
0000
0000
,
0000
0000
0000
0000
,
0000
0000
0000
0000
,
0000
0000
0000
0000
,
0000
0000
0000
0000
,
0001
0000
0000
0000
,
1000
0000
0000
0000
,
0100
0000
0000
0000
,
0010
0000
0000
0000
,
0100
0000
1000
0000
,
0010
0000
0000
0000
,
0002
0000
0000
0003
,
0001
0000
0000
0000
,
0100
0000
0010
0000
,
1000
0000
0000
0000
,
0200
0000
0000
0300
,
0100
0000
0000
0000
,
1000
0000
0010
0000
,
0100
0000
0010
0000
,
1000
0000
0001
0000
,
0010
0000
0100
0000
,
1000
0000
0001
0000
,
1000
0000
0001
0000
,
0100
0000
0010
0000
,
1000
0000
0010
0000
,
0200
0000
0000
0300
,
0000
0000
0000
0000
,
0020
0000
0000
0030
,
0000
0000
0000
0000
,
1000
0000
0001
0000
,
0100
0000
0001
0000
,
0010
0000
0100
0000
,
1000
0000
0001
0000
,
1000
0000
0001
0000
,
0100
0000
0010
0000
,
1000
0000
0100
0000
,
0010
0000
0001
0000
,
2000
0000
0000
3000
,
0000
0000
0000
0000
,
0002
0000
0000
0003
,
0000
0000
0000
0000
,
0100
0000
0000
0000
,
0100
0000
0000
0000
,
0100
0000
0100
0000
,
0100
0100
0100
0100
,
0100
0000
0010
0000
,
1000
0000
0000
0000
,
0200
0000
0000
0300
,
0100
0000
0000
0000
,
0001
0000
0100
0000
,
0010
0000
0000
0000
,
0002
0000
0000
0003
,
0001
0000
0000
0000
,
1001
0000
0000
0000
;

//---------------dance-single - ----------------
#NOTES:
     dance-single:
     :
     Easy:
     3:
     :
0000
0000
0000
0000
,
0000
0000
0000
0000
,
0000
0000
0000
0000
,
0000
0000
0000
0000
,
0000
0000
0000
0000
,
0000
0000
0000
0000
,
0001
0000
1000
0100
,
0010
0000
0100
0001
,
1000
0000
0010
0100
,
0001
0000
1000
0001
,
1000
1000
0001
0001
,
0010
0000
0000
0000
,
0100
0100
0010
0010
,
0100
0000
0000
0000
,
0001
0001
0010
0010
,
0100
0000
0000
0000
,
0010
0010
1000
1000
,
0001
0001
0100
0100
,
0010
0000
1000
0100
,
0010
0001
0010
0100
,
1000
0001
1000
0001
,
0100
0000
0000
0000
,
0010
0000
1000
0100
,
0010
0100
0001
0010
,
0100
1000
0001
0010
,
0100
0000
0100
0000
,
0020
0000
0000
0030
,
2000
0000
0000
3000
,
0002
0000
0000
0003
,
0020
0000
0030
0000
,
0100
0100
0100
0100
,
0010
0010
0010
0010
,
0100
0010
0100
0010
,
0001
1000
0001
0000
,
0001
0001
0001
0001
,
1000
1000
1000
1000
,
0001
1000
0001
1000
,
0010
0100
0010
0000
,
1000
0100
1000
0010
,
0001
0010
0001
0000
,
1000
0100
0010
0001
,
0010
0100
0010
0001
,
1000
1000
1000
1000
,
0001
0001
0001
0001
,
1000
0000
0010
0000
,
0100
0010
1000
0100
,
0010
0010
1000
1000
,
0010
0000
0000
0000
,
0100
0000
0001
0000
,
0010
0100
1000
0010
,
0001
0001
1000
1000
,
0010
0000
0000
0000
,
0100
0010
0100
0010
,
1000
0010
1000
0010
,
0200
0000
0000
0000
,
0000
0300
0000
0000
;

//---------------dance-single - ----------------
#NOTES:
     dance-single:
     :
     Medium:
     5:
     :
0000
0000
0000
0000
,
0000
0000
0000
0000
,
0000
0000
0000
0000
,
0000
0000
0000
0000
,
0000
0000
0000
0000
,
0000
0000
0000
0000
,
1001
0000
0000
0000
0010
0000
1000
0001
,
0200
0000
0000
0000
0310
0000
1000
0100
,
0020
0000
0000
0000
0031
0000
0010
0100
,
1000
0000
0001
0000
1000
0001
1000
0001
,
1000
1000
0001
0001
,
0020
0100
0001
0130
,
2000
0010
0001
3010
,
0200
1000
0010
1300
,
0001
0000
0010
0100
0000
0010
0000
0100
,
2000
0001
0010
3001
,
0200
0010
0001
0310
,
0002
1000
0100
1003
,
1001
0000
0000
0001
0000
0100
0000
0001
,
0000
0001
0000
1000
0000
1000
0010
0100
,
0001
0001
1000
1000
,
0100
0010
0001
0000
0010
0100
1000
0000
,
0010
0000
0000
0100
0000
0001
0000
0010
,
0000
0010
0000
0100
0000
0100
0000
1000
,
0002
0000
0000
0100
0000
0100
0000
1000
,
0000
1000
0000
0010
0000
0010
0003
0010
,
2001
0001
0001
3001
,
1002
1000
1000
1003
,
0010
0100
0010
0000
0100
0010
0100
0000
,
0001
1000
0001
0000
1000
0001
1000
0001
,
0100
0000
0100
0000
0010
0000
1000
0001
,
0100
0000
0100
0000
0010
0000
1000
0100
,
0010
0000
0010
0000
0001
0000
1000
0100
,
0010
0000
0010
0000
0001
0000
1000
0100
,
0001
0000
0001
0000
0100
0000
1000
0010
,
0001
0000
0001
0000
0010
0000
1000
0001
,
1000
0000
1000
0000
0001
0000
0010
0100
,
0010
0000
0010
0000
0100
0000
1000
0001
,
1000
0220
0330
0110
,
1000
0202
0303
0011
,
0100
2200
3300
0101
,
0010
2020
3030
0001
,
0120
0100
0100
0130
,
0012
0100
0100
0103
,
2010
3100
0012
0103
,
0110
1001
0110
1001
,
0100
0000
1000
0020
0000
0100
0000
0130
,
0001
0000
0011
0000
1000
0000
1100
0002
,
0000
0000
0100
0000
0103
0000
0010
2000
,
0000
0000
0100
0000
0100
0000
3100
0010
,
0001
0000
0001
1000
0000
1000
0010
0000
,
0100
0000
0101
0000
1000
0000
1010
0001
,
0200
0001
0010
0001
,
0320
0100
1000
0130
,
2001
0000
0000
0100
0000
0100
0000
0200
,
0000
0000
3300
0000
;

//---------------dance-single - ----------------
#NOTES:
     dance-single:
     :
     Hard:
     7:
     :
0000
0000
0000
0000
,
0000
0000
0000
0000
,
1000
0000
0000
1000
0000
0000
0001
0000
0010
0000
0100
0000
1000
0000
0100
0000
,
0010
0000
0000
0010
0000
0000
0001
0000
1000
0000
0001
0000
0100
0000
0010
0000
,
1000
0000
0000
1000
0000
0000
0010
0000
1000
0000
0001
0000
0100
0000
0010
0000
,
0100
0000
0000
0100
0000
0000
0001
0000
1000
0000
0100
0000
0010
0000
0001
0000
,
1000
0100
1000
0100
1000
0100
1000
0100
,
0010
0001
0010
0001
0010
0001
0010
0001
,
0100
0001
0010
0100
1000
0010
0100
0001
,
1000
0001
0100
0010
1000
0100
0010
0001
,
2000
0000
3001
0000
0100
0010
1000
0000
,
0002
0000
2003
0000
0010
0010
3010
0000
,
2000
0000
3002
0000
0100
0100
0103
0000
,
1000
0010
1000
0001
0010
0100
1000
0000
,
0002
0000
0023
0000
0130
1000
0001
0000
,
1000
0102
1003
0012
,
1003
0010
1000
0000
0001
0100
0001
0000
,
0001
0100
1000
0100
0001
1000
0100
0010
,
0002
0000
0013
0000
1000
0010
0100
0000
,
0001
0010
0100
0000
1000
0010
0200
0000
,
0001
0302
0010
0023
,
0100
0230
1000
1300
,
0001
1000
0100
0000
1000
0001
0010
0000
,
0100
1000
0010
0000
0100
0001
0010
0000
,
1000
0100
0010
0000
0010
0100
1000
0000
,
0001
1000
0010
0000
0100
0000
1001
0000
,
1000
0100
0010
0100
1000
0010
1000
0100
,
0010
0001
1000
0001
0010
0001
1000
0001
,
0010
0100
1000
0010
0100
0001
0100
0010
,
1000
0001
1000
0100
0010
0001
1000
0001
,
1000
0000
0000
1000
0000
0000
0001
0000
0010
0000
0100
0000
1000
0000
0100
0000
,
0010
0000
0000
0010
0000
0000
0001
0000
1000
0000
0001
0000
0100
0000
0010
0000
,
1000
0000
0000
1000
0000
0000
0010
0000
1000
0000
0001
0000
0100
0000
0010
0000
,
0100
0000
0000
0100
0000
0000
0001
0000
1000
0000
0100
0000
0010
0000
0001
0000
,
0001
0000
1000
0001
0000
0000
1000
0000
0100
0000
0010
0000
0001
0000
0010
0000
,
0100
0000
0010
0100
0000
0000
1000
0000
0001
0000
1000
0000
0010
0000
0100
0000
,
0001
0000
1000
0001
0000
0000
0100
0000
0001
0000
1000
0000
0010
0000
0100
0000
,
0010
0000
0100
0010
0000
0000
1000
0000
0001
0000
0010
0000
0100
0000
1000
0000
,
0002
0013
0002
0103
,
2000
3010
2000
3100
,
0020
0130
0200
0310
,
2000
3001
0002
1003
,
0002
0003
0200
0300
0002
0003
0200
0300
,
2000
3000
0200
0300
2000
3000
0200
0300
,
0020
0031
0200
0310
2000
3100
2000
3010
,
0200
0301
2000
3100
0020
0031
0200
0310
,
0002
0000
1003
0000
0010
0100
0001
0000
,
2000
0000
3002
0000
0100
0100
0103
0000
,
0002
0000
2003
0000
0010
0010
3010
0000
,
0001
0100
0001
1000
0100
0010
0001
0001
,
2000
0000
0000
0000
0000
3100
0000
0000
0000
0110
0000
0000
0000
0012
0000
0000
,
1000
0000
0010
0000
0103
0000
0001
0100
,
0010
0100
0001
0000
1000
0100
1000
0000
,
1000
0001
0100
0010
1000
0001
0010
0100
,
2002
0000
3000
0203
0000
0320
0000
0200
,
0000
0000
0330
0000
;

//---------------dance-double - ----------------
#NOTES:
     dance-double:
     :
     Beginner:
     1:
     :
00000000
00000000
00000000
00000000
,
00000000
00000000
00000000
00000000
,
00000000
00000000
00000000
00000000
,
00000000
00000000
00000000
00000000
,
00000000
00000000
00000000
00000000
,
00000000
00000000
00000000
00000000
,
00000100
00000000
00000000
00000000
,
00010000
00000000
00000000
00000000
,
00001000
00000000
00000000
00000000
,
00010000
00000000
00000000
00000000
,
00000100
00000000
00000010
00000000
,
00000001
00000000
00000000
00000000
,
00002000
00000000
00000000
00003000
,
00001000
00000000
00000000
00000000
,
00000100
00000000
00010000
00000000
,
00001000
00000000
00000000
00000000
,
00200000
00000000
00000000
00300000
,
00100000
00000000
00000000
00000000
,
00010000
00000000
10000000
00000000
,
00100000
00000000
01000000
00000000
,
00010000
00000000
00100000
00000000
,
10000000
00000000
00010000
00000000
,
00100000
00000000
00001000
00000000
,
00010000
00000000
00000100
00000000
,
00000010
00000000
00001000
00000000
,
00000001
00000000
00000100
00000000
,
00000020
00000000
00000000
00000030
,
00000000
00000000
00000000
00000000
,
00000002
00000000
00000000
00000003
,
00000000
00000000
00000000
00000000
,
00001000
00000000
00000010
00000000
,
00010000
00000000
00001000
00000000
,
01000000
00000000
00010000
00000000
,
00100000
00000000
01000000
00000000
,
10000000
00000000
00100000
00000000
,
01000000
00000000
00001000
00000000
,
00010000
00000000
00000100
00000000
,
00001000
00000000
00000001
00000000
,
00002000
00000000
00000000
00003000
,
00000000
00000000
00000000
00000000
,
00000020
00000000
00000000
00000030
,
00000000
00000000
00000000
00000000
,
00001000
00000000
00000000
00000000
,
00000001
00000000
00000000
00000000
,
00001000
00000000
00000010
00000000
,
00010000
00010000
00010000
00010000
,
00010000
00000000
00001000
00000000
,
00100000
00000000
00000000
00000000
,
00020000
00000000
00000000
00030000
,
00010000
00000000
00000000
00000000
,
10000000
00000000
00100000
00000000
,
01000000
00000000
00000000
00000000
,
00200000
00000000
00000000
00300000
,
00100000
00000000
00000000
00000000
,
01100000
00000000
00000000
00000000
;

//---------------dance-double - ----------------
#NOTES:
     dance-double:
     :
     Easy:
     3:
     :
00000000
00000000
00000000
00000000
,
00000000
00000000
00000000
00000000
,
00000000
00000000
00000000
00000000
,
00000000
00000000
00000000
00000000
,
00000000
00000000
00000000
00000000
,
00000000
00000000
00000000
00000000
,
00000001
00000000
00001000
00000100
,
00000010
00000000
00010000
00001000
,
01000000
00000000
00100000
10000000
,
00010000
00000000
00100000
00010000
,
01000000
01000000
00001000
00001000
,
00010000
00000000
00000000
00000000
,
00000100
00000100
00010000
00010000
,
00001000
00000000
00000000
00000000
,
00000100
00000100
00000010
00000010
,
00001000
00000000
00000000
00000000
,
00000001
00000001
00000010
00000010
,
00000100
00000100
00001000
00001000
,
00000010
00000000
00010000
00001000
,
01000000
00100000
00010000
10000000
,
01000000
00100000
01000000
00100000
,
00010000
00000000
00000000
00000000
,
10000000
00000000
00010000
01000000
,
00100000
00010000
00100000
00001000
,
00010000
00000100
00001000
00000010
,
00000100
00000000
00000100
00000000
,
00000002
00000000
00000000
00000003
,
00002000
00000000
00000000
00003000
,
00000200
00000000
00000000
00000300
,
00020000
00000000
00030000
00000000
,
00001000
00001000
00001000
00001000
,
00010000
00010000
00010000
00010000
,
00001000
00010000
00001000
00010000
,
01000000
00100000
01000000
00000000
,
10000000
10000000
10000000
10000000
,
00010000
00010000
00010000
00010000
,
10000000
00010000
10000000
00010000
,
01000000
00100000
01000000
00000000
,
00010000
00100000
00001000
00010000
,
00000100
00000010
00001000
00000000
,
00000001
00000100
00001000
00000100
,
00000001
00000100
00010000
01000000
,
00100000
00100000
00100000
00100000
,
01000000
01000000
01000000
01000000
,
00010000
00000000
01000000
00000000
,
00010000
10000000
00100000
01000000
,
00001000
00001000
00010000
00010000
,
00000100
00000000
00000000
00000000
,
00001000
00000000
00000010
00000000
,
00000100
00000001
00001000
00000010
,
00000100
00000100
00010000
00010000
,
01000000
00000000
00000000
00000000
,
00100000
01000000
00100000
01000000
,
00001000
00010000
00001000
00010000
,
00002000
00000000
00000000
00000000
,
00000000
00003000
00000000
00000000
;

//---------------dance-double - ----------------
#NOTES:
     dance-double:
     :
     Medium:
     5:
     :
00000000
00000000
00000000
00000000
,
00000000
00000000
00000000
00000000
,
00000000
00000000
00000000
00000000
,
00000000
00000000
00000000
00000000
,
00000000
00000000
00000000
00000000
,
00000000
00000000
00000000
00000000
,
10010000
00000000
00000000
00000000
10000000
00000000
01000000
00010000
,
00002000
00000000
00000000
00000000
00013000
00000000
00001000
00000100
,
00000002
00000000
00000000
00000000
00001003
00000000
00000010
00000100
,
00000001
00000000
00001000
00000000
00000001
00000100
00000001
00000100
,
00000010
00001000
00000100
00000100
,
00020000
00001000
00000100
00031000
,
02000000
00100000
00010000
03100000
,
20000000
00010000
01000000
30010000
,
00100000
00000000
01000000
10000000
00000000
01000000
00000000
00010000
,
00002000
00010000
00100000
00013000
,
00000200
00001000
00010000
00001300
,
00000002
00000010
00001000
00000013
,
00001001
00000000
00000000
00000100
00000000
00000010
00000000
00000100
,
00000000
00000100
00000000
00001000
00000000
00010000
00001000
00010000
,
00001000
00001000
01000000
01000000
,
00010000
00100000
01000000
00000000
10000000
00100000
01000000
00000000
,
00010000
00000000
00000000
00100000
00000000
00001000
00000000
00010000
,
00000000
00010000
00000000
00000100
00000000
00000100
00000000
00001000
,
00000200
00000000
00000000
00000001
00000000
00000001
00000000
00000010
,
00000000
00000010
00000000
00001000
00000000
00001300
00000000
00001000
,
00002001
00000001
00000001
00003001
,
00021000
00001000
00001000
00031000
,
00100000
01000000
00100000
00000000
01000000
00100000
01000000
00000000
,
10000000
00010000
10000000
00000000
00010000
10000000
00010000
10000000
,
01000000
00000000
01000000
00000000
00100000
00000000
00001000
00010000
,
00001000
00000000
00001000
00000000
00000100
00000000
00000010
00000100
,
00000001
00000000
00000001
00000000
00001000
00000000
00000100
00000010
,
00001000
00000000
00001000
00000000
00010000
00000000
00100000
01000000
,
00010000
00000000
00010000
00000000
10000000
00000000
01000000
00100000
,
00010000
00000000
00010000
00000000
01000000
00000000
00100000
10000000
,
00010000
00000000
00010000
00000000
00100000
00000000
00001000
00010000
,
00001000
00000000
00010000
00000000
00001000
00000000
00010000
00000100
,
00000010
00000220
00000330
00001010
,
00000001
00002200
00003300
00010100
,
00001000
00022000
00033000
01001000
,
00100000
00220000
00330000
01000000
,
21000000
00100000
00100000
30100000
,
01020000
00100000
00100000
00130000
,
00102000
00013000
00021000
00030100
,
00001100
00001001
00000101
00001001
,
01000100
00000000
00001000
00000020
00000000
00000100
00000000
00000130
,
00000001
00000000
00000101
00000000
00001000
00000000
00001100
00020000
,
00000000
00000000
00001000
00000000
00031000
00000000
01000000
00200000
,
00000000
00000000
01000000
00000000
01300000
00000000
01000000
00100000
,
10000000
00000000
10000000
01000000
00000000
01000000
00010000
00000000
,
00001000
00000000
00011000
00000000
00000100
00000000
00001100
00000010
,
00000002
00000100
00001000
00000103
,
00002000
00000100
00000001
00003100
,
00012000
00000000
00000000
00100000
00000000
00100000
00000000
00200000
,
00000000
00000000
00303000
00000000
;

//---------------dance-double - ----------------
#NOTES:
     dance-double:
     :
     Hard:
     7:
     :
00000000
00000000
00000000
00000000
,
00000000
00000000
00000000
00000000
,
10000000
00000000
00000000
00010000
00000000
00000000
10000000
00000000
00100000
00000000
01000000
00000000
00010000
00000000
00000000
00000000
,
00100000
00000000
00000000
00001000
00000000
00000000
00010000
00000000
00000010
00000000
00001000
00000000
00000100
00000000
00000000
00000000
,
00000010
00000000
00000000
00000001
00000000
00000000
00001000
00000000
00000001
00000000
00000100
00000000
00001000
00000000
00000000
00000000
,
00010000
00000000
00000000
00001000
00000000
00000000
01000000
00000000
00010000
00000000
10000000
00000000
00100000
00000000
00000000
00000000
,
01000000
00010000
01000000
00100000
01000000
00010000
01000000
00000000
,
00001000
00010000
00001000
00100000
00001000
00010000
00001000
00000000
,
00000100
00000001
00000100
00000010
00000100
00001000
00010000
01000000
,
10000000
00100000
10000000
00010000
10000000
01000000
00010000
00001000
,
00020000
00000000
00031000
00000000
00010000
00000100
00001000
00000000
,
00000001
00000000
00000100
00000000
00001000
00010000
00001000
00000000
,
00100000
00000000
01000000
00000000
10000000
00010000
10000000
00000000
,
00010000
10000000
01000000
00010000
00001000
00000100
00000010
00000000
,
00002000
00000000
00003002
00000000
00001003
00000100
00020000
00000000
,
00031000
00100000
00020000
00000000
10030000
01000000
00200000
00000000
,
00310000
20000000
01000000
00000000
31000000
00020000
00001000
00000000
,
00031000
00010000
00000100
00001000
00000100
00000010
00000001
00000100
,
00000020
00000000
00001030
00000000
00000100
00020000
00001000
00030000
,
00001000
02000000
00010000
03000000
10000000
00200000
01000000
00000000
,
02300000
00010000
03020000
00001000
,
00032000
00010000
00023000
00000010
,
00030010
00001000
00000100
00000000
00000010
00000001
00000100
00000000
,
00001000
00010000
00100000
00000000
00100000
00010000
00001000
00000000
,
00010000
01000000
00100000
00000000
00010000
10000000
01000000
00000000
,
00010000
00001000
00000100
00000000
00000010
00000000
00001001
00000000
,
00000010
00000001
00000010
00000100
00000010
00001000
00010000
00100000
,
10000000
01000000
10000000
00010000
10000000
00100000
00010000
00001000
,
00010000
00000100
00001000
00000100
00000010
00000001
00000010
00000100
,
00001000
00000001
00001000
00000001
00000100
00001000
00010000
00001000
,
00100000
00000000
00000000
00100000
00000000
00000000
00010000
00000000
10000000
00000000
00100000
00000000
01000000
00000000
00100000
00000000
,
10000000
00000000
00000000
10000000
00000000
00000000
01000000
00000000
00010000
00000000
00001000
00000000
00100000
00000000
00001000
00000000
,
00010000
00000000
00000000
00010000
00000000
00000000
00000100
00000000
00000010
00000000
00000001
00000000
00001000
00000000
00000001
00000000
,
00000100
00000000
00000000
00000100
00000000
00000000
00000010
00000000
00001000
00000000
00000100
00000000
00010000
00000000
00001000
00000000
,
00100000
00000000
00010000
00100000
00000000
00000000
00010000
00000000
01000000
00000000
00100000
00000000
10000000
00000000
01000000
00000000
,
00010000
00000000
00001000
00010000
00000000
00000000
00001000
00000000
00010000
00000000
00000100
00000000
00001000
00000000
00000010
00000000
,
00000100
00000000
00000010
00000100
00000000
00000000
00000001
00000000
00001000
00000000
00000001
00000000
00000100
00000000
00001000
00000000
,
00010000
00000000
00001000
00010000
00000000
00000000
00001000
00000000
00100000
00000000
00010000
00000000
01000000
00000000
00100000
00000000
,
10000000
10100000
00010000
01010000
,
00001000
00011000
00010000
00011000
,
00000010
00010010
00000010
00001010
,
00000001
00001001
00000001
00000101
,
00002000
00003000
00000200
00000300
00020000
00030000
00002000
00003000
,
00200000
00300000
00020000
00030000
20000000
30000000
02000000
03000000
,
00020000
00031000
00000020
00001030
00020000
00130000
00020000
00031000
,
00000200
00000301
00002000
00003100
00020000
00031000
02000000
03010000
,
00002000
00000000
00013000
00000000
00001000
01000000
00010000
00000000
,
10000000
00000000
01000000
00000000
00010000
00001000
00010000
00000000
,
00000010
00000000
00000100
00000000
00000001
00001000
00000001
00000000
,
00000000
00000001
00000100
00001000
00010000
01000000
00100000
00000000
,
20000000
00000000
00000000
00000000
00000000
31000000
00000000
00000000
00000000
01100000
00000000
00000000
00000000
00110000
00000000
00000000
,
10000000
00000000
01000000
00000000
00010000
00000000
00001000
00000100
,
00000010
00000100
00000001
00000000
00001000
00000001
00000100
00000000
,
00001000
00010000
00100000
10000000
01000000
00010000
00001000
00010000
,
00002000
00000000
00000000
00023000
00000000
00030020
00000000
00000200
,
00000000
00000000
00000330
00000000
;
