#TITLE:Don't Cha (Ralphi's Hot Freak mix);
#ARTIST:Pussycat Dolls;
#BANNER:Don't Cha (Ralphi's Hot Freak mix).png;
#BACKGROUND:Don't Cha (Ralphi's Hot Freak mix)-bg.png;
#CDTITLE:./CDTITLES/Dance Dance Revolution ULTRAMIX4.png;
#MUSIC:Don't Cha (Ralphi's Hot Freak mix).ogg;
#SAMPLESTART:33.199;
#SAMPLELENGTH:15;
#DISPLAYBPM:132;
#BPMS:0=116.129,8=131.868,12=132.029,36=131.989,52=132.062,72=131.929,104=132.024,128=131.9,132=133.301,136=131.627,144=131.868,152=131.949,176=132.353,180=131.868,200=132.08,228=119.601;

//---------------dance-single - ----------------
#NOTES:
     dance-single:
     :
     Beginner:
     1:
     :
0000
0000
0000
0000
,
0000
0000
0000
0000
,
0001
0000
0000
0000
,
0001
0000
0000
0000
,
0001
0000
0000
0000
,
1000
0000
0000
0000
,
1000
0000
0000
0000
,
1000
0000
0000
0000
,
0001
0000
0000
0000
,
0010
0010
0010
0000
,
0100
0000
0100
0000
,
0100
0100
0000
0000
,
0010
0000
0010
0000
,
0010
0000
0000
0000
,
0001
0000
0001
0000
,
1000
0000
1000
0000
,
0000
0000
0000
0000
,
1001
0000
0000
0000
,
0010
0000
0010
0000
,
0010
0010
0010
0000
,
0100
0000
0100
0000
,
0100
0100
0100
0000
,
0002
0000
0000
0003
,
0001
0000
0000
0000
,
2000
0000
0000
3000
,
1000
0000
0000
0000
,
0001
0001
0001
0000
,
0001
0000
0001
0000
,
1000
1000
1000
0000
,
1000
0000
1000
0000
,
0200
0000
0000
0300
,
0100
0000
0000
0000
,
0020
0000
0000
0030
,
0010
0000
0000
0000
,
1000
0000
0001
0000
,
1000
0000
0000
0000
,
0001
0000
1000
0000
,
0001
0000
0000
0000
,
0010
0010
0000
0000
,
0100
0100
0000
0000
,
1000
1000
0000
0000
,
0001
0001
0000
0000
,
0010
0000
0100
0000
,
0010
0000
0000
0000
,
0010
0000
0100
0000
,
0010
0000
0000
0000
,
0000
0001
0000
0001
,
0000
1000
0000
0001
,
0000
0001
0000
1000
,
0000
0000
0000
0000
,
0010
0000
0010
0000
,
0010
0010
0010
0000
,
0100
0000
0100
0000
,
0100
0100
0100
0000
,
0002
0000
0000
0003
,
0001
0000
0000
0000
,
2000
0000
0000
3000
,
1000
0000
0000
0000
,
1001
0000
0000
0000
;

//---------------dance-single - ----------------
#NOTES:
     dance-single:
     :
     Easy:
     3:
     :
0000
0000
0000
0000
,
0000
0000
0000
0000
,
0010
0010
1000
0001
,
2000
3000
0000
0000
,
0100
0100
0001
1000
,
0002
0003
0000
0000
,
1000
1000
0010
0100
,
0020
0030
0000
0000
,
0001
0001
0100
0010
,
0100
0010
1001
0000
,
0010
0100
0010
0100
,
0010
0000
1000
0001
,
1000
0000
0010
0100
,
0010
0000
0001
1000
,
0002
0003
2000
3000
,
0020
0030
0200
0300
,
0001
0001
1000
1000
,
0020
0000
0030
0100
,
0002
0003
2000
3000
,
0010
0100
0020
0030
,
0200
0300
0020
0030
,
0001
1000
0001
0000
,
2000
0000
3001
0000
,
0200
0000
0310
0000
,
0002
0000
1003
0000
,
0200
0000
0310
0000
,
1000
0001
1000
0001
,
0010
0100
0010
0000
,
0001
1000
0001
1000
,
0010
0100
0010
0000
,
1001
0000
0100
0000
,
0001
0000
1000
0000
,
1001
0000
1001
0000
,
0110
0000
0110
0000
,
0002
0003
2000
3000
,
0002
0003
2000
3000
,
0020
0030
0200
0300
,
0110
0000
0000
0000
,
1000
1000
0100
0000
,
0001
0001
0100
0000
,
1000
1000
0010
0000
,
0001
0001
0010
0000
,
2000
3000
0002
0003
,
2000
3000
0002
0003
,
0200
0300
0020
0030
,
0110
0000
0000
0000
,
0001
0001
0010
0000
,
1000
1000
0010
0000
,
0001
0001
0100
0000
,
1000
1000
0100
0000
,
0001
1000
0001
1000
,
0010
0100
0010
0000
,
0001
1000
0001
1000
,
0010
0100
0010
0000
,
1001
0000
0100
0000
,
0001
0000
0100
0000
,
1001
0000
1000
0000
,
0100
0000
1000
0000
,
1001
0000
0000
0000
;

//---------------dance-single - ----------------
#NOTES:
     dance-single:
     :
     Medium:
     4:
     :
0000
0000
0000
0000
,
0000
0000
0000
0000
,
1000
0001
1000
0000
,
0001
0010
0001
0000
,
1001
0010
1000
0000
,
1001
0100
0001
0000
,
0110
1000
0001
0000
,
0110
0001
1000
0000
,
1001
0010
0100
0000
,
0001
1000
0001
0000
1001
0000
0000
0000
,
0001
0100
0001
0100
,
0001
0000
1000
0100
,
1000
0000
0001
0010
,
0001
0000
0001
0100
,
0001
1000
0010
0100
,
0001
1000
0100
1000
,
1100
0000
0101
0000
,
1001
1001
1001
0010
,
1000
0100
1000
0000
1000
0100
1000
0000
,
0001
0010
1000
0000
,
0001
0010
0001
0000
0001
0010
0001
0000
,
1000
0000
0100
0001
0000
0000
0000
0000
,
0010
1000
0100
0000
0010
0000
0010
0000
,
0001
0100
0010
1000
,
0010
0001
0100
0000
0010
0000
0010
0000
,
1000
0100
0010
0000
,
0001
0100
0001
0000
0001
0100
0001
0000
,
1000
0010
0001
0000
,
1000
0010
1000
0000
1000
0010
1000
0000
,
0001
0000
0100
1000
0000
0000
0000
0000
,
0010
0001
0100
0000
0010
0000
0010
0000
,
1000
0100
0010
0010
,
0001
0100
0001
0000
0001
0100
0001
0000
,
1000
0100
1000
0000
1000
0100
1000
0000
,
1000
0000
0100
0000
0010
0100
0010
0000
,
0001
0000
0100
0000
0010
0100
0010
0000
,
1000
0100
1000
0001
,
2002
0000
0000
3003
,
0001
1000
0100
1000
,
0010
0000
0100
0000
0001
0000
0100
0010
,
1000
0010
0100
0001
,
1001
0001
1000
0000
,
0001
0000
0100
0000
0010
0100
0010
0000
,
1000
0000
0100
0000
0010
0100
0010
0000
,
0001
0100
0001
1000
,
2002
0000
0000
3003
,
1000
0001
0100
0001
,
0010
0000
0100
0000
1000
0000
0100
0010
,
0001
0010
0100
1000
,
0002
2000
0000
3003
,
1000
0010
1000
0000
1000
0010
1000
0000
,
0001
0100
1000
0000
,
0001
0100
0001
0000
0001
0100
0001
0000
,
1000
0000
0010
0001
0000
0000
0000
0000
,
0100
1000
0010
0000
0100
0000
0100
0000
,
0001
0010
0100
1000
,
0100
0001
0010
0000
0100
0000
0100
0000
,
2002
0000
0000
3003
,
0110
0000
0000
0000
;

//---------------dance-single - ----------------
#NOTES:
     dance-single:
     :
     Hard:
     7:
     :
0000
0000
0000
0000
,
0000
0000
0000
0000
,
1000
0000
0100
0000
0001
0000
1000
0100
,
0010
1000
0001
0100
,
0001
0000
0100
0000
1000
0000
0001
0100
,
0010
1000
0010
0100
,
2001
0000
3100
0000
1000
0000
0010
0100
,
1002
0013
1000
0001
,
2010
0000
3100
0000
0010
0000
0100
0001
,
1000
1000
1000
1000
0100
0000
0000
0000
,
0001
0100
0010
0000
0001
0100
0001
0000
,
1000
0000
1000
0000
0100
1000
0010
0000
,
0100
0000
0001
0000
1000
0010
0100
0010
,
0000
0000
0001
0000
1000
0100
0010
0002
,
0000
1003
0100
2000
0000
3010
0100
0002
,
0000
0103
0010
1000
0200
0000
0310
0100
,
1000
0100
0010
0000
1000
0100
0010
0000
,
0001
0100
0010
0010
0100
0000
1001
0000
,
1000
0100
1000
0010
0100
0001
1000
0000
,
0101
1100
0102
1003
,
0010
0100
0001
0100
0010
1000
0100
1000
,
0001
0000
1000
0001
0000
0000
1001
0000
,
0001
0100
1000
0000
0001
0100
1000
0000
,
1020
0130
0210
0301
,
0001
1000
0100
0000
0001
1000
0100
0000
,
1000
0100
1000
0001
0010
0000
0110
0000
,
0001
0100
0001
0010
0100
1000
0001
0000
,
1100
0101
2100
3001
,
0010
0100
1000
0100
0010
0001
0100
0001
,
1000
0000
0001
1000
0000
0000
1001
0000
,
1000
0100
0001
0000
1000
0100
0001
0000
,
0021
0130
0210
1300
,
1000
0001
0100
0000
1000
0001
0100
0000
,
0001
0100
0001
1000
0010
0000
0110
0000
,
0001
0000
1100
0000
0010
0001
1000
0000
,
0001
0000
1000
0100
1000
0000
0001
0000
,
0100
0000
0010
0100
0001
0000
0001
1000
,
0100
0000
0100
0000
0100
0000
0100
1000
,
0010
0000
1000
0000
0101
0000
0001
1000
,
0100
0000
0100
1000
0010
0000
0010
0100
,
0001
0000
0001
1000
0100
0000
0100
1000
,
0010
0001
0010
0010
,
0001
1000
0100
1000
0001
0000
0001
0100
,
1000
0000
1000
0100
0001
0000
0100
1000
,
0100
0000
0001
0000
0100
0000
1000
0010
,
0100
0000
0100
0000
0100
0000
0100
0001
,
0010
0000
0010
0000
0010
0000
0010
1000
,
0001
0000
0001
0000
0001
0000
0100
0001
,
1000
0000
0100
1000
0010
0000
0100
0001
,
0000
2002
0000
3003
,
1000
0010
1000
0100
0010
0001
1000
0000
,
0011
1010
0012
1003
,
0100
0010
0001
0010
0100
1000
0010
1000
,
0001
0000
1000
0001
0000
0000
1001
0000
,
0001
0010
1000
0000
0001
0010
1000
0000
,
1200
0310
0120
0031
,
1001
0100
0001
0000
1001
0100
1000
0000
,
0010
0100
0001
0100
0010
0001
0100
1001
;

//---------------dance-double - ----------------
#NOTES:
     dance-double:
     :
     Beginner:
     1:
     :
00000000
00000000
00000000
00000000
,
00000000
00000000
00000000
00000000
,
00001000
00000000
00000000
00000000
,
00001000
00000000
00000000
00000000
,
00001000
00000000
00000000
00000000
,
00000001
00000000
00000000
00000000
,
00000001
00000000
00000000
00000000
,
00000001
00000000
00000000
00000000
,
00000100
00000000
00000000
00000000
,
00001000
00000000
00001000
00000000
,
00010000
00000000
00010000
00000000
,
00010000
00000000
00000000
00000000
,
00001000
00000000
00001000
00000000
,
00001000
00000000
00000000
00000000
,
00100000
00000000
00100000
00000000
,
00010000
00000000
00010000
00000000
,
01000000
00000000
00000000
00000000
,
10010000
00000000
00000000
00000000
,
00010000
00000000
00010000
00000000
,
00010000
00010000
00010000
00000000
,
10000000
00000000
10000000
00000000
,
10000000
10000000
10000000
00000000
,
00020000
00000000
00000000
00030000
,
00010000
00000000
00000000
00000000
,
00002000
00000000
00000000
00003000
,
00001000
00000000
00000000
00000000
,
00001000
00001000
00001000
00000000
,
00001000
00000000
00001000
00000000
,
00000001
00000001
00000001
00000000
,
00000001
00000000
00000001
00000000
,
00000200
00000000
00000000
00000300
,
00000100
00000000
00000000
00000000
,
00002000
00000000
00000000
00003000
,
00001000
00000000
00000000
00000000
,
00010000
00000000
00001000
00000000
,
00010000
00000000
00000000
00000000
,
00010000
00000000
00001000
00000000
,
00010000
00000000
00000000
00000000
,
00100000
00100000
00000000
00000000
,
00010000
00010000
00000000
00000000
,
01000000
01000000
00000000
00000000
,
00100000
00100000
00000000
00000000
,
10000000
00000000
00010000
00000000
,
10000000
00000000
00000000
00000000
,
10000000
00000000
00010000
00000000
,
10000000
00000000
00000000
00000000
,
00000000
01000000
00000000
01000000
,
00000000
00010000
00000000
00001000
,
00000000
00001000
00000000
00000100
,
00000000
00000000
00000000
00000000
,
00001000
00000000
00001000
00000000
,
00001000
00001000
00001000
00000000
,
00000001
00000000
00000001
00000000
,
00000001
00000001
00000001
00000000
,
00002000
00000000
00000000
00003000
,
00001000
00000000
00000000
00000000
,
00020000
00000000
00000000
00030000
,
00010000
00000000
00000000
00000000
,
00011000
00000000
00000000
00000000
;

//---------------dance-double - ----------------
#NOTES:
     dance-double:
     :
     Easy:
     3:
     :
00000000
00000000
00000000
00000000
,
00000000
00000000
00000000
00000000
,
00100000
00100000
10000000
00010000
,
02000000
03000000
00000000
00000000
,
00001000
00001000
00010000
00000100
,
00002000
00003000
00000000
00000000
,
00000001
00000001
00001000
00000100
,
00020000
00030000
00000000
00000000
,
00001000
00001000
01000000
00100000
,
10000000
00010000
01100000
00000000
,
00010000
00100000
00010000
00100000
,
00010000
00000000
10000000
01000000
,
00100000
00000000
00001000
00010000
,
00001000
00000000
00000010
00000100
,
00002000
00003000
00020000
00030000
,
00200000
00300000
20000000
30000000
,
01000000
01000000
00100000
00100000
,
00020000
00000000
00030000
00001000
,
00020000
00030000
00000020
00000030
,
00001000
00000001
00000200
00000300
,
00020000
00030000
00002000
00003000
,
00100000
00010000
10000000
00000000
,
20000000
00000000
31000000
00000000
,
00020000
00000000
00031000
00000000
,
00000020
00000000
00000031
00000000
,
00000200
00000000
00001300
00000000
,
00002000
00003000
00200000
00300000
,
00010000
10000000
02000000
03000000
,
00002000
00003000
00020000
00030000
,
00000010
00001000
00000001
00000000
,
00000002
00000000
00000103
00000000
,
00002000
00000000
00013000
00000000
,
00200000
00000000
00300000
00000000
,
02000000
00000000
03000000
00000000
,
00020000
00030000
20000000
30000000
,
00020000
00030000
20000000
30000000
,
02000000
03000000
00020000
00030000
,
00001000
00000000
00000000
00000000
,
00000001
00000001
00000100
00000000
,
00001000
00001000
00010000
00000000
,
00100000
00100000
10000000
00000000
,
01000000
01000000
00010000
00000000
,
00020000
00030000
00000020
00000030
,
00001000
00000001
00000100
00000000
,
00000020
00000030
00000200
00000300
,
00001001
00000000
00000000
00000000
,
00000001
00000001
00000010
00000000
,
00001000
00001000
00010000
00000000
,
00100000
00100000
10000000
00000000
,
00000000
00010000
00000000
00000000
,
00020000
00030000
00000020
00000030
,
00001000
00000001
00000200
00000300
,
00020000
00030000
00002000
00003000
,
00100000
00010000
10000000
00000000
,
20000000
00000000
31000000
00000000
,
00020000
00000000
00031000
00000000
,
00000020
00000000
00000031
00000000
,
00000200
00000000
00001300
00000000
,
00011000
00000000
00000000
00000000
;

//---------------dance-double - ----------------
#NOTES:
     dance-double:
     :
     Medium:
     4:
     :
00000000
00000000
00000000
00000000
,
00000000
00000000
00000000
00000000
,
10000000
01000000
10000000
00000000
,
00010000
00100000
00010000
00000000
,
00011000
00001000
00010000
00000000
,
00001010
00001000
00000010
00000000
,
00000101
00000100
00000001
00000000
,
00001100
00000100
00001000
00000000
,
00011000
00001000
00010000
00000000
,
00100000
00010000
00100000
00000000
01100000
00000000
00000000
00000000
,
01000000
10000000
01000000
10000000
,
00010000
00000000
01000000
00010000
,
01000000
00000000
00001000
00010000
,
00001000
00000000
00010000
00000100
,
00001000
00000010
00000100
00000001
,
00000100
00001000
00010000
00001000
,
00011000
00000000
00110000
00000000
,
10010000
10010000
10010000
00100000
,
10000000
01000000
10000000
00000000
10000000
01000000
10000000
00000000
,
01000000
00010000
00001000
00000000
,
00010000
00001000
00010000
00000000
00010000
00001000
00010000
00000000
,
00001000
00000000
00000100
00000001
00000000
00000000
00000000
00000000
,
00000010
00000100
00000010
00000000
00001000
00000000
00010000
00000000
,
00100000
10000000
01000000
00010000
,
00001000
00010000
00001000
00000000
00000100
00000000
00000001
00000000
,
00001000
00000100
00000010
00000000
,
00000001
00000100
00000001
00000000
00000001
00000100
00000001
00000000
,
00000100
00001000
00010000
00000000
,
00001000
00010000
00001000
00000000
00001000
00010000
00001000
00000000
,
00010000
00000000
01000000
10000000
00000000
00000000
00000000
00000000
,
00100000
01000000
00100000
00000000
00010000
00000000
00001000
00000000
,
00000010
00000001
00000100
00001000
,
00010000
00001000
00010000
00000000
00100000
00010000
00100000
00000000
,
10000000
00100000
10000000
00000000
01000000
10000000
01000000
00000000
,
10000000
00000000
01000000
00000000
00010000
00001000
00010000
00000000
,
00001000
00000000
00000100
00000000
00000010
00000100
00000010
00000000
,
00001000
00000001
00001000
00000100
,
00002002
00000000
00000000
00003003
,
00000100
00001000
00010000
00001000
,
00100000
00000000
00010000
00000000
01000000
00000000
00100000
10000000
,
01000000
00010000
00001000
00000100
,
00000001
00001000
00000001
00000000
,
00000001
00000000
00000100
00000000
00001000
00010000
00001000
00000000
,
00010000
00000000
01000000
00000000
00100000
01000000
00100000
00000000
,
10000000
01000000
10000000
00010000
,
20020000
00000000
00000000
30030000
,
01000000
00010000
00001000
00010000
,
00000010
00000000
00001000
00000000
00000100
00000000
00000010
00000001
,
00000100
00001000
00010000
01000000
,
20000000
00020000
00000000
30030000
,
10000000
00100000
10000000
00000000
10000000
00100000
10000000
00000000
,
00100000
00010000
00001000
00000000
,
00010000
00001000
00010000
00000000
00010000
00001000
00010000
00000000
,
00001000
00000000
00000010
00000001
00000000
00000000
00000000
00000000
,
00000100
00000010
00000100
00000000
00001000
00000000
00010000
00000000
,
00100000
10000000
01000000
00010000
,
00001000
00010000
00001000
00000000
00000100
00000000
00000010
00000000
,
00002002
00000000
00000000
00003003
,
00000110
00000000
00000000
00000000
;

//---------------dance-double - ----------------
#NOTES:
     dance-double:
     :
     Hard:
     7:
     :
00000000
00000000
00000000
00000000
,
00000000
00000000
00000000
00000000
,
00010000
00000000
01000000
00000000
00010000
00000000
20000000
31000000
,
10000000
00010000
01000000
00001000
,
00010000
00000000
00001000
00000000
00000100
00000000
00000020
00000130
,
00000010
00000001
00001000
00000100
,
00010000
00000000
00001000
00000000
00010000
00000000
00200000
01300000
,
00100000
00010000
10000000
01000000
,
00010000
00000000
00001000
00000000
00010000
00000000
00000010
00000100
,
00000001
00000001
00000001
00000001
00001000
00000000
00000000
00000000
,
00000001
00000100
00000001
00000000
00000001
00000100
00000001
00000000
,
00001000
00000000
00000010
00000000
00010000
00001000
00010000
00000000
,
00100000
00010000
00100000
00000000
01000000
00000000
10000000
00000000
,
00010000
00000000
00100000
00000000
10000000
01000000
00010000
00000000
,
00010000
01000000
10000000
00000000
10000000
00100000
00010000
00000000
,
00001000
00000100
00000010
00000000
00001000
00000001
00000100
00000000
,
00001000
00000001
00000100
00001000
,
00010000
00000010
00010000
00001000
00100000
00000000
00011000
00000000
,
00100000
00010000
01000000
00010000
00100000
01000000
10000000
00000000
,
01000000
00020000
00031000
00011000
,
00000010
00001000
00000100
00001000
00000010
00000100
00000001
00000000
,
00000100
00002000
00013000
00000000
,
00000010
00010000
00001000
00000000
00100000
00000000
00010000
00000000
,
10000000
01000000
00010000
00001000
,
00100000
00001000
00010000
00000000
00000010
00000000
00000100
00000000
,
00000001
00000100
00001000
00011000
,
00000100
00001000
00000010
00001000
00000100
00000010
00000001
00000000
,
00000010
00002000
00013000
00011000
,
01000000
00010000
00100000
00010000
01000000
00100000
10000000
00000000
,
00100000
00020000
00031000
00000000
,
00100000
00001000
00010000
00000000
00000010
00000000
00001000
00000000
,
00000001
00000100
00001000
00010000
,
00001000
00100000
00010000
00000000
10000000
00100000
01000000
00000000
,
00010000
00100000
00010000
01000000
00010000
00100000
01000000
10000000
,
01000000
00000000
00010000
00001000
00100000
00000000
00010000
00000000
,
01000000
00000000
00001000
00010000
00001000
00000000
00000100
00000000
,
00000001
00000000
00000010
00000100
00001000
00000000
00000001
00000000
,
00001100
00000000
00000000
00000000
00000000
00000000
00000001
00000100
,
00001000
00000000
00010000
00000000
01000000
00000000
10000000
01000000
,
00010000
00000000
00001000
00000000
00100000
00000000
00010000
10000000
,
01000000
00000000
00010000
00000000
00001000
00000000
01000000
00010000
,
01000000
10000000
01000000
00010000
00001000
00000000
00000010
00000000
,
00000100
00000000
00001000
00010000
00000010
00000000
00001000
00000000
,
00000100
00000000
00010000
00001000
00010000
00000000
01000000
00000000
,
10000000
00000000
00100000
01000000
00010000
00000000
10000000
00000000
,
01010000
00000000
00000000
00000000
00000000
00000000
10000000
01000000
,
00010000
00000000
00001000
00000000
00000100
00000000
00000001
00000100
,
00001000
00000000
00010000
00000000
00000010
00000000
00001000
00000001
,
00000100
00000000
00001000
00010000
00001000
00100000
00010000
01000000
,
00000000
02000000
00000000
03000000
,
00100000
00010000
01000000
00010000
00100000
01000000
10000000
00000000
,
01000000
00020000
00031000
00011000
,
00000010
00001000
00000100
00001000
00000010
00000100
00000001
00000000
,
00000100
00002000
00013000
00000000
,
00000010
00010000
00001000
00000000
00100000
00000000
00010000
00000000
,
10000000
01000000
00010000
00001000
,
00100000
00001000
00010000
00000000
00000010
00000000
00000100
00000000
,
00010000
00000000
00000000
00000000
00001000
00000000
00000000
00000000
00100000
00000000
00000000
00000000
00010000
00000000
00000000
01000000
;
