#TITLE:Desire (Comet Remix);
#ARTIST:Fracus feat. Lisa Abbott;
#BANNER:Desire (Comet Remix).png;
#BACKGROUND:Desire (Comet Remix)-bg.png;
#MUSIC:Desire (Comet Remix).ogg;
#SAMPLESTART:46.686;
#SAMPLELENGTH:15;
#BPMS:0=180;

//---------------dance-single - ----------------
#NOTES:
     dance-single:
     :
     Beginner:
     1:
     :
0000
0000
0000
0000
,
0000
0000
0000
0000
,
0000
0000
0000
0000
,
1000
0000
1000
0000
,
1000
0000
1000
0000
,
1000
0000
0000
0000
,
0000
0000
0000
0000
,
0001
0000
0001
0000
,
0001
0000
0001
0000
,
0001
0000
0000
0000
,
0000
0000
0000
0000
,
0010
0010
0000
0000
,
1000
1000
0000
0000
,
0001
0001
0000
0000
,
0001
0001
0000
0000
,
1000
0000
1000
0000
,
1000
0000
0001
0000
,
0001
0000
0001
0000
,
0001
0000
1000
0000
,
1001
0000
0000
0000
,
0000
0000
0000
0000
,
2000
0000
0000
3000
,
0000
0000
0000
0000
,
0002
0000
0000
0003
,
0000
0000
0000
0000
,
0001
0000
0000
0000
,
1000
0000
0000
0000
,
1001
0000
0000
0000
,
0000
0000
0000
0000
,
0010
0000
0000
0000
,
0100
0000
0000
0000
,
0110
0000
0000
0000
,
0000
0000
0000
0000
,
0001
0000
0000
0000
,
1000
0000
0000
0000
,
1001
0000
0000
0000
,
0001
0001
0001
0000
,
0000
0000
0000
0000
,
1000
1000
1000
0000
,
0000
0000
0000
0000
,
0010
0010
0010
0000
,
0000
0000
0000
0000
,
1000
0000
1000
0000
,
1000
0000
0000
0000
,
0010
0000
0010
0000
,
0010
0000
0000
0000
,
0100
0000
0100
0000
,
0100
0000
0000
0000
,
0010
0000
0010
0000
,
0010
0000
0000
0000
,
1000
0000
1000
0000
,
0001
0001
0000
0000
,
0001
0000
0001
0000
,
0001
0000
0001
0000
,
1000
0000
1000
0000
,
1000
0000
1000
0000
,
0010
0000
0010
0000
,
0010
0000
0010
0000
,
0100
0000
0100
0000
,
0100
0000
0100
0000
,
0001
0000
0000
0000
,
1000
0000
0000
0000
,
0001
0000
0000
0000
,
1000
0000
0000
0000
,
0010
0010
0000
0000
,
0100
0000
0000
0000
,
0010
0000
0000
0000
,
0100
0000
0000
0000
,
1001
0000
0000
0000
;

//---------------dance-single - ----------------
#NOTES:
     dance-single:
     :
     Easy:
     3:
     :
0000
0000
0000
0000
,
0000
0000
0000
0000
,
0000
0000
0000
0000
,
0001
0000
1000
0000
,
0001
0000
1000
1000
,
0000
0010
0000
0010
,
0000
0010
0000
0010
,
1000
0000
0001
0000
,
1000
0000
0001
0001
,
0000
0100
0000
0100
,
0000
0100
0000
0100
,
0001
1000
0001
1000
,
0001
1000
0001
0000
,
0000
0100
0000
0100
,
0000
0010
0000
0010
,
1000
0001
1000
0001
,
1000
0001
1000
0001
,
0000
0100
0000
0100
,
0002
0000
0000
0003
,
2001
0000
0000
3000
,
0000
0000
0000
0000
,
0002
0000
0000
0003
,
0000
0000
0000
0000
,
0200
0000
0000
0300
,
0000
0000
0000
0000
,
0020
0000
0000
0030
,
0000
0000
0000
0000
,
0110
0000
0010
0000
,
0000
0000
0100
0000
,
0000
0000
0001
0000
,
0000
0000
1000
0000
,
0000
0000
0010
0000
,
0000
0000
0001
0000
,
0000
0000
0100
0000
,
0000
0000
1000
0000
,
1001
0000
0000
0000
,
0001
0000
0010
0000
,
0001
0000
1000
1000
,
1000
0000
0010
0000
,
1000
0000
0001
0001
,
0001
0000
0100
0000
,
0001
0000
0100
0000
,
0010
0010
0010
0010
,
0010
0000
0000
0000
,
1000
0000
1000
0000
,
0001
0000
0001
0000
,
0010
0010
0010
0000
,
0100
0100
0100
0000
,
1000
0000
1000
0000
,
0001
0000
0001
0000
,
0100
1000
0010
0001
,
1001
0000
0000
0000
,
0001
0000
1000
0000
,
0001
0000
0010
0010
,
0001
0000
1000
0000
,
0001
0000
0100
0100
,
0010
0000
0100
0000
,
0010
0000
1000
1000
,
0010
0000
0100
0000
,
0010
0000
0100
0100
,
0110
0000
1001
0000
,
1001
0000
0110
0000
,
1000
0000
0001
0000
,
1000
0000
1001
0000
,
0010
0000
0100
0000
,
0010
0000
0110
0000
,
1000
1000
0001
0001
,
0010
1000
0100
0001
,
1001
0000
0000
0000
;

//---------------dance-single - ----------------
#NOTES:
     dance-single:
     :
     Medium:
     5:
     :
0000
0000
0000
0000
,
0000
0000
0000
0000
,
0000
0000
0000
0000
,
1000
1000
0001
0001
,
1000
0001
1000
1001
,
0000
0010
0000
1000
,
0000
0010
0000
1001
,
1000
1000
0001
0001
,
1000
0001
1000
1001
,
0000
0100
0000
0001
,
0000
0100
0000
0010
,
0110
0100
0001
1000
,
0010
0100
0001
1001
,
1000
1000
0001
0001
,
0010
0010
0100
0100
,
1000
0100
1000
0100
,
0010
0001
0010
0001
,
0100
0001
0100
0001
,
1000
0100
0001
0010
,
1001
0000
1000
0000
,
0000
1000
0000
1000
0000
0000
0000
0000
,
1000
0000
0000
0000
1000
0000
0000
0001
,
0000
0000
0001
0000
,
1000
0000
1000
0000
,
0001
0000
0001
0000
,
0100
0000
0100
0000
,
0010
0000
0010
0010
,
1001
0000
0010
0000
,
0100
0000
0010
0000
,
0100
0000
1000
0000
,
0010
0000
0100
0000
,
0010
0000
0001
0000
,
0100
0000
0001
0000
,
0010
0000
0100
0000
,
0010
0000
0100
0100
,
1001
0000
0000
0000
,
1000
1000
0001
0001
,
1000
0000
0001
0000
1000
0001
1000
0000
,
0010
0010
0100
0100
,
0010
0000
0010
0000
0100
0010
0100
0000
,
0001
1000
0001
1000
,
0010
0100
0010
0100
,
0001
0100
0001
0000
0010
1000
0010
0000
,
0100
0001
0100
0001
,
1000
1000
0100
0100
,
0010
0010
0001
0001
,
1000
1000
0010
0010
,
0100
0000
0100
0000
0001
1000
0001
0000
,
1000
0001
1000
0000
1000
0100
1000
0000
,
0010
1000
0010
0000
0010
0001
0010
0000
,
0010
1000
0010
1000
,
0101
0000
0100
0000
0001
0000
1000
0001
,
1000
0001
0001
0001
,
1000
0000
1000
0000
1000
1000
1000
0000
,
0001
0001
1000
1000
,
0001
0000
0001
0000
0001
0001
0001
0000
,
0100
0100
0010
0010
,
0100
0000
0100
0000
0010
0010
0010
0000
,
1000
1000
0001
0001
,
1000
0000
1000
0000
0001
0001
0001
0000
,
0100
0001
0100
0001
,
1000
0000
0010
0000
1000
0010
1000
0000
,
0100
1000
0100
0010
,
0001
0000
0010
0000
0001
0010
0001
0000
,
0100
0001
0100
0010
,
1000
0000
0010
0000
1000
0001
1000
0000
,
0001
0100
0010
0100
,
0010
0001
0100
1000
,
1001
0000
0000
0000
;

//---------------dance-single - ----------------
#NOTES:
     dance-single:
     :
     Hard:
     7:
     :
0000
0000
0000
0000
,
0000
0000
0000
0000
,
0000
0000
0000
0000
,
0010
0000
1000
0000
0001
0000
1000
0100
,
0000
0010
0000
0001
0100
0001
0100
0000
,
0010
1000
0100
1000
,
0001
0000
0010
0000
0001
1000
0001
0000
,
0010
0000
0001
0000
1000
0000
0001
0100
,
0000
0010
0000
1000
0100
1000
0001
0000
,
1000
1000
0010
0010
,
0100
1000
0100
0000
0100
0001
0100
0000
,
0001
0000
0010
0000
0100
0000
1000
0010
,
0000
0100
0000
0001
0010
0001
0100
0000
,
1000
0100
0001
0000
1000
0010
0001
0000
,
0010
1000
0100
0000
0010
0001
0100
0000
,
1010
0000
0101
0000
1100
0000
1000
0100
,
0000
0010
0000
0001
1000
0100
0010
0000
,
0001
0010
1000
0000
0001
0100
1000
0000
,
0010
1000
0001
0100
0010
1000
0100
0010
,
0120
0000
0000
0000
0031
0000
0200
1000
,
0000
1000
0000
2300
0000
0000
0000
3100
,
0002
0000
1003
0001
0000
0020
0000
0100
,
0000
0100
0000
0230
0000
0000
0000
0000
,
1300
0010
1000
0010
,
0001
0000
0000
0010
0000
0001
0001
0000
,
0100
0000
0010
0000
1000
0000
0100
0100
,
0000
1000
1000
0000
0001
0000
1000
0000
,
1001
0000
0000
0000
1010
0000
0100
0002
,
0000
0010
0000
2003
0000
0010
0000
3001
,
0000
0000
0000
0000
1000
0200
0000
0010
,
0000
0010
0000
0320
0000
0001
0000
0130
,
0010
0000
0010
0000
,
1010
0000
0000
0100
0000
0001
0010
0001
,
1000
0000
0000
0011
0000
0000
1000
0000
,
0000
0101
0000
0000
0100
0000
0100
0000
,
1001
0000
0000
0000
,
0011
0000
1100
0000
1000
0010
1000
0000
,
1010
0000
0101
0000
0001
0100
0001
0100
,
0010
0110
0100
0001
,
0010
0100
0010
0000
1000
0001
1000
0000
,
1002
0103
2001
3010
,
2001
3100
1002
0013
,
1000
0100
1000
0000
0001
0100
0001
0000
,
0010
0100
1000
0001
0010
0000
0000
0000
,
0110
0000
1000
0000
0010
1000
0010
0000
,
0100
0001
0100
0000
1000
0100
1000
0000
,
0001
0000
0100
0001
1000
0001
0010
0000
,
0100
1000
0001
1000
0010
1000
0100
0000
,
0011
0000
1001
0000
0100
1000
0010
0000
,
0101
0000
1001
0000
0010
0001
0100
0000
,
0010
1000
0100
0000
0010
0001
0100
0000
,
0010
0001
0100
0001
0010
0100
1000
0010
,
0100
0000
0110
0000
1010
0000
0010
1000
,
0000
1000
0100
0010
1000
0010
0100
0000
,
0010
0000
0110
0000
0011
0000
0010
0001
,
0000
0001
0100
0010
0001
0010
0100
0000
,
1000
0100
0001
0000
0001
0010
1000
0000
,
0001
0100
1000
0100
0010
0001
1000
0000
,
1000
0010
0001
0000
0001
0100
1000
0000
,
0001
0100
0010
1000
0010
0100
0001
0000
,
1000
0100
0010
0100
1000
0100
0010
0001
,
0100
0010
0100
0001
0010
0100
1000
0000
,
1000
0100
0010
0001
0010
1000
0001
1000
,
0100
0001
0010
0100
0001
1000
0001
0000
,
0001
0100
0010
0000
0100
1000
0001
0000
,
0001
1000
0100
0010
0001
0010
0100
0000
,
1001
1000
0100
0000
1001
0001
0010
0000
,
1001
0100
0010
1000
0100
0010
0001
0010
,
1001
0000
0000
0000
;

//---------------dance-single - ----------------
#NOTES:
     dance-single:
     :
     Challenge:
     8:
     :
0000
0000
0000
0000
,
0000
0000
0000
0000
,
0000
0000
0000
0000
,
2000
0000
3002
0000
0103
0000
0001
0011
,
0000
1100
0000
1000
0010
0100
0001
0010
,
1000
0010
0001
0000
0100
1000
0100
0000
,
0001
0010
0001
0000
0100
0010
0100
0000
,
0020
0000
0230
0000
0301
0000
1000
1100
,
0000
0011
0000
0001
0010
0100
1000
0100
,
0001
0100
1000
0000
0010
0001
0010
0000
,
1000
0100
1000
0000
0010
0001
0010
0000
,
2000
0000
3002
0000
0013
0000
0001
0011
,
0000
1100
0000
1000
0100
0010
0001
0101
,
0000
1001
0000
1010
0000
1100
0000
0011
,
0000
0101
0000
1001
0000
1000
0001
1000
,
0200
0000
0320
0000
0031
0000
1000
1001
,
0000
0110
0000
0001
0100
0010
1000
1010
,
0000
1001
0000
1010
0000
1001
0000
0001
,
1000
0100
0001
0100
0010
0001
1000
0000
,
0120
0000
0000
0031
0020
0000
1030
0020
,
0000
0031
0000
0200
0000
0000
0000
1300
,
0200
0000
0301
0100
0000
0010
0000
1000
,
0000
0100
0000
0001
0000
0010
0010
0100
,
1000
0000
0000
0001
0200
0000
0000
1300
,
0200
0000
0000
0301
0000
0010
0100
0010
,
0110
0000
0000
1001
0000
0000
0101
0000
,
0000
0110
0000
0000
0010
0000
0100
0000
,
1001
0000
0000
0000
0010
0000
0100
1000
,
0000
0010
0000
0001
0000
0100
0000
1000
,
0000
0000
0000
0000
0001
0010
0000
0001
,
0000
1000
0000
0010
0000
0100
0000
0001
,
0020
0000
0000
1030
0020
0000
0000
0031
,
0200
0000
0000
1300
0000
0100
0001
0010
,
0011
0000
0000
1100
0000
0000
1010
0000
,
0000
0101
0000
0000
1001
0000
0100
0000
,
2002
0000
3003
0000
0100
0000
0010
1000
,
0001
0000
1000
0000
0100
0000
0000
0010
0000
0000
0001
0000
0000
0000
1000
0000
,
0000
0000
0001
0000
0010
0000
0100
1000
0000
1000
0100
0000
0010
0000
0001
0000
,
0000
0000
0100
0000
0010
0000
0000
1000
0000
0000
0001
0000
0000
0000
0100
0000
,
0000
0000
0010
0000
1000
0000
0010
0100
0000
0100
0010
0000
0100
0000
0001
0000
,
0000
0000
0100
0000
0001
0000
0000
1000
0000
0000
0100
0000
0000
0000
0010
0000
,
0000
0000
0001
0000
1000
0000
0001
0010
0000
0010
0001
0000
0100
0000
1000
0000
,
0000
0000
0100
0000
0001
0000
0000
0010
0000
0000
0001
0000
0000
0000
0100
0000
,
0000
0000
1000
0000
0001
0000
0010
0100
0000
0100
0010
0000
0001
0000
0100
0000
,
0010
0000
0001
0000
0010
0000
0100
1000
0000
1000
0100
0000
0010
0000
1000
0000
,
0001
0000
1000
0000
0100
0000
0010
0001
0000
0001
0010
0000
0100
0000
1000
0000
,
0001
0000
0010
0000
0100
0000
1000
0010
0000
0010
1000
0000
0010
0000
0100
0000
,
0001
0000
0010
0000
0100
0000
1000
0100
0000
0100
1000
0000
0001
0000
0100
0000
,
0010
0001
0010
1000
0100
0010
0001
0010
,
0100
1000
0010
0100
0001
0100
1000
0100
,
0010
1000
0100
0010
0001
1000
0010
1000
,
0001
0010
0001
1000
0100
0010
0001
1000
,
0002
0000
2003
0000
3100
0000
0010
0011
,
0000
1100
0000
0001
1000
0010
0100
0000
,
0020
0000
0230
0000
0301
0000
1000
1010
,
0000
0101
0000
1000
0001
0100
0010
0000
,
2000
0000
3002
0000
1003
0000
0100
0110
,
0000
1001
0000
0010
0100
0001
1000
0000
,
0020
0000
0230
0000
0301
0000
1000
1001
,
0000
0110
0000
0010
0100
0001
0010
0100
,
1000
0010
0100
0001
1000
0100
0010
0100
,
1000
0010
0100
0001
0010
0001
1000
0001
,
1000
0100
1000
0010
0100
0001
0010
0100
,
1000
0100
0010
0001
0100
0001
1000
0010
,
1000
0100
0010
0100
1000
0001
1000
0010
,
0100
0001
1000
0010
0100
0001
0010
0100
,
1000
0001
0100
0010
1000
0010
0100
0001
,
0010
1000
0010
0001
0010
0100
1000
0001
,
1001
0000
0000
0000
;

//---------------dance-double - ----------------
#NOTES:
     dance-double:
     :
     Beginner:
     1:
     :
00000000
00000000
00000000
00000000
,
00000000
00000000
00000000
00000000
,
00000000
00000000
00000000
00000000
,
10000000
00000000
10000000
00000000
,
10000000
00000000
10000000
00000000
,
00000000
00000000
00000000
00000000
,
01000000
00000000
00000000
00000000
,
00010000
00000000
00010000
00000000
,
00010000
00000000
00010000
00000000
,
00000000
00000000
00000000
00000000
,
00001000
00000000
00000000
00000000
,
00010000
00010000
00000000
00000000
,
00000010
00000010
00000000
00000000
,
00001000
00001000
00000000
00000000
,
00000001
00000001
00000000
00000000
,
00000100
00000000
00000100
00000000
,
00000000
00000000
00000010
00000000
,
00000010
00000000
00000000
00000000
,
00010000
00000000
00001000
00000000
,
00011000
00000000
00000000
00000000
,
00000000
00000000
00000000
00000000
,
00200000
00000000
00000000
00300000
,
00000000
00000000
00000000
00000000
,
02000000
00000000
00000000
03000000
,
00000000
00000000
00000000
00000000
,
10000000
00000000
00000000
00000000
,
00010000
00000000
00000000
00000000
,
10010000
00000000
00000000
00000000
,
00000000
00000000
00000000
00000000
,
00100000
00000000
00000000
00000000
,
01000000
00000000
00000000
00000000
,
01100000
00000000
00000000
00000000
,
00000000
00000000
00000000
00000000
,
00010000
00000000
00000000
00000000
,
00001000
00000000
00000000
00000000
,
00011000
00000000
00000000
00000000
,
00010000
00010000
00010000
00000000
,
00000000
00000000
00000000
00000000
,
00001000
00001000
00001000
00000000
,
00000000
00000000
00000000
00000000
,
00000010
00000010
00000010
00000000
,
00000000
00000000
00000000
00000000
,
00000001
00000000
00000001
00000000
,
00000001
00000000
00000000
00000000
,
00001000
00000000
00001000
00000000
,
00001000
00000000
00000000
00000000
,
00000001
00000000
00000001
00000000
,
00000001
00000000
00000000
00000000
,
00000100
00000000
00000100
00000000
,
00000100
00000000
00000000
00000000
,
00001000
00000000
00001000
00000000
,
00010000
00000000
00000000
00000000
,
00001000
00000000
00001000
00000000
,
00001000
00000000
00000000
00000000
,
00010000
00000000
00010000
00000000
,
00010000
00000000
00000000
00000000
,
00100000
00000000
00100000
00000000
,
00100000
00000000
00000000
00000000
,
01000000
00000000
01000000
00000000
,
01000000
00000000
00000000
00000000
,
00010000
00000000
00000000
00000000
,
10000000
00000000
00000000
00000000
,
00010000
00000000
00000000
00000000
,
10000000
00000000
00000000
00000000
,
00100000
00100000
00000000
00000000
,
01000000
00000000
00000000
00000000
,
00100000
00000000
00000000
00000000
,
01000000
00000000
00000000
00000000
,
10010000
00000000
00000000
00000000
;

//---------------dance-double - ----------------
#NOTES:
     dance-double:
     :
     Easy:
     3:
     :
00000000
00000000
00000000
00000000
,
00000000
00000000
00000000
00000000
,
00000000
00000000
00000000
00000000
,
10000000
00000000
00100000
00000000
,
01000000
00000000
00010000
00000000
,
00000000
00001000
00000000
00001000
,
00000000
00001000
00000000
00001000
,
00010000
00000000
00000100
00000000
,
00000010
00000000
00000001
00000000
,
00000000
00001000
00000000
00001000
,
00000000
00001000
00000000
00001000
,
00000100
00000000
00000100
00000000
,
00010000
00001000
00010000
00001000
,
00000000
01000000
00000000
01000000
,
00000000
01000000
00000000
01000000
,
00100000
00000000
00100000
00000000
,
10000000
00010000
10000000
00010000
,
00000000
01000000
00000000
01000000
,
00010000
00000000
00000000
00000000
,
00012000
00000000
00000000
00003000
,
00000000
00000000
00000000
00000000
,
00000020
00000000
00000000
00000030
,
00000000
00000000
00000000
00000000
,
00000002
00000000
00000000
00000003
,
00000000
00000000
00000000
00000000
,
00000200
00000000
00000000
00000300
,
00000000
00000000
00000000
00000000
,
00011000
00000000
00100000
00000000
,
00000000
00000000
10000000
00000000
,
00000000
00000000
01000000
00000000
,
00000000
00000000
00010000
00000000
,
00000000
00000000
00001000
00000000
,
00000000
00000000
00010000
00000000
,
00000000
00000000
00000010
00000000
,
00000000
00000000
00001000
00000000
,
00001001
00000000
00000000
00000000
,
00000001
00000000
00000010
00000000
,
00000001
00000000
00001000
00001000
,
00001000
00000000
00000100
00000000
,
00010000
00000000
00001000
00001000
,
00001000
00000000
01000000
00000000
,
00010000
00000000
01000000
00000000
,
00200000
00000000
00000000
00300000
,
00000000
00000000
00000000
00000000
,
10000000
00000000
10000000
00000000
,
00010000
00000000
00010000
00000000
,
00100000
00100000
00100000
00000000
,
01000000
01000000
01000000
00000000
,
00010000
00000000
00010000
00000000
,
00001000
00000000
00001000
00000000
,
00010000
00001000
00010000
00001000
,
00011000
00000000
00000000
00000000
,
00000010
00000000
00000100
00000000
,
00000010
00000000
00001000
00001000
,
00000001
00000000
00000100
00000000
,
00001000
00000000
00010000
00010000
,
00001000
00000000
01000000
00000000
,
00010000
00000000
01000000
01000000
,
00100000
00000000
10000000
00000000
,
01000000
00000000
00010000
00010000
,
00011000
00000000
00000110
00000000
,
00001001
00000000
00000110
00000000
,
00000100
00000000
00001000
00000000
,
00010000
00000000
00011000
00000000
,
00010000
00000000
01000000
00000000
,
00100000
00000000
01100000
00000000
,
10000000
10000000
00010000
00010000
,
10000000
01000000
00010000
00001000
,
00011000
00000000
00000000
00000000
;

//---------------dance-double - ----------------
#NOTES:
     dance-double:
     :
     Medium:
     6:
     :
00000000
00000000
00000000
00000000
,
00000000
00000000
00000000
00000000
,
00000000
00000000
00000000
00000000
,
00100000
00000000
00100000
00000000
00100000
00000000
10000000
01000000
,
00000000
10000000
00000000
01000000
01000000
00100000
00001000
00000000
,
00010000
00010000
00001000
00001000
,
00000100
00000001
00001000
00000100
,
00000010
00000000
00000010
00000000
00000010
00000000
00000001
00000100
,
00000000
00000001
00000000
00000100
00000100
00000010
00010000
00000000
,
00001000
00001000
00010000
00010000
,
01000000
10000000
00010000
01000000
,
00000000
00100000
00000000
10000000
00000000
00100000
00000000
10000000
,
00000000
00100000
00000000
10000000
00000000
01000000
01000000
01000000
,
00000000
00010000
00000000
00001000
00000000
00010000
00000000
00001000
,
00000000
00010000
00000000
00001000
00000000
00000100
00000100
00000100
,
00000000
00000001
00000000
00000010
00000000
00000001
00000000
00000010
,
00000000
00000001
00000000
00000010
00000000
00000100
00000100
00000100
,
00000000
00010000
00000000
00001000
00000000
00010000
00000000
00001000
,
00010000
00001000
01000000
00010000
01000000
00001000
00010000
00001000
,
00010000
00000000
00000000
00000000
01000000
00000000
10000000
00100000
,
00000000
10000000
00000000
02000000
00000000
00000000
00000000
03100000
,
00010000
00000000
00100000
00010000
00000000
00100000
00000000
00001000
,
00000000
00010000
00000000
00002000
00000000
00000000
00000000
00000000
,
00003100
00000000
00000001
00000000
,
00001000
00000000
00000000
00000001
00000000
00001000
00000100
00000000
,
00000010
00000000
00000000
00000001
00000000
00000000
00000100
00000000
,
00000000
00001000
00000000
00000000
00010000
00000000
00001000
00000000
,
00011000
00000000
00000000
00000000
00010000
00000000
01000000
10000000
,
00000000
00010000
00000000
10000000
00000000
00010000
00000000
01000000
,
00000000
00000000
00000000
00000000
00100000
10000000
00000000
01000000
,
00000000
00010000
00000000
00001000
00000000
00000100
00000000
00000001
,
00000010
00000000
00000010
00000000
,
00000010
00000000
00000000
00000100
00000000
00001000
00000001
00000000
,
00002002
00000000
00000000
00003003
,
00000220
00000000
00000000
00000330
,
00002002
00000000
00000000
00003003
,
00000001
00000101
00000100
00001100
,
00001000
00000000
00011000
00000000
00010000
00000000
01000000
10000000
,
00100000
10100000
10000000
10010000
,
00010000
00000000
00110000
00000000
00100000
00000000
00001000
00010000
,
00000020
00000000
00000230
00000000
00000302
00000000
00000003
00001000
,
00000100
00001000
00000000
00001001
00000000
00000000
00000000
00000001
,
00000100
00000000
00001000
00010000
00000000
00001000
00000000
00011000
,
00000000
00000000
00000000
00000000
00010000
00001000
01000000
00010000
,
00100000
01100000
01000000
11000000
,
10000000
00000000
10100000
00000000
00100000
00000000
01000000
00001000
,
00010000
00010100
00000100
00001100
,
00001000
00000000
00001010
00000000
00000010
00000000
00000100
00000001
,
00001000
00000000
00000000
00000000
00000001
00000100
00000000
00000001
,
00000000
00001000
00000000
00000100
00000000
00000010
00000000
00000000
,
00000001
00000000
00001000
00000100
00000000
00010000
00000000
00022000
,
00000000
00000000
00000000
00033000
,
00001000
00000000
00001000
00000000
00001000
00000000
00010000
00001000
,
00000000
00100000
00000000
00010000
01000000
00010000
01000000
00000000
,
00100000
00000000
00100000
00000000
00100000
00000000
10000000
00010000
,
00000000
00100000
00000000
00001000
00010000
00001000
00010000
00000000
,
00000100
00000000
00000100
00000000
00000100
00000000
00000010
00000001
,
00000000
00001000
00000000
00000001
00000100
00000001
00000100
00000000
,
00000010
00000000
00000010
00000000
00000010
00000000
00010000
00001000
,
00000000
00010000
00000000
00000100
00001000
00000100
00001000
00000000
,
00000000
00000001
00000000
00000100
00000000
00000001
00000000
00000100
,
00000000
00000001
00000000
00000100
00000000
00000010
00000010
00000010
,
00000000
00010000
00000000
00001000
00000000
00010000
00000000
00001000
,
00000000
00010000
00000000
00001000
00000000
00100000
00100000
00100000
,
00000000
01000000
00000000
10000000
00000000
01000000
00000000
10000000
,
00000000
01000000
00000000
10000000
00000000
00100000
00100000
00100000
,
00000000
00010000
00000000
00001000
00000000
00010000
00000000
00001000
,
00020000
00000000
00032000
00000000
,
00013000
00000000
00000000
00000000
;

//---------------dance-double - ----------------
#NOTES:
     dance-double:
     :
     Hard:
     8:
     :
00000000
00000000
00000000
00000000
,
00000000
00000000
00000000
00000000
,
00000000
00000000
00000000
00000000
,
00000110
00000000
00000110
00000000
00001002
00000000
00000100
00000103
,
00000000
00001000
00000000
00010000
00001000
00010000
01000000
00000000
,
10000000
10000000
01000000
00000000
00010000
01000000
00100000
00000000
,
00001000
00001000
00010000
00000000
00001000
00000100
00000001
00000000
,
00000011
00000000
00000011
00000000
00002100
00000000
00000010
00003010
,
00000000
00000100
00000000
00000010
00001000
00000100
00001000
00000000
,
00000001
00000001
00000100
00000000
00000010
00000100
00000001
00000000
,
00000010
00000010
00001000
00000000
00010000
00001000
01000000
00010000
,
10000000
01000000
00000000
02000000
00000000
10000000
00000000
23000000
,
00000000
00100000
00000000
30100000
00000000
00010000
00001000
00020000
,
00000000
00000100
00000000
00030200
00000000
00000010
00000000
00000320
,
00000000
00000001
00000000
00000031
00000000
00000100
00000010
00000200
,
00000000
00001000
00000000
00002300
00000000
00010000
00000000
00023000
,
00000000
00100000
00000000
00130000
00000000
10000000
01000000
10000000
,
00000000
00010000
00000000
00010000
00000000
10000000
00000000
10000000
,
01000000
00100000
00001000
00010000
00001000
00100000
01000000
10000000
,
10010000
00000000
00000000
00010000
01000000
00000000
01000000
00001000
,
00000000
00010000
00000000
00002000
00000000
00000000
00000000
00013000
,
00001000
00000000
00000100
00000001
00000000
00000010
00000000
00000001
,
00000000
00001000
00000000
00000001
00000000
00000010
00000010
00000100
,
00001000
00000000
00000000
00000001
00000100
00000000
00000000
00000100
,
00001000
00000000
00000000
00010000
00000000
00001000
00010000
00001000
,
01000000
00000000
00000000
00100000
00000000
00000000
10000000
00000000
,
00000000
00010000
00000000
00000000
01000000
00000000
01000000
00000000
,
10010000
00000000
00000000
00000000
10000000
00000000
00010000
00010000
,
00000000
01000000
00000000
00001000
00000000
00010000
00000000
01000000
,
00000000
00000000
00000000
00000000
10000000
10000000
00000000
00100000
,
00000000
00010000
00000000
00001000
00000000
00000010
00000000
00000001
,
00000100
00000000
00000000
00000100
00000010
00000000
00000000
00000010
,
00010000
00000000
00000000
00001000
00000000
00010000
01000000
00000000
,
11000000
00000000
00000000
00110000
00000000
00000000
01010000
00000000
,
00000000
10100000
00000000
00000000
10000000
00000000
00010000
00000000
,
20020000
00000000
00000000
30030000
,
00000000
00000000
00010000
00000000
10000000
00000000
00000000
01000000
00000000
00000000
00010000
00000000
00000000
00000000
00001000
00000000
,
00000000
00000000
00010000
00000000
00000010
00000000
00000000
00001000
00000000
00000000
00000100
00000000
00000010
00000000
00000001
00000000
,
00000000
00000000
00000100
00000000
00000010
00000000
00000000
00010000
00000000
00000000
00000100
00000000
00000000
00000000
00001000
00000000
,
00000000
00000000
00000010
00000000
00010000
00000000
00000000
00001000
00000000
00000000
00100000
00000000
01000000
00000000
10000000
00000000
,
00000000
00000000
01000000
00000000
00010000
00000000
00000000
01000000
00000000
00000000
10000000
00000000
00000000
00000000
00100000
00000000
,
00000000
00000000
00010000
00000000
00001000
00000000
00000000
00010000
00000000
00000000
00100000
00000000
01000000
00000000
00001000
00000000
,
00000000
00000000
00010000
00000000
00001000
00000000
00000000
00100000
00000000
00000000
01000000
00000000
00000000
00000000
10000000
00000000
,
00000000
00000000
00010000
00000000
01000000
00000000
00000000
00001000
00000000
00000000
00010000
00000000
00001000
00000000
00000100
00000000
,
00000001
00000010
00000001
00000100
00000010
00010000
00001000
00000010
,
00000001
00000100
00000010
00010000
00001000
00100000
00001000
01000000
,
00000000
01000000
00010000
10000000
01000000
10000000
00100000
01000000
,
00001000
00010000
00001000
00100000
01000000
10000000
00010000
01000000
,
00000000
01000000
10000000
01000000
00001000
00010000
00100000
10000000
,
01000000
00100000
00001000
00010000
00001000
01000000
00100000
00010000
,
00001000
00000010
00001000
00010000
00001000
00000100
00000001
00000010
,
00000100
00010000
00001000
00000100
00000001
00000010
00000100
00010000
,
00002000
00000000
00023000
00000000
02030000
00000000
13000000
01000000
,
00000000
00100000
00000000
00001000
01000000
00100000
01000000
00000000
,
00020000
00000000
20030000
00000000
32000000
00000000
03100000
01000000
,
00000000
10000000
00000000
00010000
01000000
00100000
01000000
00000000
,
00002000
00000000
00023000
00000000
00030200
00000000
00000310
00000100
,
00000000
00001000
00000000
00000001
00000100
00000010
00000100
00000000
,
00000002
00000000
00002003
00000000
00003200
00000000
00000301
00000100
,
00000000
00000010
00000000
00000001
00000100
00001000
00010000
00001000
,
00000100
00000010
00001000
00000100
00000010
00000001
00001000
00000100
,
00010000
00001000
01000000
00001000
00010000
00000010
00001000
00000000
,
00001000
00000001
00000010
00000100
00010000
00001000
00010000
00000010
,
00000100
00000001
00000010
00001000
00010000
00001000
00000100
00000000
,
00000100
00000010
00010000
00001000
00100000
01000000
10000000
00100000
,
01000000
00001000
00010000
01000000
10000000
00100000
01000000
00000000
,
01000000
00010000
10000000
01000000
00100000
00001000
00100000
00010000
,
01000000
00100000
10000000
01000000
00010000
00001000
00000100
00000001
,
00000010
00000000
00000000
00000000
;

//---------------dance-double - ----------------
#NOTES:
     dance-double:
     :
     Challenge:
     9:
     :
00000000
00000000
00000000
00000000
,
00000000
00000000
00000000
00000000
,
00000000
00000000
00000000
00000000
,
20000000
00000000
30020000
00000000
01030000
00000000
00010000
00110000
,
00000000
11000000
00000000
10000000
00100000
01000000
00001000
00010000
,
01000000
10000000
01000000
00000000
00100000
00001000
00100000
00000000
,
00001000
00010000
00001000
00000000
00000100
00000001
00000100
00000000
,
00000020
00000000
00000230
00000000
00000301
00000000
00001000
00001100
,
00000000
00000011
00000000
00000001
00001000
00000100
00000010
00000001
,
00000100
00000010
00000100
00000000
00000010
00010000
00000010
00000000
,
00001000
00000100
00001000
00000000
00000001
00001000
00000001
00000000
,
00002000
00000000
00003200
00000000
00000310
00000000
00000001
00001001
,
00000000
00001001
00000000
00001000
00000100
00000010
00000001
00000101
,
00000000
00001001
00000000
00001100
00000000
00001001
00000000
00000011
,
00000000
00001001
00000000
00001010
00000000
00001000
00000001
00001000
,
00000200
00000000
00020300
00000000
00031000
00000000
00010000
00011000
,
00000000
00011000
00000000
00001000
01000000
00010000
00100000
00110000
,
00000000
10010000
00000000
10100000
00000000
10010000
00000000
10000000
,
00100000
01000000
00001000
00010000
00000010
00000100
00000001
00000010
,
00000100
00000000
00000000
00001000
00000001
00000000
00001000
00000100
,
00000000
00000010
00000000
00000100
00000000
00000000
00000000
00010000
,
00001000
00000000
00000010
00000001
00000000
00000100
00000000
00000010
,
00000000
00010000
00000000
00001000
00000000
00010000
01000000
00100000
,
00010000
00000000
00000000
10000000
00100000
00000000
00000000
10000000
,
01000000
00000000
00000000
00100000
00000000
00001000
00010000
00001000
,
00101000
00000000
00000000
00011000
00000000
00000000
00010010
00000000
,
00000000
00011000
00000000
00000000
00001000
00000000
01000000
00000000
,
10010000
00000000
00000000
00000000
00100000
00000000
01000000
00001000
,
00000000
00010000
00000000
00001000
00000000
00100000
00000000
01000000
,
00000000
00000000
00000000
00000000
10000000
00010000
00000000
10000000
,
00000000
00100000
00000000
01000000
00000000
00001000
00000000
00010000
,
00000100
00000000
00000000
00000010
00000100
00000000
00000000
00001000
,
00000001
00000000
00000000
00001000
00000000
00000010
00000100
00000001
,
00000011
00000000
00000000
00001100
00000000
00000000
00001010
00000000
,
00000000
00000101
00000000
00000000
00000001
00000000
00001000
00000000
,
00002002
00000000
00003003
00000000
00000001
00000100
00000010
00001000
,
00000001
00000000
00001000
00000000
00000100
00000000
00000010
00000001
00000000
00000001
00000100
00000000
00000000
00000000
00000010
00000000
,
00000000
00000000
00010000
00000000
00000100
00000000
00001000
00000010
00000000
00001000
00000010
00000000
00000100
00000000
00000001
00000000
,
00000000
00000000
00000010
00000000
00000100
00000000
00010000
00001000
00000000
00001000
01000000
00000000
00000000
00000000
00010000
00000000
,
00000000
00000000
00100000
00000000
00001000
00000000
01000000
00010000
00000000
01000000
00010000
00000000
10000000
00000000
00100000
00000000
,
00000000
00000000
10000000
00000000
01000000
00000000
00100000
00001000
00000000
00001000
00010000
00000000
00000000
00000000
01000000
00000000
,
00000000
00000000
10000000
00000000
00100000
00000000
01000000
00010000
00000000
00010000
10000000
00000000
01000000
00000000
00100000
00000000
,
00000000
00000000
00001000
00000000
01000000
00000000
00010000
00100000
00000000
00100000
01000000
00000000
00000000
00000000
10000000
00000000
,
00000000
00000000
00100000
00000000
01000000
00000000
00001000
00010000
00000000
00001000
00010000
00000000
00100000
00000000
10000000
00000000
,
01000000
00000000
00100000
00000000
00010000
00000000
10000000
01000000
00000000
01000000
10000000
00000000
00100000
00000000
01000000
00000000
,
00001000
00000000
00010000
00000000
01000000
00000000
00100000
00001000
00000000
00001000
00100000
00000000
00010000
00000000
10000000
00000000
,
01000000
00000000
00010000
00000000
00001000
00000000
00000100
00000001
00000000
00000001
00000100
00000000
00000010
00000000
00010000
00000000
,
00001000
00000000
00000100
00000000
00001000
00000000
00010000
00001000
00000000
00001000
00010000
00000000
00000010
00000000
00000100
00000000
,
00000001
00000010
00000100
00001000
00000001
00000100
00000010
00010000
,
00001000
00000010
00000001
00000010
00000100
00001000
00000010
00000100
,
00000010
00010000
00001000
00100000
01000000
10000000
00100000
01000000
,
00001000
00100000
00010000
01000000
00001000
00010000
00000100
00000010
,
00000002
00000000
00002003
00000000
00003100
00000000
00000010
00000011
,
00000000
00001100
00000000
00001000
00000001
00000010
00001000
00000000
,
00020000
00000000
02030000
00000000
13000000
00000000
00100000
10100000
,
00000000
01010000
00000000
00010000
10000000
01000000
00100000
00000000
,
02000000
00000000
03020000
00000000
10030000
00000000
01000000
01100000
,
00000000
10010000
00000000
00010000
01000000
00001000
00010000
00000000
,
00002000
00000000
00003020
00000000
00000031
00000000
00000100
00000110
,
00000000
00001001
00000000
00000001
00000010
00000100
00010000
00001000
,
00000010
00000001
00000100
00000010
00010000
00001000
00000100
00000001
,
00000010
00000100
00010000
00001000
00100000
00001000
00010000
01000000
,
00100000
00010000
01000000
00100000
00010000
00100000
10000000
01000000
,
10000000
00010000
01000000
00001000
00010000
00100000
10000000
01000000
,
01000000
00010000
00001000
00000100
00000001
00000010
00000001
00000100
,
00000010
00001000
00000001
00001000
00000100
00001000
00000001
00000100
,
00000100
00001000
00010000
00100000
00010000
00001000
00010000
01000000
,
10000000
00100000
10000000
01000000
00010000
00001000
00000100
00000001
,
00001001
00000000
00000000
00000000
;
