#TITLE:Cosmic Hammer;
#ARTIST:Jondi & Spesh;
#BANNER:Cosmic Hammer.png;
#BACKGROUND:Cosmic Hammer-bg.png;
#CDTITLE:./CDTITLES/Dance Dance Revolution ULTRAMIX4.png;
#MUSIC:Cosmic Hammer.ogg;
#SAMPLESTART:81.104;
#SAMPLELENGTH:15;
#BPMS:0=145;

//---------------dance-single - ----------------
#NOTES:
     dance-single:
     :
     Beginner:
     1:
     :
0000
0000
0000
0000
,
0000
0000
0000
0000
,
0000
0000
0000
0000
,
0000
0000
0000
0000
,
0000
0000
0000
0000
,
0010
0000
0000
0000
,
0010
0000
0000
0000
,
0010
0000
0000
0000
,
0100
0000
0100
0000
,
0100
0000
0000
0000
,
0001
0000
0000
0000
,
1000
0000
0000
0000
,
0010
0000
0010
0000
,
0100
0000
0000
0000
,
0001
0000
0000
0000
,
0010
0000
0000
0000
,
0100
0000
0100
0000
,
2000
0000
0000
3000
,
1000
0000
0000
0000
,
0002
0000
0000
0003
,
0001
0000
0000
0000
,
0200
0000
0000
0300
,
0100
0000
0000
0000
,
0020
0000
0000
0030
,
0010
0000
0000
0000
,
1000
0000
0000
0000
,
1000
1000
1000
0000
,
0001
0000
0000
0000
,
0010
0010
0010
0000
,
0100
0000
0000
0000
,
0100
0100
0100
0000
,
0001
0000
0000
0000
,
1000
0000
0000
0000
,
0010
0000
0000
0000
,
0010
0000
0000
0000
,
0100
0000
0000
0000
,
0100
0000
0000
0000
,
0001
0000
0001
0000
,
0001
0000
0000
0000
,
0010
0000
0010
0000
,
0010
0000
0010
0000
,
1000
0000
1000
0000
,
0010
0000
1000
0000
,
0001
0000
0001
0000
,
0100
0000
0001
0000
,
1000
0000
0001
0000
,
1000
0000
0001
0000
,
0100
0000
0010
0000
,
0010
0000
0010
0000
,
0010
0000
0000
0000
,
0010
0000
0010
0000
,
1000
0000
0000
0000
,
0001
0000
0001
0000
,
0100
0000
0000
0000
,
0010
0000
0010
0000
,
0100
0000
0000
0000
,
0001
0000
1000
0000
,
0020
0000
0000
0030
,
0010
0000
0000
0000
,
0200
0000
0000
0300
,
0100
0000
0000
0000
,
0002
0000
0000
0003
,
0001
0000
0000
0000
,
2000
0000
0000
3000
,
1000
0000
0000
0000
,
0010
0000
0000
0000
,
0000
0000
0000
0000
,
0100
0000
0000
0000
;

//---------------dance-single - ----------------
#NOTES:
     dance-single:
     :
     Easy:
     3:
     :
0000
0000
0000
0000
,
0000
0000
0000
0000
,
0000
0000
0000
0000
,
0000
0000
0000
0000
,
0000
0000
0000
0000
,
1001
0000
0000
0000
,
1001
0000
0000
0000
,
0110
0000
0000
0000
,
0110
0000
0100
0000
,
1000
1000
0100
0000
,
0001
0010
0100
0000
,
0010
0010
0100
0000
,
1000
0000
0001
1000
,
0100
0100
0010
0001
,
1000
0000
0100
0010
,
0001
0001
0010
0100
,
0200
0000
0300
0000
,
2000
0000
3000
0000
,
0010
0100
1000
0000
,
0200
0000
0300
0000
,
2000
0000
3000
0000
,
0200
0000
0300
0000
,
1000
0100
0010
0000
,
0002
0000
0003
0000
,
0002
0000
0003
0000
,
0200
0000
0300
0000
,
0100
0010
1000
0000
,
0002
0000
0003
0000
,
0010
0001
0100
0000
,
0020
0000
0030
0000
,
0010
1000
0100
0000
,
2000
0000
3000
0000
,
0110
0000
0000
0000
,
1001
0000
2000
0000
,
3000
0000
0100
0010
,
1000
0000
0001
0100
,
1000
0000
0010
0100
,
0110
0000
0002
0000
,
0003
0000
0100
0010
,
0001
0000
1000
0001
,
2002
0000
3003
0000
,
1001
0000
1001
0000
,
0010
0100
0010
0000
,
0110
0000
0110
0000
,
0200
0000
0300
0000
,
1001
0000
1001
0000
,
1000
0100
0010
0000
,
0110
0000
0110
0000
,
0002
0000
0003
0000
,
1001
0000
0010
0001
,
0200
0000
0300
0000
,
1001
0000
0010
1000
,
0200
0000
0300
0000
,
1100
0000
1000
0001
,
0200
0000
0300
0000
,
0110
0000
0010
0100
,
0002
0000
0003
0000
,
2002
0000
0000
3003
,
1001
1000
1000
0000
,
2002
0000
0000
3003
,
1001
0001
0001
0000
,
0220
0000
0000
0330
,
0110
0100
0100
0000
,
0220
0000
0000
0330
,
0010
0010
0010
0000
,
0020
0000
0130
0000
,
2000
0000
3000
0000
,
0002
0000
0003
0000
,
0200
0000
0000
0300
;

//---------------dance-single - ----------------
#NOTES:
     dance-single:
     :
     Medium:
     5:
     :
0000
0000
0000
0000
,
0000
0000
0000
0000
,
0000
0000
0000
0000
,
0000
0000
0000
0000
,
0000
0000
0000
0000
,
2000
0000
0000
3010
,
0002
0000
0000
0103
,
0020
0000
0000
1030
,
0002
0000
2003
3010
,
0100
0000
0001
0000
1000
0100
1000
0000
,
1001
0000
0010
0100
,
0010
0000
1000
0000
0001
0010
0001
0000
,
1001
0000
0000
0000
1000
0100
0010
0000
,
0001
0000
0100
0000
0010
1000
0100
0000
,
1100
0000
0001
0100
,
0010
0000
0001
0000
0010
0001
0100
0000
,
1001
0000
0000
0000
0100
0100
0100
0000
,
0010
0000
0000
1000
0000
0001
0000
0000
,
0000
0010
0000
0100
0000
0001
0000
1000
,
0000
0100
0000
0010
0000
1000
0000
0001
,
0000
0010
0000
0100
0000
0001
0000
0000
,
0100
0000
0000
0001
0000
1000
0000
0000
,
0000
0100
0000
0010
0000
1000
0000
0001
,
0000
0010
0000
0100
0000
0001
0000
1000
,
0000
0100
0000
0010
0000
1000
0000
0000
,
1000
0001
0100
0010
,
0200
0010
0300
0000
,
0001
0100
0010
1000
,
0010
0001
0100
0010
,
0001
1000
0010
0100
,
0020
0100
0030
0000
,
1000
0010
0100
0001
,
0100
1000
0010
0100
,
1100
0000
1001
0000
,
1000
0001
0100
0000
0100
0000
0000
0000
,
0101
0000
1001
0000
,
1000
0100
0010
0000
0010
0000
0100
0000
,
2000
3100
0010
0000
,
0001
0100
0010
0000
0010
0000
0000
0000
,
0001
0100
1000
0001
,
0010
0001
0100
0000
0010
1000
0100
0000
,
0002
0103
0010
0000
,
1000
0100
0010
0000
0010
0000
1000
0000
,
0020
0130
0001
0000
,
0010
0001
1000
0000
1000
0000
0010
0000
,
0200
0301
1000
0000
,
1000
0001
0100
0000
0100
0000
0000
0000
,
0010
1000
0001
0100
,
0010
1000
0100
0000
0010
0001
0100
0010
,
1000
0000
0001
0000
1000
0001
1000
0000
,
0010
0100
0001
0000
,
0001
0000
1000
0000
0001
1000
0001
0000
,
0100
0010
1000
0100
,
0010
0000
0001
0000
1000
0010
0100
0000
,
0010
1000
0001
0000
,
0010
0000
0100
0000
0001
0010
0100
0000
,
1000
0010
1000
0000
,
0001
0000
1000
0000
0010
1000
0100
0000
,
0010
0000
0001
0000
0010
1000
0100
0000
,
0010
0000
0001
0000
0010
0001
0100
0000
,
0010
1000
0001
0000
,
0010
0000
1000
0000
0001
0100
0010
0000
,
0001
1000
0001
0000
,
0010
0000
0001
0000
1000
0010
0100
0000
,
1000
0001
1000
0000
,
0001
0000
0000
0010
0000
0100
0000
0000
,
0000
1000
0000
0100
0000
0010
0000
0000
,
1000
0000
0000
0010
0000
0100
0000
0000
,
0000
0001
0000
0100
0000
0010
0000
0000
;

//---------------dance-single - ----------------
#NOTES:
     dance-single:
     :
     Hard:
     7:
     :
0000
0000
0000
0000
,
0000
0000
0000
0000
,
0000
0000
0000
0000
,
0000
0000
0000
0000
,
0000
0000
0000
0000
,
1001
0000
0000
0000
0010
1000
0100
0000
,
1001
0000
0000
0000
0010
0001
1000
0000
,
0101
0000
0000
0000
1000
0100
0010
0000
,
1100
0000
0000
0000
0011
0010
0001
0100
,
0110
1000
0100
0001
,
0101
1000
0010
0100
,
1010
1000
0100
0001
,
1100
0000
0000
0000
1010
0010
1000
0100
,
0110
0001
0100
1000
,
1100
0001
0010
0100
,
0011
0001
0100
1000
,
0101
0000
0000
1000
0100
0010
1000
0000
,
0001
0000
1000
0010
0000
0100
0000
0000
,
0001
0010
0000
0100
0000
0001
0000
0000
,
1000
0000
0001
0010
0000
0100
0000
0000
,
1000
0100
0000
0010
0000
1000
0000
0000
,
0010
0000
0100
0010
0000
1000
0000
0000
,
0100
0010
0000
0001
0000
1000
0000
0000
,
0010
0000
0100
0001
0000
0100
0000
0000
,
0010
1000
1100
0101
,
1001
0000
0010
1000
0000
0001
0000
0000
,
1001
0100
1001
0010
,
0110
0000
1000
0010
0000
0001
0000
0000
,
0110
0000
0001
0010
0000
1000
0000
0000
,
1010
0000
1000
0001
0000
0100
0000
0000
,
1100
0001
0011
1000
,
0101
0000
0001
0100
0000
0010
0000
0000
,
1100
0000
1000
0100
0000
0010
0000
0000
,
1001
0100
0010
0000
1001
0000
0110
0000
,
0001
0100
0010
1000
0001
0000
1100
0000
,
0011
1000
0100
0000
0101
0000
1010
0000
,
1000
0100
0010
1000
0001
0100
0010
0001
,
0101
1000
0010
0000
1001
0000
0110
0000
,
1001
0001
1000
0010
0100
0000
0110
0000
,
1001
0100
0100
0000
0110
0000
1001
0000
,
1100
1000
0100
0010
1000
0000
0101
0000
,
1000
0100
0001
0100
,
0010
1000
0100
0001
,
0010
1000
0001
1000
,
0001
0100
1000
0100
,
0010
0001
0100
1000
,
0010
0001
1000
0010
,
0100
0001
0010
1000
,
0001
0100
0010
0001
0100
0010
1000
0100
,
0010
0000
0001
0010
0100
1000
0100
0010
,
1000
0010
0100
0001
,
0010
0000
1000
0010
0100
0001
0100
0010
,
1000
0001
0010
0100
,
0001
0000
1000
0001
0010
0001
0100
0010
,
1000
1000
0001
0001
,
1000
0000
0001
1000
0100
1000
0010
0100
,
0001
0001
1000
1000
,
0010
0000
0100
0001
0010
0000
0100
0000
,
0010
0000
0100
1000
0010
0000
0100
0000
,
0001
0000
1000
0001
0100
0000
0010
0000
,
1000
0000
0001
1000
0100
0010
0001
0000
,
1000
0000
0010
1000
0001
0000
0100
0000
,
0010
0000
1000
0100
0010
0000
1000
0000
,
0010
0000
0001
0100
0010
0000
0001
0000
,
1001
0000
1000
0001
1000
0010
0100
0000
,
0010
0000
0100
0010
0000
1000
0000
0001
,
0000
0010
0000
0100
0000
1000
0000
0000
,
0010
0000
0100
0010
0000
0001
0000
1000
,
0000
0100
0000
0010
0000
0001
0000
0000
;

//---------------dance-double - ----------------
#NOTES:
     dance-double:
     :
     Beginner:
     1:
     :
00000000
00000000
00000000
00000000
,
00000000
00000000
00000000
00000000
,
00000000
00000000
00000000
00000000
,
00000000
00000000
00000000
00000000
,
00000000
00000000
00000000
00000000
,
00001000
00000000
00000000
00000000
,
00010000
00000000
00000000
00000000
,
00000100
00000000
00000000
00000000
,
00001000
00000000
00000001
00000000
,
00001000
00000000
00000000
00000000
,
00000010
00000000
00000000
00000000
,
00000001
00000000
00000000
00000000
,
00001000
00000000
00000100
00000000
,
00010000
00000000
00000000
00000000
,
00001000
00000000
00000000
00000000
,
01000000
00000000
00000000
00000000
,
00100000
00000000
10000000
00000000
,
00020000
00000000
00000000
00030000
,
00010000
00000000
00000000
00000000
,
00200000
00000000
00000000
00300000
,
00100000
00000000
00000000
00000000
,
00002000
00000000
00000000
00003000
,
00001000
00000000
00000000
00000000
,
00020000
00000000
00000000
00030000
,
00010000
00000000
00000000
00000000
,
00000100
00000000
00000000
00000000
,
00000010
00000010
00000010
00000000
,
00001000
00000000
00000000
00000000
,
00000001
00000001
00000001
00000000
,
00001000
00000000
00000000
00000000
,
00000100
00000100
00000100
00000000
,
00010000
00000000
00000000
00000000
,
00001000
00000000
00000000
00000000
,
00100000
00000000
00000000
00000000
,
10000000
00000000
00000000
00000000
,
00010000
00000000
00000000
00000000
,
01000000
00000000
00000000
00000000
,
10000000
00000000
00010000
00000000
,
00100000
00000000
00000000
00000000
,
00001000
00000000
00010000
00000000
,
00000100
00000000
00001000
00000000
,
00000010
00000000
00000000
00000000
,
00000001
00000000
00001000
00000000
,
00000100
00000000
00000000
00000000
,
00010000
00000000
00001000
00000000
,
00100000
00000000
00000000
00000000
,
00001000
00000000
01000000
00000000
,
00100000
00000000
10000000
00000000
,
00010000
00000000
10000000
00000000
,
00010000
00000000
00000000
00000000
,
01000000
00000000
00001000
00000000
,
00100000
00000000
00000000
00000000
,
00001000
00000000
00010000
00000000
,
00000100
00000000
00000000
00000000
,
00001000
00000000
00000010
00000000
,
00000100
00000000
00000000
00000000
,
00000001
00000000
00001000
00000000
,
00000020
00000000
00000000
00000030
,
00000010
00000000
00000000
00000000
,
00020000
00000000
00000000
00030000
,
00010000
00000000
00000000
00000000
,
00002000
00000000
00000000
00003000
,
00001000
00000000
00000000
00000000
,
00020000
00000000
00000000
00030000
,
00010000
00000000
00000000
00000000
,
00001000
00000000
00000000
00000000
,
00000000
00000000
00000000
00000000
,
00100000
00000000
00000000
00000000
;

//---------------dance-double - ----------------
#NOTES:
     dance-double:
     :
     Easy:
     4:
     :
00000000
00000000
00000000
00000000
,
00000000
00000000
00000000
00000000
,
00000000
00000000
00000000
00000000
,
00000000
00000000
00000000
00000000
,
00000000
00000000
00000000
00000000
,
00000110
00000000
00000000
00000000
,
00011000
00000000
00000000
00000000
,
01100000
00000000
00000000
00000000
,
10010000
00000000
00100000
00000000
,
00010000
00010000
01000000
00000000
,
00001000
00010000
00001000
00000000
,
00010000
00010000
00000100
00000000
,
00001000
00000000
00000010
00000100
,
00000001
00000001
00001000
00000100
,
00000010
00000000
00001000
00000100
,
00010000
00010000
00001000
00100000
,
00020000
00030000
01000000
00000000
,
00200000
00300000
10000000
00000000
,
01000000
00100000
00010000
00000000
,
00200000
00300000
00001000
00000000
,
00020000
00030000
00000100
00000000
,
00002000
00003000
00000010
00000000
,
00000001
00001000
00000010
00000000
,
00000200
00000300
00001000
00000000
,
00000020
00000030
00010000
00000000
,
00002000
00003000
00100000
00000000
,
00010000
10000000
01000000
00000000
,
00200000
00300000
01000000
00000000
,
00010000
00100000
01000000
00000000
,
00200000
00300000
00001000
00000000
,
00010000
00000100
00000010
00000000
,
00000002
00000003
00001000
00000000
,
00000110
00000000
00000000
00000000
,
00011000
00000000
00200000
00300000
,
00010000
00000000
10000000
01000000
,
00100000
00000000
00010000
00100000
,
00001000
00000000
00010000
00001000
,
00011000
00000000
00020000
00030000
,
00000010
00000000
00000100
00000001
,
00001000
00000000
00000100
00000010
,
00000220
00000000
00000330
00000000
,
00000110
00000000
00000110
00000000
,
00000010
00010000
00001000
00000000
,
00011000
00000000
00011000
00000000
,
00200000
00300000
01000000
00000000
,
01100000
00000000
01100000
00000000
,
00100000
00010000
10000000
00000000
,
10010000
00000000
10010000
00000000
,
00200000
00300000
00001000
00000000
,
00011000
00000000
00010000
00000100
,
00000020
00000030
00000001
00000000
,
00001001
00000000
00000100
00000010
,
00002000
00003000
00000100
00000000
,
00011000
00000000
00100000
00010000
,
20000000
30000000
00010000
00000000
,
10010000
00000000
10000000
01000000
,
00200000
00300000
00010000
00000000
,
00022000
00000000
00000000
00033000
,
00011000
00001000
00001000
00000000
,
00000220
00000000
00000000
00000330
,
00000110
00001000
00000001
00000000
,
00002002
00000000
00000000
00003003
,
00001001
00000001
00000001
00000000
,
00000220
00000000
00000000
00000330
,
00000010
00000010
00000010
00000000
,
00020000
00030000
00001000
00000000
,
00200000
00300000
00010000
00000000
,
02000000
03000000
10000000
00000000
,
00020000
00000000
00000000
00030000
;

//---------------dance-double - ----------------
#NOTES:
     dance-double:
     :
     Medium:
     5:
     :
00000000
00000000
00000000
00000000
,
00000000
00000000
00000000
00000000
,
00000000
00000000
00000000
00000000
,
00000000
00000000
00000000
00000000
,
00000000
00000000
00000000
00000000
,
00000020
00000000
00000000
00001030
,
00000200
00000000
00000000
00010300
,
00020000
00000000
00000000
00031000
,
00002000
00000000
00203000
00310000
,
10000000
00000000
00100000
00000000
01000000
00010000
10000000
00000000
,
01100000
00000000
10000000
00010000
,
01000000
00000000
00001000
00000000
00010000
00000100
00010000
00000000
,
00011000
00000000
00000000
00000000
00010000
00000100
00000010
00000000
,
00001000
00000000
00000010
00000000
00000100
00000001
00000010
00000000
,
00000011
00000000
00001000
00000100
,
00000010
00000000
00000100
00000000
00010000
00001000
00100000
00000000
,
00011000
00000000
00000000
00000000
00100000
00100000
00100000
00000000
,
00010000
00000000
00000000
01000000
00000000
00100000
00000000
10000000
,
00000000
01000000
00000000
00010000
00000000
01000000
00000000
00100000
,
00000000
01000000
00000000
00001000
00000000
00010000
00000000
00000100
,
00000000
00000010
00000000
00000001
00000000
00001000
00000000
00000000
,
00000010
00000000
00000000
00000100
00000000
00000001
00000000
00000100
,
00000000
00000001
00000000
00000100
00000000
00001000
00000000
00010000
,
00000000
01000000
00000000
10000000
00000000
00100000
00000000
10000000
,
00000000
00010000
00000000
00100000
00000000
01000000
00000000
00000000
,
00100000
10000000
00100000
01000000
,
00020000
00100000
00030000
00000000
,
00001000
00010000
00000100
00001000
,
00000010
00000100
00000001
00001000
,
00000100
00000010
00001000
00000010
,
00000200
00000001
00000300
00000000
,
00000010
00001000
00000100
00010000
,
00001000
00010000
01000000
00100000
,
01100000
00000000
00110000
00000000
,
00010000
01000000
00100000
00000000
00100000
00000000
00000000
00000000
,
01100000
00000000
10100000
00000000
,
10000000
00010000
01000000
00000000
01000000
00000000
00010000
00000000
,
00200000
01300000
00001000
00000000
,
00010000
00001000
00000100
00000000
00000100
00000000
00000000
00000000
,
00000001
00000100
00001000
00000010
,
00000100
00000001
00000010
00000000
00000100
00001000
00000010
00000000
,
00000200
00001300
00010000
00000000
,
00001000
00010000
01000000
00000000
01000000
00000000
10000000
00000000
,
00020000
00130000
10000000
00000000
,
00100000
01000000
00010000
00000000
00010000
00000000
10000000
00000000
,
00020000
00130000
00001000
00000000
,
00010000
00000010
00000100
00000000
00000100
00000000
00000000
00000000
,
00000001
00000010
00001000
00000010
,
00000100
00000010
00001000
00000000
00000100
00000010
00000001
00001000
,
00000100
00000000
00000010
00000000
00000100
00000010
00000100
00000000
,
00001000
00000010
00010000
00000000
,
00001000
00000000
00010000
00000000
00001000
00010000
00001000
00000000
,
00100000
01000000
10000000
00100000
,
10000000
00000000
00010000
00000000
00100000
00010000
10000000
00000000
,
00010000
00100000
00001000
00000000
,
01000000
00000000
00010000
00000000
00100000
00001000
00010000
00000000
,
00000100
00000010
00000100
00000000
,
00001000
00000000
00000010
00000000
00000100
00000001
00001000
00000000
,
00000010
00000000
00000001
00000000
00001000
00000100
00010000
00000000
,
00001000
00000000
00100000
00000000
00010000
01000000
00100000
00000000
,
01000000
00010000
10000000
00000000
,
01000000
00000000
00100000
00000000
10000000
00010000
10000000
00000000
,
01000000
00100000
01000000
00000000
,
00001000
00000000
00100000
00000000
00001000
00000100
00000010
00000000
,
00000100
00000001
00000100
00000000
,
00000010
00000000
00000000
00001000
00000000
00000100
00000000
00000000
,
00000000
00000010
00000000
00001000
00000000
00000100
00000000
00000000
,
00010000
00000000
00000000
01000000
00000000
00100000
00000000
00000000
,
00000000
10000000
00000000
01000000
00000000
00010000
00000000
00000000
;

//---------------dance-double - ----------------
#NOTES:
     dance-double:
     :
     Hard:
     8:
     :
00000000
00000000
00000000
00000000
,
00000000
00000000
00000000
00000000
,
00000000
00000000
00000000
00000000
,
00000000
00000000
00000000
00000000
,
00000000
00000000
00000000
00000000
,
00011000
00000000
00000000
00000000
00100000
00010000
01000000
00000000
,
00011000
00000000
00000000
00000000
00000010
00001000
00000100
00000000
,
00011000
00000000
00000000
00000000
00001000
00010000
01000000
00000000
,
00011000
00000000
00000000
00000000
00001001
00001000
00000010
00000100
,
00000110
00000001
00001000
00000100
,
00011000
00100000
00010000
10000000
,
10010000
01000000
00010000
00100000
,
00110000
00000000
00000000
00000000
00011000
00010000
00001000
00000100
,
00000110
00000100
00000001
00000010
,
00000110
00001000
00000100
00010000
,
00011000
00010000
00001000
00010000
,
00110000
00000000
00000000
00100000
00010000
01000000
10000000
00000000
,
00100000
00000000
01000000
00010000
00000000
00100000
00000000
00000000
,
01000000
00100000
00000000
00001000
00000000
00010000
00000000
00000000
,
00000100
00000000
00000010
00000100
00000000
00001000
00000000
00000000
,
00000010
00000100
00000000
00000001
00000000
00000100
00000000
00000000
,
00001000
00000000
00000100
00010000
00000000
00001000
00000000
00000000
,
00010000
00001000
00000000
00000100
00000000
00000010
00000000
00000000
,
00010000
00000000
00001000
00010000
00000000
01000000
00000000
00000000
,
00100000
00010000
00110000
00010010
,
00011000
00000000
00000100
00001000
00000000
00000010
00000000
00000000
,
00000110
00000001
00000110
00001000
,
00001001
00000000
00000100
00010000
00000000
00001000
00000000
00000000
,
00011000
00000000
00100000
00010000
00000000
01000000
00000000
00000000
,
01010000
00000000
00100000
10000000
00000000
00010000
00000000
00000000
,
01100000
00001000
00011000
00000100
,
00000110
00000000
00001000
00000010
00000000
00000100
00000000
00000000
,
00000101
00000000
00000010
00000100
00000000
00001000
00000000
00000000
,
00001100
00010000
00001000
00000000
00011000
00000000
01100000
00000000
,
10000000
01000000
00100000
01000000
10000000
00000000
00110000
00000000
,
01010000
00001000
00010000
00000000
00011000
00000000
00000110
00000000
,
00000001
00000010
00000100
00000010
00000001
00000100
00000010
00001000
,
00001010
00000100
00010000
00000000
00001100
00000000
01010000
00000000
,
11000000
10000000
00100000
01000000
00010000
00000000
01100000
00000000
,
10010000
00100000
00100000
00000000
00110000
00000000
00011000
00000000
,
00001100
00000100
00000010
00001000
00000010
00000000
00000110
00000000
,
00000001
00000100
00001000
00010000
,
00100000
10000000
01000000
00010000
,
00001000
00000010
00000001
00000100
,
00001000
00010000
01000000
10000000
,
00100000
01000000
00001000
00010000
,
00000100
00000010
00001000
00000001
,
00000100
00000010
00010000
00001000
,
00010000
00001000
00000100
00000010
00001000
00000100
00010000
00001000
,
00100000
00000000
01000000
00100000
00010000
01000000
00100000
10000000
,
00010000
10000000
00100000
00010000
,
00100000
00000000
00001000
00010000
01000000
00100000
00010000
01000000
,
00001000
00010000
00000100
00000010
,
00000001
00000000
00000100
00000010
00001000
00000100
00000010
00000100
,
00010000
00010000
00001000
00001000
,
00010000
00000000
00001000
00010000
01000000
00100000
00010000
10000000
,
00100000
00100000
01000000
01000000
,
00010000
00000000
10000000
01000000
00100000
00000000
10000000
00000000
,
00010000
00000000
00100000
00001000
00010000
00000000
00000100
00000000
,
00001000
00000000
00000010
00001000
00000100
00000000
00000001
00000000
,
00001000
00000000
00000010
00000100
00000001
00001000
00000100
00000000
,
00010000
00000000
00001000
00010000
00001000
00000000
00100000
00000000
,
00010000
00000000
01000000
00100000
10000000
00000000
00010000
00000000
,
10000000
00000000
01000000
00100000
00010000
00000000
01000000
00000000
,
00011000
00000000
00010000
00001000
00000100
00000010
00000100
00000000
,
00000001
00000000
00001000
00000100
00000000
00000010
00000000
00001000
,
00000000
00000001
00000000
00000100
00000000
00010000
00000000
00000000
,
01000000
00000000
00010000
10000000
00000000
00100000
00000000
01000000
,
00000000
00010000
00000000
00100000
00000000
00001000
00000000
00000000
;
