#TITLE:Cannibale;
#ARTIST:Stereo Total;
#BANNER:Cannibale.png;
#BACKGROUND:Cannibale-bg.png;
#CDTITLE:./CDTITLES/Dance Dance Revolution ULTRAMIX4.png;
#MUSIC:Cannibale.ogg;
#SAMPLESTART:21.888;
#SAMPLELENGTH:15;
#DISPLAYBPM:145;
#BPMS:0=139.13,20=145.015,36=144.289,52=145.602,68=147.239,84=146.045,100=147.844,116=145.897,132=146.341,148=147.996,164=147.541,180=147.996,196=148.76,212=146.939,228=145.946;

//---------------dance-single - ----------------
#NOTES:
     dance-single:
     :
     Beginner:
     1:
     :
0000
0000
0000
0000
,
0000
0000
0000
0000
,
0000
0000
0000
0000
,
0000
0000
0000
0000
,
0000
0000
0000
0000
,
1000
1000
0000
0000
,
1000
1000
0000
0000
,
0010
0000
0000
0000
,
0110
0000
0000
0000
,
0001
0001
0000
0000
,
0001
0001
0000
0000
,
0100
0000
0000
0000
,
1001
0000
0000
0000
,
0010
0000
0010
0000
,
0010
0000
1000
0000
,
0010
0000
0000
0000
,
0010
0000
0000
0000
,
0001
0000
0001
0000
,
0001
0000
0100
0000
,
0001
0000
0000
0000
,
0001
0000
0000
0000
,
1000
0000
0001
0000
,
1000
0000
0001
0000
,
0100
0000
0000
0000
,
0100
0000
0000
0000
,
0001
0000
1000
0000
,
0001
0000
1000
0000
,
0010
0000
0000
0000
,
0010
0000
0000
0000
,
0100
0000
0100
0000
,
0010
0010
0010
0000
,
0100
0000
0100
0000
,
0010
0000
0000
0000
,
1000
0000
1000
0000
,
0001
0001
0001
0000
,
1000
0000
1000
0000
,
0000
0000
0000
0000
,
0110
0000
0000
0000
,
0000
0000
0000
0000
,
1001
0000
0000
0000
,
0000
0000
0000
0000
,
1001
0000
0000
0000
,
0000
0000
0000
0000
,
0010
0000
0010
0000
,
0100
0000
0010
0000
,
0110
0000
0000
0000
,
0000
0000
0000
0000
,
1001
0000
0000
0000
,
0000
0000
0000
0000
,
1001
0000
0000
0000
,
0000
0000
0000
0000
,
1000
0000
0001
0000
,
0001
0001
0001
0000
,
1000
1000
0000
0000
,
1000
1000
0000
0000
,
0010
0000
0000
0000
,
0010
0000
0000
0000
,
0001
0001
0000
0000
,
1000
1000
0000
0000
,
0100
0000
0000
0000
,
0100
0000
0000
0000
;

//---------------dance-single - ----------------
#NOTES:
     dance-single:
     :
     Easy:
     3:
     :
0000
0000
0000
0000
,
0000
0000
0000
0000
,
0000
0000
0000
0000
,
0000
0000
0000
0000
,
0000
0000
0000
0000
,
1000
0010
1000
0000
,
0001
0100
0001
0000
,
1001
0000
0000
0000
,
0020
0000
0030
0000
,
1000
0001
1000
0000
,
0010
0100
0010
0000
,
0110
0000
0000
0000
,
2000
0000
3000
0000
,
0001
0000
0001
0000
,
0001
0100
0010
0000
,
1000
0000
1000
0000
,
1001
0000
0000
0000
,
1000
0000
1000
0000
,
1000
0100
0010
0000
,
0001
0000
0001
0000
,
1001
0000
0000
0000
,
0010
1000
0010
0100
,
0001
0010
0001
0010
,
0100
0000
0000
0000
,
2000
0000
3000
0000
,
0001
1000
0001
0100
,
0010
1000
0010
0000
,
1000
0000
0001
0000
,
1001
0000
0000
0000
,
0010
0000
1000
0000
,
0100
1000
0100
0010
,
0001
0000
1000
0000
,
0020
0000
0030
0000
,
1000
0000
0001
0000
,
1000
0100
0010
0001
,
1000
0000
0010
0000
,
0100
0000
0001
0000
,
1000
1000
0001
0000
,
1000
1000
0010
0000
,
1000
1000
0100
0000
,
0010
0010
0001
0000
,
1000
1000
0010
0000
,
1000
1000
0001
0000
,
1000
0000
0001
0000
,
0100
0010
1000
0000
,
0100
0100
0010
0000
,
0100
0100
1000
0000
,
0100
0100
1000
0000
,
1000
1000
0010
0000
,
0100
0100
0001
0000
,
0100
0100
0010
0000
,
1000
0000
0010
0000
,
0100
0001
0010
0100
,
1000
0001
1000
0000
,
1000
0010
1000
0000
,
1001
0000
0000
0000
,
0200
0000
0300
0000
,
0001
1000
0001
0000
,
0001
1000
0001
0000
,
1001
0000
0000
0000
,
0020
0000
0000
0000
,
0030
0000
0000
0000
;

//---------------dance-single - ----------------
#NOTES:
     dance-single:
     :
     Medium:
     5:
     :
0000
0000
0000
0000
,
0000
0000
0000
0000
,
0000
0000
0000
0000
,
0000
0000
0000
0000
,
0000
0000
0000
0000
,
2000
0000
3010
0000
0100
0100
0010
0000
,
0200
0000
0301
0000
1000
1000
0100
0000
,
1000
0000
0000
0001
0000
0000
0000
0000
,
1001
0000
0000
0000
,
0020
0000
1030
0000
0001
0001
0100
0000
,
0020
0000
0130
0000
0001
0001
0010
0000
,
0100
0000
0000
0010
0000
0000
0000
0000
,
0110
0000
0000
0000
0100
0010
0000
0000
,
0001
1000
0100
0100
1000
0000
0010
0000
,
0100
0001
0010
0100
1000
0000
0001
0000
,
1002
0000
0000
0103
0000
0000
0000
0000
,
2002
0000
3003
0000
,
0010
0001
1000
1000
0010
0000
0100
0000
,
0001
0010
0100
1000
0010
0000
0100
0000
,
0010
1000
0000
0001
0000
0000
0000
0000
,
0220
0000
0330
0000
,
2000
3010
0101
0101
,
0002
0013
1001
1001
,
0020
0000
0000
0130
0000
0000
0000
0000
,
2000
0000
0000
0000
0100
3100
0000
0000
,
0010
0100
1000
1000
0001
0000
0100
0000
,
0010
1000
0100
0010
0001
0000
0100
0000
,
0010
0100
0000
0001
0000
0000
0000
0000
,
2002
0000
3003
0000
,
1000
0100
0010
0001
,
1000
0000
0100
0000
0010
0010
0001
0000
,
1000
0000
0001
0000
0100
0000
0010
0200
,
0000
0000
0000
0000
0000
0300
0000
0000
,
0001
0100
0010
1000
,
0001
0000
0100
0000
0010
0010
1000
0000
,
1010
0000
1010
0000
1010
0000
1000
0010
,
0000
1000
0010
1000
0010
0000
1001
0000
,
0001
0100
0001
0000
1000
0010
1000
0000
,
0001
0100
0001
0000
1000
0000
0001
0000
,
1000
0100
1000
0000
0001
0010
0001
0000
,
1000
0100
1000
0000
1001
0000
0000
0000
,
0010
1000
0100
0000
0010
0001
0100
0000
,
0010
1000
0100
0000
1000
0000
0010
0000
,
0200
0000
0000
0300
,
0001
0001
1000
1000
,
0010
1000
0010
0000
0100
0001
0100
0000
,
0010
1000
0010
0000
1000
0000
0001
0000
,
0010
0001
0010
0000
0100
1000
0100
0000
,
0010
0001
0010
0000
0011
0000
0000
0000
,
0001
1000
0100
0000
1000
0001
0100
0000
,
0100
0001
1000
0000
0010
0000
0100
0000
,
0220
0000
0000
0330
,
0110
1001
0110
0000
,
2001
0000
3010
0000
0100
0100
0010
0000
,
0200
0000
0301
0000
0010
0010
0100
0000
,
1000
0000
0000
1001
0000
0000
0000
0000
,
0110
0000
0000
0000
,
1002
0000
0013
0000
0001
0001
0100
0000
,
0020
0000
1030
0000
0001
0001
1000
0000
,
0110
0000
0000
1001
0000
0000
0000
0000
,
0220
0000
0000
0000
,
0330
0000
0000
0000
;

//---------------dance-single - ----------------
#NOTES:
     dance-single:
     :
     Hard:
     7:
     :
0000
0000
0000
0000
,
0000
0000
0000
0000
,
0000
0000
0000
0000
,
0000
0000
0000
0000
,
0000
0000
0000
0000
,
1000
0100
1000
0100
1000
0100
1000
0100
,
1000
0100
1000
0100
1000
0100
1000
0100
,
0110
0000
0000
0011
0000
0000
0000
0000
,
0002
0000
0000
0000
0000
0003
0000
0000
,
0001
0100
0001
0100
0001
0100
0001
0100
,
0001
0100
0001
0100
0001
0100
0001
0100
,
0110
0000
0000
1010
0000
0000
0000
0000
,
2000
0000
0000
0000
0010
3010
0000
0000
,
0001
0010
0100
0010
0100
0010
0100
1000
,
0100
0010
0100
0010
0100
0010
0001
0000
,
1001
0000
0000
0110
0000
0000
0000
0000
,
0002
0000
0000
0000
0100
0103
0000
0000
,
0010
1000
0001
1000
0001
1000
0001
0100
,
0001
1000
0001
1000
0001
1000
0010
0000
,
1010
1001
0000
0101
0000
0000
0000
0000
,
2000
0000
0000
0000
0010
3010
0000
0000
,
1000
0100
0010
0001
0100
0010
1000
0100
,
0010
0001
1000
0100
0010
0001
1000
0000
,
0110
0000
0000
1100
0000
0000
0000
0000
,
0020
0000
0000
0000
1000
1030
0000
0000
,
0001
0010
0100
1000
0100
0010
0001
1000
,
0010
0100
0001
1000
0010
0100
0001
0000
,
0101
1001
0000
0110
0000
0000
0000
0000
,
2000
0000
0000
0000
0001
3001
0000
0000
,
2010
0000
3001
0001
0020
0000
0100
0130
,
2000
0000
3010
0010
0100
0000
0101
0000
,
1100
0000
0010
0000
0100
0000
0010
0200
,
0000
0000
0001
0001
0001
0001
0301
0001
,
0020
0000
0130
0100
2000
0000
0010
3010
,
0200
0000
0310
0010
1000
0000
1001
0000
,
0011
0000
1010
0000
1100
0000
0101
2002
,
0000
0000
3003
0000
,
1000
0100
0010
0001
1000
0010
0100
0001
,
1000
0001
0010
0001
0000
1000
0100
0001
,
0100
1000
0010
0100
0001
0100
1000
0100
,
0001
1000
0100
1000
0000
0001
1000
0000
,
0010
1000
0100
0010
0001
0100
0010
1000
,
0010
0100
1000
0100
0010
0000
0000
0000
,
1010
1100
0011
1001
,
2000
0000
0020
3000
0130
0001
0000
1000
,
0010
0100
0001
0010
0100
1000
0010
1000
,
0100
0010
0001
0010
0000
0001
0010
0100
,
1000
0010
0001
0010
1000
0100
0010
0001
,
0010
0001
0100
0001
0100
0000
0000
0000
,
0100
0010
1000
0100
1000
0010
0100
0001
,
1000
0010
0100
0010
1000
0000
0001
0000
,
1010
0110
1010
1001
,
0200
0000
0020
0300
1030
0001
0000
0000
,
0110
0100
0010
0100
0010
0100
0010
0100
,
0010
0100
0010
0100
0010
0100
0010
0100
,
0001
0000
0000
1100
0000
0000
0000
0000
,
2010
0000
0000
0000
0001
3001
0000
0000
,
1001
0100
1000
0100
1000
0100
1000
0100
,
1000
0100
1000
0100
1000
0100
1000
0100
,
0010
0000
0000
0011
0000
0000
0000
0000
,
0201
0000
0000
0000
0010
0020
0000
0000
,
0330
0000
0000
0000
;

//---------------dance-double - ----------------
#NOTES:
     dance-double:
     :
     Beginner:
     1:
     :
00000000
00000000
00000000
00000000
,
00000000
00000000
00000000
00000000
,
00000000
00000000
00000000
00000000
,
00000000
00000000
00000000
00000000
,
00000000
00000000
00000000
00000000
,
00000010
00000010
00000000
00000000
,
00001000
00001000
00000000
00000000
,
00000100
00000000
00000000
00000000
,
00010000
00000000
00000000
00000000
,
00001000
00001000
00000000
00000000
,
01000000
01000000
00000000
00000000
,
00100000
00000000
00000000
00000000
,
01100000
00000000
00000000
00000000
,
00100000
00000000
00100000
00000000
,
00100000
00000000
10000000
00000000
,
00010000
00000000
00000000
00000000
,
01000000
00000000
00000000
00000000
,
00001000
00000000
00001000
00000000
,
00001000
00000000
00010000
00000000
,
00000010
00000000
00000000
00000000
,
00000100
00000000
00000000
00000000
,
00000001
00000000
00001000
00000000
,
00000100
00000000
00010000
00000000
,
00001000
00000000
00000000
00000000
,
01000000
00000000
00000000
00000000
,
00010000
00000000
10000000
00000000
,
00100000
00000000
10000000
00000000
,
00010000
00000000
00000000
00000000
,
00100000
00000000
00000000
00000000
,
00001000
00000000
00001000
00000000
,
00010000
00010000
00010000
00000000
,
00000100
00000000
00000100
00000000
,
00001000
00000000
00000000
00000000
,
00000010
00000000
00000010
00000000
,
00001000
00001000
00001000
00000000
,
00000001
00000000
00000001
00000000
,
00000000
00000000
00000000
00000000
,
00001001
00000000
00000000
00000000
,
00000000
00000000
00000000
00000000
,
00001000
00000000
00000000
00000000
,
00000000
00000000
00000000
00000000
,
00011000
00000000
00000000
00000000
,
00000000
00000000
00000000
00000000
,
00100000
00000000
00100000
00000000
,
00001000
00000000
00100000
00000000
,
00010000
00000000
00000000
00000000
,
00000000
00000000
00000000
00000000
,
10010000
00000000
00000000
00000000
,
00000000
00000000
00000000
00000000
,
01100000
00000000
00000000
00000000
,
00000000
00000000
00000000
00000000
,
10000000
00000000
00010000
00000000
,
00100000
00100000
00100000
00000000
,
00001000
00001000
00000000
00000000
,
00010000
00010000
00000000
00000000
,
00000100
00000000
00000000
00000000
,
00001000
00000000
00000000
00000000
,
00000010
00000010
00000000
00000000
,
00001000
00001000
00000000
00000000
,
00000001
00000000
00000000
00000000
,
00000010
00000000
00000000
00000000
;

//---------------dance-double - ----------------
#NOTES:
     dance-double:
     :
     Easy:
     3:
     :
00000000
00000000
00000000
00000000
,
00000000
00000000
00000000
00000000
,
00000000
00000000
00000000
00000000
,
00000000
00000000
00000000
00000000
,
00000000
00000000
00000000
00000000
,
00000010
00001000
00000010
00000000
,
00010000
00001000
00010000
00000000
,
00011000
00000000
00000000
00000000
,
00200000
00000000
00300000
00000000
,
00010000
10000000
00010000
00000000
,
01000000
00001000
01000000
00000000
,
00011000
00000000
00000000
00000000
,
00000200
00000000
00000300
00000000
,
00010000
00000000
00010000
00000000
,
00000010
00001000
00000010
00000000
,
00001000
00000000
00001000
00000000
,
00001001
00000000
00000000
00000000
,
00000100
00000000
00000100
00000000
,
00000100
00010000
00001000
00000000
,
00001000
00000000
00001000
00000000
,
00011000
00000000
00000000
00000000
,
00010000
00001000
00100000
01000000
,
10000000
00100000
01000000
00010000
,
00100000
00000000
00000000
00000000
,
00002000
00000000
00003000
00000000
,
00010000
00000010
00001000
00000100
,
00000010
00000001
00001000
00000000
,
00000001
00000000
00000100
00000000
,
00000110
00000000
00000000
00000000
,
00000010
00000000
00010000
00000000
,
00001000
00100000
00010000
10000000
,
00010000
00000000
00100000
00000000
,
00002000
00000000
00003000
00000000
,
00010000
00000000
00000010
00000000
,
00001000
00000100
00000010
00000001
,
00000100
00000000
00000010
00000000
,
00010000
00000000
00001000
00000000
,
01000000
01000000
00100000
00000000
,
01000000
01000000
00010000
00000000
,
00010000
00010000
10000000
00000000
,
01000000
00001000
00001000
00000000
,
00010000
00010000
00000010
00000000
,
00001000
00001000
00000100
00000000
,
00000010
00000000
00000001
00000000
,
00000001
00001000
00000010
00000000
,
00000100
00000100
00000010
00000000
,
00001000
00001000
00000100
00000000
,
00010000
00010000
00001000
00000000
,
00100000
00100000
00001000
00000000
,
01000000
01000000
00010000
00000000
,
01000000
01000000
00100000
00000000
,
10000000
00000000
00010000
00000000
,
01000000
00001000
00010000
00000010
,
00001000
00000001
00000100
00000000
,
00000010
00001000
00000010
00000000
,
00001001
00000000
00000000
00000000
,
00000200
00000000
00000300
00000000
,
00010000
00001000
00010000
00000000
,
00001000
00100000
00001000
00000000
,
00110000
00000000
00000000
00000000
,
00020000
00000000
00000000
00000000
,
00030000
00000000
00000000
00000000
;

//---------------dance-double - ----------------
#NOTES:
     dance-double:
     :
     Medium:
     5:
     :
00000000
00000000
00000000
00000000
,
00000000
00000000
00000000
00000000
,
00000000
00000000
00000000
00000000
,
00000000
00000000
00000000
00000000
,
00000000
00000000
00000000
00000000
,
00000100
00000000
00010000
00000000
00001000
00001000
00100000
00000000
,
00020000
00030000
20000000
30000000
,
10010000
00000000
00000000
00100000
00000000
00000000
00000000
00000000
,
00002000
00000000
00003000
00000000
,
00020000
00000000
00030010
00000000
00001000
00001000
00000001
00000000
,
00000200
00000300
00000020
00000030
,
00000110
00000000
00000000
00001000
00000000
00000000
00000000
00000000
,
00000200
00000000
00000300
00000000
,
00010000
00001000
00100000
00100000
00010000
00000000
10000000
00000000
,
01000000
10000000
00100000
01000000
00010000
00000000
00100000
00000000
,
00002000
00000000
00000000
00013000
00000000
00000000
00000000
00000000
,
00012000
00000000
00003000
00000000
,
00000100
00001000
00000010
00000010
00000100
00000000
00000001
00000000
,
00001000
00000100
00010000
00001000
00100000
00000000
00010000
00000000
,
01000000
00100000
00000000
10000000
00000000
00000000
00000000
00000000
,
10010000
00000000
00000000
00000000
,
10000000
01000000
00010000
00001000
,
00000010
00000001
00000011
00000011
,
00000002
00000000
00000000
00001003
00000000
00000000
00000000
00000000
,
00020100
00000000
00030000
00000000
,
00001000
00100000
00010000
00010000
01000000
00000000
00100000
00000000
,
10000000
00010000
00100000
00001000
00010000
00000100
00001000
00000000
,
00000010
00000100
00000000
00000001
00000000
00000000
00000000
00000000
,
00001001
00000000
00000000
00000000
,
00000001
00000010
00000100
00001000
,
00000100
00000000
00010000
00000000
00001000
00001000
00100000
00000000
,
00010000
00000000
10000000
00000000
01000000
00000000
00100000
00020000
,
00000000
00000000
00030000
00000000
,
00001000
00000100
00000010
00000001
,
00001000
00000000
00000010
00000000
00001000
00001000
00000100
00000000
,
00011000
00000000
00011000
00000000
00011000
00000000
00001000
00100000
,
00000000
00010000
01000000
00010000
01000000
00000000
10010000
00000000
,
00010000
01000000
00010000
00000000
01000000
00001000
01000000
00000000
,
00001000
00010000
00001000
00000000
00010000
00000000
00000010
00000000
,
00001000
00000001
00001000
00000000
00000001
00000100
00000001
00000000
,
00000100
00000010
00000100
00000000
00001010
00000000
00000000
00000000
,
00000010
00010000
00001000
00000000
00010000
00001000
00100000
00000000
,
00010000
10000000
00100000
00000000
01000000
00000000
00001000
00000000
,
00020000
00000000
00000000
00030000
,
00000100
00000100
00001000
00001000
,
00000001
00000010
00000001
00000000
00001000
00000010
00001000
00000000
,
00000010
00010000
00000010
00000000
00010000
00000000
00001000
00000000
,
00100000
00010000
00100000
00000000
01000000
10000000
01000000
00000000
,
00100000
00001000
00100000
00000000
00011000
00000000
00000000
00000000
,
00000100
00001000
00000001
00000000
00000100
00000010
00001000
00000000
,
00000100
00010000
00001000
00000000
00001000
00000000
00010000
00000000
,
00022000
00000000
00000000
00033000
,
00001000
00100000
00010000
10000000
,
00020000
00000000
00130000
00000000
00001000
00001000
00010000
00000000
,
00000200
00000300
00000020
00000030
,
00000110
00000000
00000000
00000010
00000000
00000000
00000000
00000000
,
00000002
00000000
00000003
00000000
,
00002000
00000000
00003100
00000000
00010000
00010000
00001000
00000000
,
00200000
00300000
02000000
03000000
,
00000000
00000000
00000000
01100000
00000000
00000000
00000000
00000000
,
00220000
00000000
00000000
00000000
,
00330000
00000000
00000000
00000000
;

//---------------dance-double - ----------------
#NOTES:
     dance-double:
     :
     Hard:
     7:
     :
00000000
00000000
00000000
00000000
,
00000000
00000000
00000000
00000000
,
00000000
00000000
00000000
00000000
,
00000000
00000000
00000000
00000000
,
00000000
00000000
00000000
00000000
,
00001000
00010000
00001000
00010000
00001000
00010000
00001000
00010000
,
00001000
00010000
00001000
00010000
00001000
00010000
00001000
00010000
,
00000100
00000000
00000000
00001100
00000000
00000000
00000000
00000000
,
00002001
00000000
00000000
00000000
00000001
00003001
00000000
00000000
,
00000001
00000100
00000001
00000100
00001000
00000100
00001000
00000100
,
00001000
00010000
00001000
00010000
00100000
00010000
00100000
00010000
,
00100000
00000000
00000000
01100000
00000000
00000000
00000000
00000000
,
20100000
00000000
00000000
00000000
00100000
30100000
00000000
00000000
,
10010000
00000000
00011000
00000000
00001000
00010000
00001000
00000000
,
00011000
00000000
00001001
00000000
00000001
00000010
00000100
00001000
,
00000010
00000000
00000000
00001000
00000000
00000000
00000000
00000000
,
00000020
00000000
00000000
00000000
00001000
00001030
00000000
00000000
,
00000010
00001000
00000100
00010000
00001000
00100000
00010000
10000000
,
01000000
00100000
00010000
00100000
00001000
00010000
00000100
00000000
,
00001000
00000001
00000000
00000010
00000000
00000000
00000000
00000000
,
00000020
00000000
00000000
00000000
00001000
00001030
00000000
00000000
,
00001001
00000000
00011000
00000000
00001000
00010000
00001000
00010000
,
00011000
00000000
10010000
00000000
00100000
10000000
01000000
00100000
,
00001000
00000000
00000000
00010000
00000000
00000000
00000000
00000000
,
00002000
00000000
00000000
00000000
00010000
00013000
00000000
00000000
,
00000100
00001000
00000001
00000100
00000010
00001000
00000100
00010000
,
00001000
01000000
00100000
10000000
00100000
00010000
00100000
00000000
,
10000000
00010000
00000000
01000000
00000000
00000000
00000000
00000000
,
02000000
00000000
00000000
00000000
00100000
03100000
00000000
00000000
,
00002000
00000000
00023000
00000000
00030100
00001000
00000200
00000000
,
00000320
00000000
00000032
00000000
00001003
00000100
00020000
00000000
,
00032000
00000000
00103000
00010000
20000000
00000000
30010000
00000000
,
00100000
00001000
00100000
00001000
00100000
00001000
00100000
00000000
,
00002000
00000000
00023000
00000000
00030010
00001000
00000200
00000000
,
00002300
00000000
00003002
00000000
00000013
00000100
00001000
00000000
,
00011000
00110000
01100000
11000000
,
20020000
00000000
00000000
00000000
00000000
30030000
00000000
00000000
,
10000000
00010000
00100000
00000000
00100000
00001000
00010000
00000000
,
00010000
00000100
00001000
00000000
00001100
00000000
00000011
00000000
,
00000001
00001000
00000010
00000000
00000010
00010000
00001000
00000000
,
00001000
01000000
00100000
00000000
01100000
00000000
10010000
00000000
,
01000000
00001000
00010000
00000000
00010000
00000100
00001000
00000000
,
00001000
00000100
00010000
00000000
00011000
00000000
00000000
00000000
,
00000010
00001000
00000100
00010000
,
00001000
00001000
01000000
00100000
,
10000000
01000000
00100000
00000000
00100000
00001000
00000100
00000000
,
00000100
00000010
00000001
00000000
00000011
00000000
00001100
00000000
,
00001000
00000100
00001000
00000000
00010000
01000000
00010000
00000000
,
10000000
01000000
10000000
00000000
10010000
00000000
01100000
00000000
,
10000000
00100000
10000000
00000000
00010000
00100000
00010000
00000000
,
00001000
00000010
00001000
00000000
00001001
00000000
00000000
00000000
,
00000001
00001000
00000100
00010000
,
00001000
00100000
00001000
00010000
,
00011000
00010000
00001000
00010000
00001000
00010000
00001000
00010000
,
00001000
00010000
00001000
00010000
00001000
00010000
00001000
01000000
,
00100000
00000000
00000000
01100000
00000000
00000000
00000000
00000000
,
20010000
00000000
00000000
00000000
00100000
30100000
00000000
00000000
,
10010000
01000000
10000000
01000000
00010000
01000000
00010000
01000000
,
00010000
00001000
00010000
00001000
00000010
00001000
00000010
00001000
,
00000010
00000000
00000000
00000110
00000000
00000000
00000000
00000000
,
00000012
00000000
00000000
00000000
00000100
00000200
00000000
00000000
,
00000303
00000000
00000000
00000000
;
