#TITLE:CHOCOLATE PHILOSOPHY;
#ARTIST:YUU TOKIWA;
#BANNER:CHOCOLATE PHILOSOPHY.png;
#BACKGROUND:CHOCOLATE PHILOSOPHY-bg.png;
#CDTITLE:./CDTITLES/GuitarFreaks&DrumMania.png;
#MUSIC:CHOCOLATE PHILOSOPHY.ogg;
#SAMPLESTART:40.132;
#SAMPLELENGTH:15;
#DISPLAYBPM:220;
#BPMS:0=219,6=220;

//---------------dance-single - ----------------
#NOTES:
     dance-single:
     :
     Beginner:
     1:
     :
0000
0000
0000
0000
,
0000
0000
0000
0000
,
0000
0000
0000
0000
,
0000
0000
0000
0000
,
0000
0000
0000
0000
,
0000
0000
0000
0000
,
0000
0000
0000
0000
,
0000
0000
0010
0000
,
0000
0100
0000
0000
,
0001
0000
0000
0000
,
0000
0000
1000
0000
,
0000
0000
0000
0000
,
0100
0000
0000
0010
,
0000
0000
1001
0000
,
0000
0000
0000
0000
,
0001
0000
0000
0100
,
0000
0000
0010
0000
,
0000
1000
0000
0000
,
0001
0000
1000
0000
,
0000
0000
0001
0000
,
0000
0000
0000
0000
,
0010
0000
0000
0100
,
0000
0000
1000
0000
,
0000
0001
0000
0000
,
0100
0000
0010
0000
,
0000
0000
0110
0000
,
0000
0000
0000
0000
,
0010
0000
0000
1000
,
0000
0000
0001
0000
,
0000
0010
0000
0000
,
0100
0000
0010
0000
,
0000
0000
0001
0000
,
0000
0000
0000
0000
,
1000
0000
0000
0010
,
0000
0000
0100
0000
,
0000
0001
0000
0000
,
1000
0000
0000
0000
,
0000
0000
0001
0000
,
0000
1000
0000
0000
,
0001
0000
0000
1000
,
0000
0000
0100
0000
,
0000
0000
0000
0000
,
0010
0000
0000
0001
,
0000
0000
0100
0000
,
0000
0010
0000
0000
,
0100
0000
0000
0010
,
0000
0000
1000
0000
,
0000
0000
0000
0000
,
0100
0000
0000
0010
,
0000
0000
0001
0000
,
0000
0100
0000
0000
,
0001
0000
0000
0100
,
0000
0000
0010
0000
,
0000
0000
0000
0000
,
1000
0000
0000
0001
,
0000
0000
0010
0000
,
0000
0100
0000
0000
,
0010
0000
0000
0100
,
0000
0000
1000
0000
,
0000
0000
0000
0000
,
0001
0000
0000
1000
,
0000
0000
1001
0000
,
0000
0000
0000
0000
,
0001
0000
0000
0010
,
0000
0000
0100
0000
,
0000
0000
0000
0000
,
0010
0000
0000
0100
,
0000
0000
1000
0000
,
0000
0001
0000
0000
,
0000
0000
1000
0000
,
0000
0000
0000
0100
,
0000
0000
0010
0000
,
0000
0000
0000
0000
,
0001
0000
0000
1000
,
0000
0000
0010
0000
,
0000
0100
0000
0000
,
0010
0000
0000
1000
,
0000
0000
0001
0000
,
0000
0000
0000
0000
,
0010
0000
0000
0100
,
0000
0000
1000
0000
,
0000
0001
0000
0000
,
1000
0000
0000
0010
,
0000
0000
0100
0000
,
0000
0000
0000
0000
,
0001
0000
0000
0100
,
0000
0000
0010
0000
,
0000
1000
0000
0000
,
1000
0000
0000
0000
,
0000
0000
0001
0000
,
0000
0000
0000
0000
,
0010
0000
0000
0100
,
0000
0000
1000
0000
,
0000
0010
0000
0000
,
0100
0000
0000
0001
,
0000
0000
1000
0000
,
0000
0100
0000
0000
,
1000
0000
0000
1001
;

//---------------dance-single - ----------------
#NOTES:
     dance-single:
     :
     Easy:
     2:
     :
0000
0000
0000
0000
,
0000
0000
0000
0000
,
0000
0000
0000
0000
,
0000
0000
0000
0000
,
0000
0000
0000
0000
,
0000
0000
0000
0000
,
0000
0000
0000
0000
,
0000
0000
0010
0000
,
0000
0100
0000
0000
,
0002
0000
0000
0000
,
0000
0003
2000
0000
,
0000
0000
0000
3000
,
0100
0000
0000
0010
,
0000
0000
1001
0000
,
0000
0000
0000
0000
,
0001
0000
0000
0100
,
0000
0000
0010
0000
,
0000
1000
0000
0000
,
0001
0000
1000
0000
,
0000
0000
0001
0000
,
0000
0000
0000
0000
,
0010
0000
0000
0100
,
0000
0000
1000
0000
,
0000
0001
0000
0000
,
0100
0000
0010
0000
,
0000
0000
0110
0000
,
0000
0000
0000
0000
,
0010
0000
0000
1000
,
0000
0000
0001
0000
,
0000
0010
0000
0000
,
0100
0000
0010
0000
,
0000
0000
0001
0000
,
0000
0000
0000
0000
,
1000
0000
0000
0010
,
0000
0000
0100
0000
,
0000
0001
0000
0000
,
2000
0000
0000
0000
,
0000
3000
0001
0000
,
0000
1000
0000
0000
,
0001
0000
0000
1000
,
0000
0000
0200
0000
,
0000
0000
0000
0300
,
0010
0000
0000
0001
,
0000
0000
0100
0000
,
0000
0010
0000
0000
,
0100
0000
0000
0010
,
0000
0000
2000
0000
,
0000
0000
0000
3000
,
0100
0000
0000
0010
,
0000
0000
0001
0000
,
0000
0100
0000
0000
,
0001
0000
0000
0100
,
0000
0000
0020
0000
,
0000
0000
0000
0030
,
1000
0000
0000
0001
,
0000
0000
0010
0000
,
0000
0100
0000
0000
,
0010
0000
0000
0100
,
0000
0000
2000
0000
,
0000
0000
0000
3000
,
0001
0000
0000
1000
,
0000
0000
1001
0000
,
0000
0000
0000
0000
,
0001
0000
0000
0010
,
0000
0000
0100
0000
,
0000
0000
0000
0000
,
0010
0000
0000
0100
,
0000
0000
1000
0000
,
0000
0002
0000
0003
,
0000
0000
2000
0000
,
3000
0000
0000
0100
,
0000
0000
0010
0000
,
0000
0000
0000
0000
,
0001
0000
0000
1000
,
0000
0000
0010
0000
,
0000
0100
0000
0000
,
0010
0000
0000
1000
,
0000
0000
0002
0000
,
0000
0000
0000
0003
,
0010
0000
0000
0100
,
0000
0000
1000
0000
,
0000
0001
0000
0000
,
1000
0000
0000
0010
,
0000
0000
0200
0000
,
0000
0000
0000
0300
,
0001
0000
0000
0100
,
0000
0000
0010
0000
,
0000
1000
0000
0000
,
2000
0000
0000
0000
,
0000
3000
0002
0000
,
0000
0000
0000
0003
,
0010
0000
0000
0100
,
0000
0000
1000
0000
,
0000
0010
0000
0000
,
0100
0000
0000
0001
,
0000
0000
1000
0000
,
0000
0100
0000
0000
,
1000
0000
0000
1001
;

//---------------dance-single - ----------------
#NOTES:
     dance-single:
     :
     Medium:
     4:
     :
0000
0000
0000
0000
,
0000
0000
0000
0000
,
0000
0000
0000
0000
,
0000
0000
0000
0000
,
0000
0000
0000
0000
,
0000
0000
0000
0000
,
0000
0000
0000
0000
,
0000
0000
0010
0000
,
1000
0001
0000
1000
,
0200
0000
0300
1000
,
0000
0001
0200
0000
,
0300
0001
0000
1000
,
0200
0000
0300
1000
,
0000
0000
1001
0000
,
0000
0001
0000
0000
,
0100
0000
0000
0100
,
0000
0000
0010
0000
,
0000
0010
0000
0000
,
2000
0000
3002
0000
,
0003
0000
0010
0000
,
0000
0010
0000
0000
,
0100
0000
0000
0100
,
0000
0000
1000
0000
,
0000
1000
0000
0000
,
0020
0000
0230
0000
,
0300
0000
0110
0000
,
0000
0010
0000
0000
,
1000
0000
0000
1000
,
0000
0000
0001
0000
,
0000
0001
0000
0000
,
0020
0000
0230
0000
,
0300
0000
1000
0000
,
0000
1000
0000
0000
,
0001
0000
0000
0001
,
0000
0000
0100
0000
,
0000
0100
0000
0000
,
0020
0000
0000
0030
,
0000
0000
1000
0000
,
0100
0010
0000
0100
,
1000
0000
0001
0100
,
0000
0010
0200
0000
,
0000
0000
0300
0000
,
0010
0000
1000
0001
,
0000
0010
0100
0000
,
1000
0010
0000
1000
,
0100
0000
0010
0001
,
0000
0100
0002
0000
,
0000
0000
0000
0003
,
0100
0000
0010
1000
,
0000
0010
0100
0000
,
0101
0000
0000
1001
,
0000
0000
1100
0000
,
0000
0220
0000
0000
,
0000
0000
0330
0000
,
0001
0000
1000
0001
,
0000
0010
0001
0000
,
0011
0000
0000
0110
,
0000
0000
1100
0000
,
0000
0101
0000
0000
,
2002
0000
0000
3003
,
0000
0010
0100
0010
,
0000
0000
1001
0000
,
0000
0100
0000
0000
,
0001
0000
0000
0010
,
0000
0000
0100
0000
,
0000
1000
0000
0000
,
0010
0000
0000
0100
,
0000
0000
0001
0000
,
0000
1000
1000
0000
,
0000
0000
0001
0001
,
0000
0000
0000
0100
,
0000
0000
0010
0000
,
0000
1000
0000
0000
,
0002
0000
0003
2000
,
0000
3000
0001
0000
,
0010
0100
0000
0010
,
0001
0000
1000
0010
,
0000
0100
0020
0000
,
0000
0000
0030
0000
,
0100
0000
0001
1000
,
0000
0100
0010
0000
,
0001
0100
0000
0001
,
0010
0000
0100
1000
,
0000
0010
2000
0000
,
0000
0000
0000
3000
,
0001
0000
1000
0100
,
0000
0010
0001
0000
,
0010
0100
0000
1000
,
0100
0000
1000
0010
,
0000
1000
0001
0000
,
0000
0101
0000
0000
,
1100
0000
0000
0110
,
0000
0000
1001
0000
,
1000
0010
0000
0100
,
0001
0000
1000
0100
,
0000
1000
0010
0000
,
0000
0110
0000
0000
,
0101
0000
0000
2002
,
0000
3003
0000
0000
;

//---------------dance-single - ----------------
#NOTES:
     dance-single:
     :
     Hard:
     8:
     :
0000
0000
0000
0000
,
0000
0000
0000
0000
,
0000
0000
0000
0000
,
0000
0000
0000
0000
,
0000
0000
0000
0000
,
0000
0000
0000
0000
,
0000
0000
0000
0000
,
0000
0000
0000
0000
0000
0000
0000
0000
0000
0000
0000
0000
0000
0000
0000
0000
0000
0000
0000
0000
0000
0000
0000
0000
0000
0000
0000
0000
0000
0000
0000
0000
0010
0000
0000
0000
0000
0000
0000
0000
0000
0000
0000
0000
0000
0000
0000
0000
0100
0000
0000
0000
0000
0000
0000
0000
0000
0000
0000
0001
0000
0000
0000
0000
,
1000
0001
0100
0010
,
2000
0000
3001
1000
,
0010
0100
0002
0000
,
0103
0001
1000
0100
,
0020
0000
0000
0000
,
0031
1000
0002
0000
,
1003
0001
0100
0001
,
0020
0000
0031
1000
,
0100
1000
0020
0000
,
0130
0001
0010
0001
,
2000
0000
3002
0000
,
0013
0001
0100
0010
,
0100
0001
1000
0100
,
2000
0000
3100
1000
,
0010
0100
0020
0000
,
0130
0010
0100
0001
,
2000
0000
3002
0000
,
0013
0100
1000
0100
,
0010
0001
0100
0001
,
2000
0000
3010
0000
,
0100
0010
0100
0002
,
0000
0000
1003
0100
,
2000
0000
3100
0000
,
1000
0001
1000
0010
,
0100
0001
0010
0001
,
2000
0000
3100
0000
,
0010
0001
0200
0000
,
0301
0010
0100
1000
,
0020
0000
0030
0100
,
0001
0000
0000
0000
0000
0000
0000
0000
0000
0000
0000
0000
0000
0000
0000
0000
1000
0000
0000
0000
0000
0000
0000
0000
0000
0000
0000
0000
0000
0000
0000
0000
0100
0000
0000
0000
0000
0000
0000
0000
0000
0000
0000
0000
0000
0000
0000
0000
1000
0000
0000
0000
0000
0000
0000
0000
0000
0000
0000
0100
0000
0000
0000
0000
,
1000
0000
0000
0000
0000
0000
0000
0000
0000
0000
0000
0000
0000
0000
0000
0000
0001
0000
0000
0000
0000
0000
0000
0000
0000
0000
0000
0000
0000
0000
0000
0000
0100
0000
0000
0000
0000
0000
0000
0000
0000
0000
0000
0001
0000
0000
0000
0000
0100
0000
0000
0000
0000
0000
0000
0000
0000
0000
0000
0000
0000
0000
0000
0000
,
0010
0000
0000
0000
0000
0000
0000
0000
0000
0000
0000
0000
0000
0000
0000
0000
1000
0000
0000
0000
0000
0000
0000
0000
0000
0000
0000
0010
0000
0000
0000
0000
1000
0000
0000
0000
0000
0000
0000
0000
0000
0000
0000
0000
0000
0000
0000
0000
0001
0000
0000
0000
0000
0000
0000
0000
0000
0000
0000
0000
0000
0000
0000
0000
,
0010
0000
0000
0000
0000
0000
0000
0000
0000
0000
0000
0001
0000
0000
0000
0000
0010
0000
0000
0000
0000
0000
0000
0000
0000
0000
0000
0000
0000
0000
0000
0000
0200
0000
0000
0000
0000
0000
0000
0000
0000
0000
0000
0000
0000
0000
0000
0000
0000
0000
0000
0000
0000
0000
0000
0000
0000
0000
0000
0000
0000
0000
0000
0000
,
1300
0001
1000
0010
,
0200
0000
0301
0020
,
0000
0000
0000
0000
0000
0000
0000
0000
0000
0000
0000
0000
0000
0000
0000
0000
0130
0000
0000
0000
0000
0000
0000
0000
0000
0000
0000
0000
0000
0000
0000
0000
1000
0000
0000
0000
0000
0000
0000
0000
0000
0000
0000
0000
0000
0000
0000
0000
1000
0000
0000
0000
0000
0000
0000
0000
0000
0000
0000
0001
0000
0000
0000
0000
,
0010
0000
0000
0000
0000
0000
0000
0000
0000
0000
0000
0000
0000
0000
0000
0000
0100
0000
0000
0000
0000
0000
0000
0000
0000
0000
0000
0000
0000
0000
0000
0000
0100
0000
0000
0000
0000
0000
0000
0000
0000
0000
0000
1000
0000
0000
0000
0000
0001
0000
0000
0000
0000
0000
0000
0000
0000
0000
0000
0000
0000
0000
0000
0000
,
0010
0000
0000
0000
0000
0000
0000
0000
0000
0000
0000
0000
0000
0000
0000
0000
0010
0000
0000
0000
0000
0000
0000
0000
0000
0000
0000
0001
0000
0000
0000
0000
0100
0000
0000
0000
0000
0000
0000
0000
0000
0000
0000
0000
0000
0000
0000
0000
0010
0000
0000
0000
0000
0000
0000
0000
0000
0000
0000
0000
0000
0000
0000
0000
,
0010
0000
0000
0000
0000
0000
0000
0000
0000
0000
0000
1000
0000
0000
0000
0000
0100
0000
0000
0000
0000
0000
0000
0000
0000
0000
0000
0000
0000
0000
0000
0000
2000
0000
0000
0000
0000
0000
0000
0000
0000
0000
0000
0000
0000
0000
0000
0000
0000
0000
0000
0000
0000
0000
0000
0000
0000
0000
0000
0000
0000
0000
0000
0000
,
0000
0000
0000
0000
0000
0000
0000
0000
0000
0000
0000
0000
0000
0000
0000
0000
3000
0000
0000
0000
0000
0000
0000
0000
0000
0000
0000
0000
0000
0000
0000
0000
0000
0000
0000
0000
0000
0000
0000
0000
0000
0000
0000
0001
0000
0000
0000
0000
0010
0000
0000
0000
0000
0000
0000
0000
0000
0000
0000
0000
0000
0000
0000
0000
,
0200
0000
1300
0020
,
0000
0130
0002
0013
,
0011
2000
3100
1100
,
0020
1030
1010
0002
,
0103
0101
0020
0000
,
0000
0130
0001
0010
,
0200
0000
0000
1300
,
0001
1000
0020
0130
,
0110
0002
1003
1001
,
0002
0013
0011
0200
,
1300
1100
0020
0000
,
0130
0001
1000
0001
,
0010
0100
1000
2002
,
0000
0000
3003
0000
0010
1000
0001
1000
,
0100
0010
0001
1000
0001
0100
0010
0100
,
0001
0010
0100
1000
0100
0010
1000
0010
,
0001
0000
0000
0000
0000
0000
0000
0000
1000
0000
0000
0000
0000
0000
0000
0000
0010
0000
0000
0000
0000
0000
0000
0000
0100
0000
0000
0000
0000
0000
0000
0000
0001
0000
0000
0000
0000
0000
0000
0000
0000
0000
0000
0000
0000
0000
0000
0000
0000
0000
0000
0000
0000
0100
0000
0000
0000
0000
0000
0010
0000
0000
0000
0000
,
1000
0000
0000
0000
0000
0010
0000
0000
0000
0000
0000
0000
0000
0000
0000
0000
0100
0000
0000
0000
0000
0001
0000
0000
0000
0000
0000
0000
0000
0000
0000
0000
0000
0000
0000
0000
0000
0000
0000
0000
0000
0000
0000
0010
0000
0000
0000
0000
0100
0000
0000
0000
0000
1000
0000
0000
0000
0000
0000
0000
0000
0000
0000
0000
,
0010
0000
0000
0000
0000
0100
0000
0000
0000
0000
0000
0001
0000
0000
0000
0000
1000
0000
0000
0000
0000
0000
0000
0000
0000
0000
0000
0001
0000
0000
0000
0000
0010
0000
0000
0000
0000
0000
0000
0000
0000
0000
0000
0100
0000
0000
0000
0000
2000
0000
0000
0000
0000
0000
0000
0000
0000
0000
0000
0000
0000
0000
0000
0000
,
0000
0000
3001
0000
0010
0001
0010
0100
,
1000
0001
1001
0000
1001
0000
1000
0010
,
0100
0001
0100
0010
0110
0000
0110
0000
,
1000
0000
0000
0000
0000
0000
0000
0000
0000
0000
0000
0000
0000
0000
0000
0000
0001
0000
0000
0000
0000
0100
0000
0000
0000
0000
0000
0001
0000
0000
0000
0000
0100
0000
0000
0000
0000
0001
0000
0000
0000
0000
0000
1000
0000
0000
0000
0000
0010
0000
0000
0000
0000
1000
0000
0000
0000
0000
0000
0010
0000
0000
0000
0000
,
1000
0000
0000
0000
0000
0000
0000
0000
0000
0000
0000
0001
0000
0000
0000
0000
0010
0000
0000
0000
0000
0000
0000
0000
0000
0000
0000
0100
0000
0000
0000
0000
2000
0000
0000
0000
0000
0000
0000
0000
0000
0000
0000
0000
0000
0000
0000
0000
0000
0000
0000
0000
0000
0000
0000
0000
0000
0000
0000
0000
0000
0000
0000
0000
,
0000
0001
0001
3001
,
0002
0010
0013
0200
,
1000
0000
0000
0000
0000
0000
0000
0000
0000
0000
0000
0000
0000
0000
0000
0000
1300
0000
0000
0000
0000
0000
0000
0000
0000
0000
0000
0000
0000
0000
0000
0000
1001
0000
0000
0000
0000
0000
0000
0000
0000
0000
0000
0000
0000
0000
0000
0000
0001
0000
0000
0000
0000
0000
0000
0000
0000
0000
0000
0100
0000
0000
0000
0000
,
0001
0000
0000
0000
0000
0000
0000
0000
0000
0000
0000
0000
0000
0000
0000
0000
1100
0000
0000
0000
0000
0000
0000
0000
0000
0000
0000
0000
0000
0000
0000
0000
1000
0000
0000
0000
0000
0000
0000
0000
0000
0000
0000
0010
0000
0000
0000
0000
1000
0000
0000
0000
0000
0000
0000
0000
0000
0000
0000
0000
0000
0000
0000
0000
,
0101
0000
0000
0000
0000
0000
0000
0000
0000
0000
0000
0000
0000
0000
0000
0000
0001
0000
0000
0000
0000
0000
0000
0000
0000
0000
0000
0010
0000
0000
0000
0000
0001
0000
0000
0000
0000
0000
0000
0000
0000
0000
0000
0000
0000
0000
0000
0000
1100
0000
0000
0000
0000
0000
0000
0000
0000
0000
0000
0000
0000
0000
0000
0000
,
1000
0000
0000
0000
0000
0000
0000
0000
0000
0000
0000
0010
0000
0000
0000
0000
1000
0000
0000
0000
0000
0000
0000
0000
0000
0000
0000
0000
0000
0000
0000
0000
0200
0000
0000
0000
0000
0000
0000
0000
0000
0000
0000
0000
0000
0000
0000
0000
0000
0000
0000
0000
0000
0000
0000
0000
0000
0000
0000
0000
0000
0000
0000
0000
,
0310
0001
0100
0001
,
0020
0000
0031
2000
,
0000
0000
0000
0000
0000
0000
0000
0000
0000
0000
0000
0000
0000
0000
0000
0000
3010
0000
0000
0000
0000
0000
0000
0000
0000
0000
0000
0000
0000
0000
0000
0000
0110
0000
0000
0000
0000
0000
0000
0000
0000
0000
0000
0000
0000
0000
0000
0000
0001
0000
0000
0000
0000
0000
0000
0000
0000
0000
0000
1000
0000
0000
0000
0000
,
0100
0000
0000
0000
0000
0000
0000
0000
0000
0000
0000
0000
0000
0000
0000
0000
0110
0000
0000
0000
0000
0000
0000
0000
0000
0000
0000
0000
0000
0000
0000
0000
1000
0000
0000
0000
0000
0000
0000
0000
0000
0000
0000
0001
0000
0000
0000
0000
0100
0000
0000
0000
0000
0000
0000
0000
0000
0000
0000
0000
0000
0000
0000
0000
,
1010
0000
0000
0000
0000
0000
0000
0000
0000
0000
0000
0000
0000
0000
0000
0000
0001
0000
0000
0000
0000
0000
0000
0000
0000
0000
0000
1000
0000
0000
0000
0000
0100
0000
0000
0000
0000
0000
0000
0000
0000
0000
0000
0000
0000
0000
0000
0000
0011
0000
0000
0000
0000
0000
0000
0000
0000
0000
0000
0000
0000
0000
0000
0000
,
1000
0000
0000
0000
0000
0000
0000
0000
0000
0000
0000
0001
0000
0000
0000
0000
0100
0000
0000
0000
0000
0000
0000
0000
0000
0000
0000
0000
0000
0000
0000
0000
0002
0000
0000
0000
0000
0000
0000
0000
0000
0000
0000
0000
0000
0000
0000
0000
0000
0000
0000
0000
0000
0000
0000
0000
0000
0000
0000
0000
0000
0000
0000
0000
,
0013
0200
0000
1300
,
0020
0000
0130
0002
,
0000
0000
0000
0000
0000
0000
0000
0000
0000
0000
0000
0000
0000
0000
0000
0000
1003
0000
0000
0000
0000
0000
0000
0000
0000
0000
0000
0000
0000
0000
0000
0000
0010
0000
0000
0000
0000
0000
0000
0000
0000
0000
0000
0000
0000
0000
0000
0000
0100
0000
0000
0000
0000
0000
0000
0000
0000
0000
0000
0001
0000
0000
0000
0000
,
1000
0001
0100
0010
,
2000
0000
3001
1000
,
0010
0100
0002
0000
,
0103
0001
1000
0100
,
0020
1000
0100
0001
,
0100
1030
0010
0001
,
1000
0001
0100
0001
,
0020
0000
0031
1000
,
0100
1000
0020
0000
,
1030
0001
0010
0001
,
0100
0001
1000
2002
,
0000
3003
0000
0000
;

//---------------dance-double - ----------------
#NOTES:
     dance-double:
     :
     Beginner:
     1:
     :
00000000
00000000
00000000
00000000
,
00000000
00000000
00000000
00000000
,
00000000
00000000
00000000
00000000
,
00000000
00000000
00000000
00000000
,
00000000
00000000
00000000
00000000
,
00000000
00000000
00000000
00000000
,
00000000
00000000
00000000
00000000
,
00000000
00000000
10000000
00000000
,
00000000
00000000
00000000
00000000
,
01000000
00000000
00000000
00000000
,
00000000
00000000
00010000
00000000
,
00000000
00000000
00000000
00000000
,
00001000
00000000
00000000
00000000
,
00000000
00000000
00011000
00000000
,
00000000
00000000
00000000
00000000
,
00010000
00000000
00000000
00000000
,
00000000
00000000
00001000
00000000
,
00000000
00000000
00000000
00000000
,
00000100
00000000
00000100
00000000
,
00000000
00000000
00000001
00000000
,
00000000
00000000
00000000
00000000
,
00000010
00000000
00000000
00000000
,
00000000
00000000
00000001
00000000
,
00000000
00000000
00000000
00000000
,
00001000
00000000
00001000
00000000
,
00000000
00000000
00000100
00000000
,
00000000
00000000
00000000
00000000
,
00010000
00000000
00000000
00000000
,
00000000
00000000
00001000
00000000
,
00000000
00000000
00000000
00000000
,
00010000
00000000
00010000
00000000
,
00000000
00000000
01000000
00000000
,
00000000
00000000
00000000
00000000
,
10000000
00000000
00000000
00000000
,
00000000
00000000
00010000
00000000
,
00000000
00000000
00000000
00000000
,
20000000
00000000
00000000
00000000
,
00000000
30000000
10000000
00000000
,
00000000
00000000
00000000
00000000
,
01000000
00000000
00000000
00000000
,
00000000
00000000
00010000
00000000
,
00000000
00000000
00000000
00000000
,
00001000
00000000
00000000
00000000
,
00000000
00000000
00000100
00000000
,
00000000
00000000
00000000
00000000
,
00000001
00000000
00000000
00000000
,
00000000
00000000
00000100
00000000
,
00000000
00000000
00000000
00000000
,
00001000
00000000
00000000
00000000
,
00000000
00000000
00010000
00000000
,
00000000
00000000
00000000
00000000
,
00100000
00000000
00000000
00000000
,
00000000
00000000
10000000
00000000
,
00000000
00000000
00000000
00000000
,
00010000
00000000
00000000
00000000
,
00000000
00000000
00100000
00000000
,
00000000
00000000
00000000
00000000
,
01000000
00000000
00000000
00000000
,
00000000
00000000
00010000
00000000
,
00000000
00000000
00000000
00000000
,
00001000
00000000
00000000
00000000
,
00000000
00000000
00011000
00000000
,
00000000
00000000
00000000
00000000
,
00001000
00000000
00000000
00000000
,
00000000
00000000
00000100
00000000
,
00000000
00000000
00000000
00000000
,
00000001
00000000
00000000
00000000
,
00000000
00000000
00001000
00000000
,
00000000
00000000
00000100
00000000
,
00000000
00000000
00010000
00000000
,
00000000
00000000
00000000
00000000
,
00001000
00000000
00001000
00000000
,
00000000
00000000
00010000
00000000
,
00000000
00000000
01000000
00000000
,
00000000
00000000
10000000
00000000
,
00000000
00000000
00000000
00000000
,
10000000
00000000
00000000
00000000
,
00000000
00000000
00010000
00000000
,
00000000
00000000
00000000
00000000
,
00010000
00000000
00000000
00000000
,
00000000
00000000
00100000
00000000
,
00000000
00000000
00000000
00000000
,
00100000
00000000
00000000
00000000
,
00000000
00000000
00001000
00000000
,
00000000
00000000
00000000
00000000
,
00001000
00000000
00000000
00000000
,
00000000
00000000
00010000
00000000
,
00000000
00000000
00000000
00000000
,
00010000
00000000
00000000
00000000
,
00000000
00000000
00000100
00000000
,
00000000
00000000
00000000
00000000
,
00000100
00000000
00000000
00000000
,
00000000
00000000
00001000
00000000
,
00000000
00000000
00000000
00000000
,
00000010
00000000
00000000
00000000
,
00000000
00000000
00000100
00000000
,
00000000
00000000
00000000
00000000
,
00000002
00000000
00000000
00000000
,
00000000
00000003
00000000
00000000
;

//---------------dance-double - ----------------
#NOTES:
     dance-double:
     :
     Easy:
     3:
     :
00000000
00000000
00000000
00000000
,
00000000
00000000
00000000
00000000
,
00000000
00000000
00000000
00000000
,
00000000
00000000
00000000
00000000
,
00000000
00000000
00000000
00000000
,
00000000
00000000
00000000
00000000
,
00000000
00000000
00000000
00000000
,
00000000
00000000
00000010
00000000
,
00000000
00001000
00000000
00000000
,
00000002
00000000
00000000
00000000
,
00000000
00000003
00002000
00000000
,
00000000
00000000
00000000
00003000
,
00000100
00000000
00000000
00010000
,
00000000
00000000
00011000
00000000
,
00000000
00000000
00000000
00000000
,
00010000
00000000
00000000
00010000
,
00000000
00000000
01000000
00000000
,
00000000
00000000
00000000
00000000
,
10000000
00000000
00010000
00000000
,
00000000
00000000
01000000
00000000
,
00000000
00000000
00000000
00000000
,
00100000
00000000
00000000
00100000
,
00000000
00000000
10000000
00000000
,
00000000
00000000
00000000
00000000
,
01000000
00000000
00010000
00000000
,
00000000
00000000
00011000
00000000
,
00000000
00000000
00000000
00000000
,
00001000
00000000
00000000
00001000
,
00000000
00000000
00000100
00000000
,
00000000
00000000
00000000
00000000
,
00000001
00000000
00001000
00000000
,
00000000
00000000
00001001
00000000
,
00000000
00001000
00000000
00000000
,
00000100
00000000
00000000
00000000
,
00000000
00000000
00010000
00000000
,
00000000
00010000
00000000
00000000
,
00002000
00000000
00000000
00000000
,
00000000
00003000
00010000
00000000
,
00000000
01000000
00000000
00000000
,
10000000
00000000
00000000
00010000
,
00000000
00000000
02000000
00000000
,
00000000
00000000
00000000
03000000
,
00100000
00000000
00000000
00010000
,
00000000
00000000
00001000
00000000
,
00000000
00000100
00000000
00000000
,
00000001
00000000
00000000
00001000
,
00000000
00000000
00000200
00000000
,
00000000
00000000
00000000
00000300
,
00000010
00000000
00000000
00001000
,
00000000
00000000
00010000
00000000
,
00000000
00100000
00000000
00000000
,
10000000
00000000
00000000
00010000
,
00000000
00000000
00200000
00000000
,
00000000
00000000
00000000
00300000
,
01000000
00000000
00000000
00010000
,
00000000
00000000
00001000
00000000
,
00000000
00000010
00000000
00000000
,
00000001
00000000
00000000
00001000
,
00000000
00000000
00000020
00000000
,
00000000
00000000
00000000
00000030
,
00001000
00000000
00000000
00000001
,
00000000
00000000
00001001
00000000
,
00000000
00000010
00000000
00000000
,
00000100
00000000
00000000
00000000
,
00000000
00000000
00001000
00000000
,
00000000
00010000
00000000
00000000
,
00001000
00000000
00000000
00000000
,
00000000
00000000
00100000
00000000
,
00000000
00020000
00000000
00030000
,
00000000
00000000
20000000
00000000
,
30000000
00000000
00000000
00100000
,
00000000
00000000
00100000
00000000
,
00000000
00000000
00000000
00000000
,
10000000
00000000
00000000
01000000
,
00000000
00000000
00010000
00000000
,
00000000
01000000
00000000
00000000
,
10000000
00000000
00000000
00010000
,
00000000
00000000
02000000
00000000
,
00000000
00000000
00000000
03000000
,
00100000
00000000
00000000
00010000
,
00000000
00000000
00001000
00000000
,
00000000
00000100
00000000
00000000
,
00000001
00000000
00000000
00001000
,
00000000
00000000
00000200
00000000
,
00000000
00000000
00000000
00000300
,
00000010
00000000
00000000
00001000
,
00000000
00000000
00000100
00000000
,
00000000
00010000
00000000
00000000
,
00002000
00000000
00000000
00000000
,
00000000
00003000
00020000
00000000
,
00000000
00000000
00000000
00030000
,
00001000
00000000
00000000
00100000
,
00000000
00000000
00010000
00000000
,
00000000
10000000
00000000
00000000
,
00010000
00000000
00000000
01000000
,
00000000
00000000
00010000
00000000
,
00000000
00100000
00000000
00000000
,
01000000
00000000
00000000
10010000
;

//---------------dance-double - ----------------
#NOTES:
     dance-double:
     :
     Medium:
     4:
     :
00000000
00000000
00000000
00000000
,
00000000
00000000
00000000
00000000
,
00000000
00000000
00000000
00000000
,
00000000
00000000
00000000
00000000
,
00000000
00000000
00000000
00000000
,
00000000
00000000
00000000
00000000
,
00000000
00000000
00000000
00000000
,
00000000
00000000
00001000
00000000
,
00010000
00001000
00000000
00010000
,
02000000
00000000
03000000
10000000
,
00000000
01000000
20000000
00000000
,
30000000
00010000
00000000
01000000
,
00020000
00000000
00030000
10000000
,
00000000
00000000
10010000
00000000
,
00000000
00010000
00000000
00000000
,
00100000
00000000
00000000
00100000
,
00000000
00000000
00001000
00000000
,
00000000
00001000
00000000
00000000
,
00020000
00000000
00032000
00000000
,
00003000
00000000
00000100
00000000
,
00000000
00000100
00000000
00000000
,
00000001
00000000
00000000
00000001
,
00000000
00000000
00001000
00000000
,
00000000
00001000
00000000
00000000
,
00000200
00000000
00000320
00000000
,
00000030
00000000
00000110
00000000
,
00000000
00000100
00000000
00000000
,
00010000
00000000
00000000
00010000
,
00000000
00000000
00001000
00000000
,
00000000
00001000
00000000
00000000
,
00200000
00000000
00320000
00000000
,
00030000
00000000
10000000
00000000
,
00000000
10000000
00000000
00000000
,
00100000
00000000
00000000
00100000
,
00000000
00000000
01000000
00000000
,
00000000
01000000
00000000
00000000
,
00020000
00000000
00000000
00000000
,
00030000
00000000
00100000
00000000
,
00001000
00100000
00000000
00001000
,
00010000
00000000
00000100
00010000
,
00000000
00000100
00002000
00000000
,
00000000
00000000
00003000
00000000
,
00000010
00000000
00000100
00000001
,
00000000
00001000
00000100
00000000
,
00000010
00000001
00000000
00000100
,
00000001
00000000
00001000
00000100
,
00000000
00010000
00002000
00000000
,
00000000
00000000
00000000
00003000
,
00010000
00000000
00100000
10000000
,
00000000
00010000
01000000
00000000
,
00011000
00000000
00000000
00001100
,
00000000
00000000
00000101
00000000
,
00000000
00000220
00000000
00000000
,
00000000
00000000
00000330
00000000
,
00000100
00000000
00000001
00001000
,
00000000
00000010
00010000
00000000
,
00011000
00000000
00000000
01001000
,
00000000
00000000
01010000
00000000
,
00000000
10100000
00000000
00000000
,
02200000
00000000
00000000
03300000
,
00000000
00010000
00001000
00010000
,
00000000
00000000
00011000
00000000
,
00000000
00001000
00000000
00000000
,
00000100
00000000
00000000
00000010
,
00000000
00000000
00001000
00000000
,
00000000
00000001
00000000
00000000
,
00000010
00000000
00000000
00001000
,
00000000
00000000
00010000
00000000
,
00000000
00001000
00001000
00000000
,
00000000
00000000
00010000
00010000
,
00000000
00000000
00000000
00100000
,
00000000
00000000
01000000
00000000
,
00000000
00010000
00000000
00000000
,
20000000
00000000
30000000
00020000
,
00000000
00030000
00100000
00000000
,
00001000
00100000
00000000
00001000
,
00010000
00000000
00000100
00010000
,
00000000
00000100
00002000
00000000
,
00000000
00000000
00003000
00000000
,
00000010
00000000
00000100
00000001
,
00000000
00001000
00000100
00000000
,
00000010
00000001
00000000
00000100
,
00000001
00000000
00001000
00000100
,
00000000
00010000
00002000
00000000
,
00000000
00000000
00000000
00003000
,
00010000
00000000
00100000
10000000
,
00000000
00010000
01000000
00000000
,
10000000
01000000
00000000
00010000
,
00100000
00000000
00001000
00010000
,
00000000
00000100
00001000
00000000
,
00000000
00001010
00000000
00000000
,
00000101
00000000
00000000
00000110
,
00000000
00000000
00001001
00000000
,
00000001
00000010
00000000
00000100
,
00000010
00000000
00001000
00010000
,
00000000
00001000
00100000
00000000
,
00000000
00110000
00000000
00000000
,
01010000
00000000
00000000
20020000
,
00000000
30030000
00000000
00000000
;

//---------------dance-double - ----------------
#NOTES:
     dance-double:
     :
     Hard:
     9:
     :
00000000
00000000
00000000
00000000
,
00000000
00000000
00000000
00000000
,
00000000
00000000
00000000
00000000
,
00000000
00000000
00000000
00000000
,
00000000
00000000
00000000
00000000
,
00000000
00000000
00000000
00000000
,
00000000
00000000
00000000
00000000
,
00000000
00000000
00000000
00000000
00000000
00000000
00000000
00000000
00000000
00000000
00000000
00000000
00000000
00000000
00000000
00000000
00100000
00000000
00000000
00000000
00000000
00000000
00000000
00000000
00010000
00000000
00000000
00000000
00000000
00100000
00000000
00000000
,
10000000
01000000
00010000
00001000
,
00020000
00000000
00030000
00000100
,
00010000
00001000
00200000
00000000
,
00301000
00010000
00000100
00001000
,
00000020
00000000
00000000
00000030
,
00001000
00000001
00000200
00000000
,
00001300
00000100
00000010
00000100
,
00000002
00000000
00001003
00000100
,
00000010
00000100
00000002
00000000
,
00000103
00000010
00001000
00010000
,
00002000
00000000
00023000
00000000
,
00031000
00100000
00010000
01000000
,
00100000
00010000
00001000
00100000
,
00020000
00000000
00130000
01000000
,
10000000
00100000
02000000
00000000
,
03010000
00100000
01000000
00010000
,
00002000
00000000
00023000
00000000
,
00030010
00001000
00000100
00000010
,
00001000
00000010
00000001
00001000
,
00000020
00000000
00000130
00000000
,
00000010
00000100
00001000
00020000
,
00000000
00000000
00031000
00010000
,
02000000
00000000
03100000
00000000
,
01000000
10000000
00010000
10000000
,
00100000
01000000
00100000
00010000
,
00002000
00000000
00103000
00000000
,
00001000
00010000
00000200
00000000
,
00010300
00000100
00001000
00000010
,
00000200
00000000
00000300
00000010
,
00000100
00000000
00000000
00000000
00000000
00000000
00000000
00000000
00001000
00000000
00000000
00000000
00000000
00000000
00000000
00000000
00000100
00000000
00000000
00000000
00000000
00000000
00000000
00000000
00000010
00000000
00000000
00000000
00000000
00001000
00000000
00000000
,
00000010
00000000
00000000
00000000
00000000
00000000
00000000
00000000
00001000
00000000
00000000
00000000
00000000
00000000
00000000
00000000
00000001
00000000
00000000
00000000
00000000
00000010
00000000
00000000
00000001
00000000
00000000
00000000
00000000
00000000
00000000
00000000
,
00000010
00000000
00000000
00000000
00000000
00000000
00000000
00000000
00000100
00000000
00000000
00000000
00000000
00010000
00000000
00000000
00000100
00000000
00000000
00000000
00000000
00000000
00000000
00000000
00010000
00000000
00000000
00000000
00000000
00000000
00000000
00000000
,
00001000
00000000
00000000
00000000
00000000
00010000
00000000
00000000
00001000
00000000
00000000
00000000
00000000
00000000
00000000
00000000
00020000
00000000
00000000
00000000
00000000
00000000
00000000
00000000
00000000
00000000
00000000
00000000
00000000
00000000
00000000
00000000
,
00031000
00010000
00001000
01000000
,
00200000
00000000
10300000
00020000
,
00000000
00000000
00000000
00000000
00000000
00000000
00000000
00000000
00130000
00000000
00000000
00000000
00000000
00000000
00000000
00000000
01000000
00000000
00000000
00000000
00000000
00000000
00000000
00000000
01000000
00000000
00000000
00000000
00000000
01000000
00000000
00000000
,
10000000
00000000
00000000
00000000
00000000
00000000
00000000
00000000
00010000
00000000
00000000
00000000
00000000
00000000
00000000
00000000
00010000
00000000
00000000
00000000
00000000
00010000
00000000
00000000
01000000
00000000
00000000
00000000
00000000
00000000
00000000
00000000
,
00100000
00000000
00000000
00000000
00000000
00000000
00000000
00000000
00100000
00000000
00000000
00000000
00000000
00100000
00000000
00000000
00010000
00000000
00000000
00000000
00000000
00000000
00000000
00000000
00001000
00000000
00000000
00000000
00000000
00000000
00000000
00000000
,
00001000
00000000
00000000
00000000
00000000
00001000
00000000
00000000
00010000
00000000
00000000
00000000
00000000
00000000
00000000
00000000
00002000
00000000
00000000
00000000
00000000
00000000
00000000
00000000
00000000
00000000
00000000
00000000
00000000
00000000
00000000
00000000
,
00000000
00000000
00003000
00000000
00000000
00100000
00001000
00000000
,
00020000
00000000
00030100
00002000
,
00000000
00000000
00000000
00000000
00000000
00000000
00000000
00000000
00003010
00000000
00000000
00000000
00000000
00000000
00000000
00000000
00000100
00000000
00000000
00000000
00000000
00000000
00000000
00000000
00000001
00000000
00000000
00000000
00000000
00001000
00000000
00000000
,
00000001
00000000
00000000
00000000
00000000
00000000
00000000
00000000
00001000
00000000
00000000
00000000
00000000
00000000
00000000
00000000
00000100
00000000
00000000
00000000
00000000
00010000
00000000
00000000
00000100
00000000
00000000
00000000
00000000
00000000
00000000
00000000
,
00010000
00000000
00000000
00000000
00000000
00000000
00000000
00000000
00001000
00000000
00000000
00000000
00000000
00100000
00000000
00000000
00001000
00000000
00000000
00000000
00000000
00000000
00000000
00000000
00100000
00000000
00000000
00000000
00000000
00000000
00000000
00000000
,
00010000
00000000
00000000
00000000
00000000
10000000
00000000
00000000
00010000
00000000
00000000
00000000
00000000
00000000
00000000
00000000
20000000
00000000
00000000
00000000
00000000
00000000
00000000
00000000
00000000
00000000
00000000
00000000
00000000
00000000
00000000
00000000
,
30000000
00010000
01000000
00100000
,
02000000
00000000
00000000
13000000
,
01000000
00000000
00000000
00000000
00000000
00000000
00000000
00000000
00100000
00000000
00000000
00000000
00000000
00000000
00000000
00000000
10000000
00000000
00000000
00000000
00000000
00000000
00000000
00000000
00010000
00000000
00000000
00000000
00000000
01000000
00000000
00000000
,
00010000
00000000
00000000
00000000
00000000
00000000
00000000
00000000
00100000
00000000
00000000
00000000
00000000
00000000
00000000
00000000
00001000
00000000
00000000
00000000
00000000
01000000
00000000
00000000
00001000
00000000
00000000
00000000
00000000
00000000
00000000
00000000
,
00010000
00000000
00000000
00000000
00000000
00000000
00000000
00000000
00000100
00000000
00000000
00000000
00000000
00000010
00000000
00000000
00000100
00000000
00000000
00000000
00000000
00000000
00000000
00000000
00001000
00000000
00000000
00000000
00000000
00000000
00000000
00000000
,
00000001
00000000
00000000
00000000
00000000
00000100
00000000
00000000
00000001
00000000
00000000
00000000
00000000
00000000
00000000
00000000
00000020
00000000
00000000
00000000
00000000
00000000
00000000
00000000
00000000
00000000
00000000
00000000
00000000
00000000
00000000
00000000
,
00000130
00001000
00000001
00001000
,
00000001
00000100
00001000
00022000
,
00000000
00000000
00033000
00000000
00001000
00010000
01000000
10000000
,
01000000
00100000
00010000
10000000
00010000
01000000
00001000
01000000
,
00010000
00100000
00001000
00010000
00001000
00000100
00000001
00001000
,
00000100
00000000
00000000
00000000
00000000
00000000
00000000
00000000
00001000
00000000
00000000
00000000
00000000
00000000
00000000
00000000
00000010
00000000
00000000
00000000
00000000
00000000
00000000
00000000
00000100
00000000
00000000
00000000
00000000
00000000
00000000
00000000
00000001
00000000
00000000
00000000
00000000
00000000
00000000
00000000
00000000
00000000
00000000
00000000
00000000
00000000
00000000
00000000
00000000
00000000
00000000
00000000
00000000
00001000
00000000
00000000
00000000
00000000
00000100
00000000
00000000
00000000
00000000
00000000
,
00001000
00000000
00000000
00000000
00000000
00000000
00000000
00000000
00000000
00000000
00000001
00000000
00000000
00000000
00000000
00000000
00001000
00000000
00000000
00000000
00000000
00000000
00000000
00000000
00000000
00000000
00000000
00000000
00000000
00000000
00000000
00000000
00000000
00000000
00000000
00000000
00000000
00000001
00000000
00000000
00000000
00000000
00000100
00000000
00000000
00000000
00000000
00000000
00000001
00000000
00000000
00000000
00000000
00000000
00000000
00000000
00000000
00000000
00001000
00000000
00000000
00000000
00000000
00000000
,
00000100
00000000
00000000
00000000
00000000
00010000
00000000
00000000
00000000
00000000
00001000
00000000
00000000
00000000
00000000
00000000
00100000
00000000
00000000
00000000
00000000
00000000
00000000
00000000
00000000
00000000
00010000
00000000
00000000
00000000
00000000
00000000
01000000
00000000
00000000
00000000
00000000
00000000
00000000
00000000
00000000
00000000
00100000
00000000
00000000
00000000
00000000
00000000
20000000
00000000
00000000
00000000
00000000
00000000
00000000
00000000
00000000
00000000
00000000
00000000
00000000
00000000
00000000
00000000
,
00000000
00000000
30010000
00000000
00100000
00010000
00100000
00001000
,
00010000
00000100
00001100
00000000
00001010
00000000
00000010
00001000
,
00000010
00010000
00001000
01000000
01010000
00000000
00110000
00000000
,
10000000
00000000
00000000
00000000
00000000
00000000
00000000
00000000
00000000
00000000
00000000
00000000
00000000
00000000
00000000
00000000
00010000
00000000
00000000
00000000
00000000
01000000
00000000
00000000
00000000
00000000
00010000
00000000
00000000
00000000
00000000
00000000
01000000
00000000
00000000
00000000
00000000
00010000
00000000
00000000
00000000
00000000
10000000
00000000
00000000
00000000
00000000
00000000
00100000
00000000
00000000
00000000
00000000
10000000
00000000
00000000
00000000
00000000
00100000
00000000
00000000
00000000
00000000
00000000
,
10000000
00000000
00000000
00000000
00000000
00010000
00000000
00000000
01000000
00000000
00000000
00000000
00000000
00001000
00000000
00000000
00020000
00000000
00000000
00000000
00000000
00000000
00000000
00000000
00000000
00000000
00000000
00000000
00000000
00000000
00000000
00000000
,
00000000
00000100
00000100
00030100
,
00002000
00100000
00013000
00020000
,
00000010
00000000
00000000
00000000
00000000
00000000
00000000
00000000
00031000
00000000
00000000
00000000
00000000
00000000
00000000
00000000
00000010
00000000
00000000
00000000
00000000
00000000
00000000
00000000
00001000
00000000
00000000
00000000
00000000
00000001
00000000
00000000
,
00000100
00000000
00000000
00000000
00000000
00000000
00000000
00000000
00000001
00000000
00000000
00000000
00000000
00000000
00000000
00000000
00001000
00000000
00000000
00000000
00000000
00000100
00000000
00000000
00000010
00000000
00000000
00000000
00000000
00000000
00000000
00000000
,
00000001
00000000
00000000
00000000
00000000
00000000
00000000
00000000
00000010
00000000
00000000
00000000
00000000
00000100
00000000
00000000
00001000
00000000
00000000
00000000
00000000
00000000
00000000
00000000
00000001
00000000
00000000
00000000
00000000
00000000
00000000
00000000
,
00000100
00000000
00000000
00000000
00000000
00000010
00000000
00000000
00001000
00000000
00000000
00000000
00000000
00000000
00000000
00000000
00002000
00000000
00000000
00000000
00000000
00000000
00000000
00000000
00000000
00000000
00000000
00000000
00000000
00000000
00000000
00000000
,
00003100
00001000
00000100
00010000
,
00002000
00000000
00103000
00020000
,
00000000
00000000
00000000
00000000
00000000
00000000
00000000
00000000
01030000
00000000
00000000
00000000
00000000
00000000
00000000
00000000
00100000
00000000
00000000
00000000
00000000
00000000
00000000
00000000
10000000
00000000
00000000
00000000
00000000
00100000
00000000
00000000
,
10000000
00000000
00000000
00000000
00000000
00000000
00000000
00000000
00010000
00000000
00000000
00000000
00000000
00000000
00000000
00000000
01000000
00000000
00000000
00000000
00000000
00100000
00000000
00000000
01000000
00000000
00000000
00000000
00000000
00000000
00000000
00000000
,
00100000
00000000
00000000
00000000
00000000
00000000
00000000
00000000
00010000
00000000
00000000
00000000
00000000
00000100
00000000
00000000
00010000
00000000
00000000
00000000
00000000
00000000
00000000
00000000
00001000
00000000
00000000
00000000
00000000
00000000
00000000
00000000
,
01000000
00000000
00000000
00000000
00000000
00010000
00000000
00000000
01000000
00000000
00000000
00000000
00000000
00000000
00000000
00000000
00002000
00000000
00000000
00000000
00000000
00000000
00000000
00000000
00000000
00000000
00000000
00000000
00000000
00000000
00000000
00000000
,
00013000
00000200
00000000
00001300
,
00000002
00000000
00000103
00000020
,
00000000
00000000
00000000
00000000
00000000
00000000
00000000
00000000
00000031
00000000
00000000
00000000
00000000
00000000
00000000
00000000
00000010
00000000
00000000
00000000
00000000
00000000
00000000
00000000
00001000
00000000
00000000
00000000
00000000
00000001
00000000
00000000
,
00000010
00001000
00010000
00001000
,
00000020
00000000
00000031
00000100
,
00001000
00010000
00200000
00000000
,
10300000
01000000
00010000
00001000
,
00000200
00010000
00001000
00000010
,
00000301
00000000
00000000
00000000
00000000
00000000
00000000
00000000
00000100
00000000
00000000
00000000
00000000
00000000
00000000
00000000
00000001
00000000
00000000
00000000
00000000
00000000
00000000
00000000
00001000
00000000
00000000
00000000
00000000
00000100
00000000
00000000
,
00010000
00001000
00100000
00010000
,
02000000
00000000
03010000
10000000
,
00100000
10000000
02000000
00000000
,
13000000
00010000
00100000
00001000
,
00010000
00000010
00010000
00022000
,
00000000
00000000
00033000
00000000
;
