#TITLE:Because I Got It Like That (Freestylers Indett Mix);
#ARTIST:Jungle Brothers;
#BANNER:Because I Got It Like That (Freestylers Indett Mix).png;
#BACKGROUND:Because I Got It Like That (Freestylers Indett Mix)-bg.png;
#CDTITLE:./CDTITLES/Dance Dance Revolution ULTRAMIX4.png;
#MUSIC:Because I Got It Like That (Freestylers Indett Mix).ogg;
#SAMPLESTART:59.514;
#SAMPLELENGTH:15;
#DISPLAYBPM:82:169;
#BPMS:0=84.706,12=84.014,20=83.818,28=84.014,36=83.916,44=83.981,50=83.333,51=82.569,52=83.786,64=84.507,68=167.832,84=167.442,92=168.224,100=167.832,148=167.702,160=167.442,164=167.832,180=168.028,196=167.832,236=168.224,240=165.138,242=159.292,244=168.224;

//---------------dance-single - ----------------
#NOTES:
     dance-single:
     :
     Beginner:
     1:
     :
0000
0000
0000
0000
,
0000
0000
0000
0000
,
0000
0000
0000
0000
,
1000
0000
1000
0000
,
1000
0000
0000
0000
,
0001
0000
0001
0000
,
0001
0000
0001
0000
,
1000
0000
1000
0000
,
1000
0000
1000
0000
,
0010
0000
0010
0000
,
0010
0000
0010
0000
,
0100
0000
0100
0000
,
0100
0000
0100
0000
,
0001
0000
0001
0000
,
1000
0000
1000
0000
,
0001
0000
0001
0000
,
0002
0000
0000
0003
,
0001
0000
0000
0000
,
0000
0000
0000
0000
,
0100
0000
0000
0000
,
0000
0000
0000
0000
,
0100
0000
0000
0000
,
0000
0000
0000
0000
,
0001
0000
0000
0000
,
0000
0000
0000
0000
,
0001
0000
0000
0000
,
0001
0000
0000
0000
,
1000
0000
0000
0000
,
1000
0000
0000
0000
,
0010
0000
0000
0000
,
0010
0000
0000
0000
,
0100
0000
0000
0000
,
0100
0000
0000
0000
,
0010
0000
0000
0000
,
0010
0000
0000
0000
,
1000
0000
0000
0000
,
1000
0000
0000
0000
,
0001
0000
0000
0000
,
0001
0000
0000
0000
,
2000
0000
0000
3000
,
0000
0000
0000
0000
,
1000
0000
1000
0000
,
1000
1000
0000
0001
,
0000
0001
0000
0001
,
0000
0010
0000
0010
,
0000
0010
0000
0100
,
0000
0100
0000
0100
,
0000
1000
0000
1000
,
0000
1000
0000
0000
,
0001
0000
0001
0000
,
0001
0000
0000
0000
,
1000
0000
1000
0000
,
1000
0000
0000
0000
,
0001
0000
0001
0000
,
0001
0000
0000
0000
,
1001
0000
0000
0000
,
1001
0000
0000
0000
,
0002
0000
0000
0003
,
0001
0000
0000
0000
,
2000
0000
0000
3000
,
1000
0000
0000
0000
,
1001
0000
0000
0000
;

//---------------dance-single - ----------------
#NOTES:
     dance-single:
     :
     Easy:
     2:
     :
0000
0000
0000
0000
,
0000
0000
0000
0000
,
0000
0000
0000
0000
,
0010
0000
0010
0000
,
0002
0000
0000
0003
,
1000
1000
1000
0000
,
0001
0001
0001
0000
,
1000
1000
1000
0000
,
0100
0100
0100
0000
,
0010
0010
0010
0000
,
1000
1000
1000
0000
,
0001
0001
0001
0000
,
0100
0100
0100
0000
,
0001
1000
0001
0001
,
1000
0001
1000
0000
,
0010
0100
0010
0010
,
0120
0000
0000
0030
,
1000
0001
1000
0000
,
0020
0000
0030
0000
,
0200
0000
0300
0000
,
0020
0000
0000
0030
,
0001
1000
0001
0000
,
0200
0000
0300
0000
,
0020
0000
0030
0000
,
0200
0000
0000
0300
,
0100
0000
0010
0000
,
0100
0100
0100
0000
,
0001
0000
1000
0000
,
0001
0001
0001
0000
,
0010
0000
0001
0000
,
0010
0010
0010
0000
,
0100
0000
1000
0000
,
0100
0100
0100
0000
,
0010
0100
0010
0000
,
0001
1000
0001
0000
,
1000
0000
1000
0000
,
1001
0000
0000
0000
,
0010
0000
0010
0000
,
0100
0000
0100
0000
,
2000
0000
0000
0000
,
0002
0000
0000
3003
,
1000
0000
1000
0000
,
2000
0000
0000
3000
,
0001
0000
0001
0000
,
0002
0000
0000
0003
,
0100
0000
0100
0000
,
0020
0000
0000
0030
,
1000
0000
1000
0000
,
0200
0000
0000
0300
,
0001
1000
0001
0000
,
0200
0000
0300
0000
,
0020
0000
0030
0000
,
0200
0000
0000
0300
,
1000
0001
1000
0000
,
0020
0000
0030
0000
,
0200
0000
0300
0000
,
0020
0000
0000
0030
,
0010
0000
1000
0000
,
0100
0000
0001
0000
,
0010
0000
0010
0000
,
0001
0000
0100
0000
,
1001
0000
0000
0000
;

//---------------dance-single - ----------------
#NOTES:
     dance-single:
     :
     Medium:
     5:
     :
0000
0000
0000
0000
,
0000
0000
0000
0000
,
0000
0000
0000
0000
,
0010
1000
0100
0110
,
1002
0000
0000
0003
,
1000
0100
1000
0000
,
0001
0100
0001
0000
,
0010
1000
0100
0000
,
0010
0001
0100
0000
,
0010
1000
0010
0000
,
0001
0010
0100
0100
,
1000
0010
1000
0000
,
0001
0010
0001
0000
,
1000
0100
1000
1000
0001
0100
0001
0001
,
0010
0001
0100
0100
0010
0010
1000
0000
,
0010
0100
1000
1000
0010
0100
0001
0001
,
0220
0000
0000
0330
,
0010
0001
0100
0001
,
0010
0000
0110
0000
,
1000
0000
1001
0000
,
0100
0000
0110
0000
,
0010
1000
0100
1000
,
0010
0000
0110
0000
,
0010
0010
0001
0001
,
1000
1000
1000
1000
,
1001
0000
0010
0000
,
0100
0001
0100
0000
,
0010
0000
1000
0000
,
0100
1000
0100
0000
,
0010
0000
0001
0000
,
1000
0001
0010
0000
,
0100
0000
0010
0000
,
0001
1000
0100
0000
,
0010
0001
0100
0000
,
0010
1000
0010
0000
,
0100
1000
0010
0000
,
2002
0000
0000
3003
,
0001
1000
0001
0000
,
0010
0100
0010
0000
,
2001
0000
0000
0000
,
0002
0000
3003
1001
,
1000
1000
0100
0000
,
0020
0001
0000
0031
,
0010
0001
0100
0000
,
0200
0010
0000
0310
,
0100
0010
1000
0000
,
0200
0001
0000
0301
,
0100
0010
1000
0000
,
0002
1000
1000
1003
,
0010
0001
0100
0001
,
0010
0000
0110
0000
,
1000
0000
1001
0000
,
0100
0000
0110
0000
,
0010
1000
0100
1000
,
0010
0000
0110
0000
,
0100
0100
0010
0010
,
0001
1001
1000
1001
,
0010
1000
1000
0100
,
0010
0010
0001
0100
,
0100
0010
1000
1000
,
0001
1000
1000
0100
,
1001
0000
0000
0000
;

//---------------dance-single - ----------------
#NOTES:
     dance-single:
     :
     Hard:
     7:
     :
0000
0000
0000
0000
,
0000
0000
0000
0000
,
0000
0000
0000
0000
,
0001
0010
0001
0010
,
2010
0000
0000
3000
,
1000
1000
0010
0010
,
0001
0000
0001
0000
1000
1000
1000
0000
,
0001
0001
0100
0100
,
1000
0000
1000
0000
0001
0001
0001
0000
,
0010
0000
0001
0000
0100
0100
0100
0000
,
0010
0000
1000
0000
0100
0100
1000
1000
,
0100
0001
0110
1000
,
0110
0000
0000
0000
0001
0000
0000
0000
1001
0000
0000
0001
2000
0000
3000
0000
,
1000
0010
1000
0010
0100
0001
0100
0001
,
0010
0001
1000
0100
0010
0001
1000
0000
,
1001
0001
0100
0010
1000
0001
0010
0100
,
0120
0000
0000
0000
0000
0000
0000
0000
0000
0200
0000
0000
0000
0000
0330
0000
,
0110
0000
1000
0100
0001
0000
0010
0000
,
0001
1010
1010
0000
,
0100
0000
0001
0010
0001
0000
1100
0000
,
0001
0100
0001
0100
0001
0100
0001
0000
,
0110
0000
0001
0010
1000
0000
0100
0000
,
1000
0101
0101
0000
,
1000
0100
1000
0100
1000
0000
0020
0000
,
1000
1000
1030
0011
,
0001
0000
0100
0000
0010
0000
1000
0100
,
1000
0100
1000
0000
0001
0000
0000
0000
,
0010
0000
0100
0000
1000
0000
0001
0100
,
0001
0100
0001
0000
1000
0000
0000
0000
,
0101
0001
0101
0000
,
0010
1000
0010
1000
0010
0000
0000
0000
,
1100
1000
1100
0000
,
0010
0001
0010
0001
0010
0000
0000
0000
,
0010
1000
0100
0000
0100
1000
0010
0000
,
0110
0110
0110
0000
,
0010
0001
0100
0000
0100
0001
0010
0000
,
0100
0010
0000
0010
0000
0100
0100
0000
,
1000
0100
0010
0000
1000
0000
0100
0000
,
1000
0100
0010
0000
1000
0000
0000
0000
,
0101
0000
0000
0000
,
2200
0000
0000
0000
0000
0300
0100
3000
,
1000
0000
0020
0000
0100
0130
0000
0001
,
0100
0010
0100
0001
0100
0010
0100
0001
,
1000
0000
0200
0000
0010
0310
0000
1000
,
0100
0010
0100
1000
0100
0010
0100
1000
,
0100
0000
0020
0000
0001
0031
0000
1000
,
0010
1000
0001
1000
0010
1000
0001
1000
,
0010
0000
0200
0000
0010
0310
0000
0001
,
0100
0001
1000
0001
0100
0001
1000
0001
,
0100
0100
0010
0100
0010
1000
0001
0000
,
1000
1100
1100
0000
,
0010
0001
0010
0100
,
0000
1000
0010
1000
0010
1000
0010
0000
,
0100
0100
0010
0100
0001
1000
0001
0000
,
1000
0101
0101
0000
,
0010
1000
0000
0001
0100
0000
0010
0000
,
1002
0013
2001
3100
,
1001
0000
0000
0010
0100
1000
0000
0000
,
0001
0000
0000
0010
0100
0001
0000
0000
,
1000
0000
0000
0010
0100
1000
0000
0000
,
0101
1100
0101
0000
,
0110
0020
0200
0000
,
0000
0000
0000
0000
,
0000
0330
0000
0000
0000
0000
0000
0000
;

//---------------dance-double - ----------------
#NOTES:
     dance-double:
     :
     Beginner:
     1:
     :
00000000
00000000
00000000
00000000
,
00000000
00000000
00000000
00000000
,
00000000
00000000
00000000
00000000
,
00010000
00000000
00010000
00000000
,
00010000
00000000
00000000
00000000
,
10000000
00000000
10000000
00000000
,
10000000
00000000
10000000
00000000
,
01000000
00000000
01000000
00000000
,
01000000
00000000
01000000
00000000
,
00010000
00000000
00010000
00000000
,
00010000
00000000
00010000
00000000
,
00001000
00000000
00001000
00000000
,
00001000
00000000
00001000
00000000
,
00000100
00000000
00000100
00000000
,
00000001
00000000
00000001
00000000
,
00001000
00000000
00001000
00000000
,
00000002
00000000
00000000
00000003
,
00000001
00000000
00000000
00000000
,
00000000
00000000
00000000
00000000
,
00000100
00000000
00000000
00000000
,
00000000
00000000
00000000
00000000
,
00001000
00000000
00000000
00000000
,
00000000
00000000
00000000
00000000
,
00010000
00000000
00000000
00000000
,
00000000
00000000
00000000
00000000
,
01000000
00000000
00000000
00000000
,
01000000
00000000
00000000
00000000
,
10000000
00000000
00000000
00000000
,
10000000
00000000
00000000
00000000
,
00010000
00000000
00000000
00000000
,
00010000
00000000
00000000
00000000
,
00100000
00000000
00000000
00000000
,
00100000
00000000
00000000
00000000
,
01000000
00000000
00000000
00000000
,
01000000
00000000
00000000
00000000
,
10000000
00000000
00000000
00000000
,
00000000
00000000
00000000
00000000
,
01000000
00000000
00000000
00000000
,
01000000
00000000
00000000
00000000
,
00020000
00000000
00000000
00030000
,
00000000
00000000
00000000
00000000
,
00001000
00000000
00001000
00000000
,
00001000
00001000
00000000
00010000
,
00000000
00010000
00000000
00010000
,
00000000
00000100
00000000
00000100
,
00000000
00000100
00000000
00000010
,
00000000
00000010
00000000
00000010
,
00000000
00000001
00000000
00000001
,
00000000
00000001
00000000
00000000
,
00001000
00000000
00001000
00000000
,
00001000
00000000
00000000
00000000
,
00000100
00000000
00000100
00000000
,
00000100
00000000
00000000
00000000
,
00010000
00000000
00010000
00000000
,
00010000
00000000
00000000
00000000
,
00011000
00000000
00000000
00000000
,
00011000
00000000
00000000
00000000
,
00200000
00000000
00000000
00300000
,
00100000
00000000
00000000
00000000
,
02000000
00000000
00000000
03000000
,
01000000
00000000
00000000
00000000
,
01100000
00000000
00000000
00000000
;

//---------------dance-double - ----------------
#NOTES:
     dance-double:
     :
     Easy:
     3:
     :
00000000
00000000
00000000
00000000
,
00000000
00000000
00000000
00000000
,
00000000
00000000
00000000
00000000
,
00100000
00000000
00100000
00000000
,
20000000
00000000
00000000
30000000
,
00010000
00010000
00010000
00000000
,
00001000
00001000
00001000
00000000
,
00010000
00010000
00010000
00000000
,
00000010
00000010
00000010
00000000
,
00000100
00000100
00000100
00000000
,
00000001
00000001
00000001
00000000
,
00001000
00001000
00001000
00000000
,
00010000
00010000
00010000
00000000
,
00100000
10000000
00010000
00010000
,
10000000
01000000
00010000
00000000
,
00001000
00010000
00001000
00001000
,
00021000
00000000
00000000
00030000
,
00001000
00010000
00001000
00000000
,
00000020
00000000
00000030
00000000
,
00000100
00000000
00000100
00000000
,
00000020
00000000
00000030
00000000
,
00000001
00001000
00000001
00000000
,
00000200
00000000
00000300
00000000
,
00001000
00000000
00001000
00000000
,
00020000
00000000
00000000
00030000
,
00010000
00000000
00100000
00000000
,
01000000
01000000
01000000
00000000
,
00010000
00000000
10000000
00000000
,
01000000
01000000
01000000
00000000
,
00010000
00000000
00001000
00000000
,
00000010
00000010
00000010
00000000
,
00000001
00000000
00001000
00000000
,
00000100
00000100
00000100
00000000
,
00001000
00000001
00001000
00000000
,
00000001
00000100
00001000
00000000
,
00010000
00000000
00010000
00000000
,
00011000
00000000
00000000
00000000
,
00100000
00000000
00100000
00000000
,
01000000
00000000
01000000
00000000
,
20000000
00000000
00000000
00000000
,
00020000
00000000
00000000
30030000
,
10000000
00000000
10000000
00000000
,
20000000
00000000
00000000
30000000
,
01000000
00000000
01000000
00000000
,
00020000
00000000
00000000
00030000
,
00001000
00000000
00001000
00000000
,
00000200
00000000
00000000
00000300
,
00000001
00000000
00000001
00000000
,
00000020
00000000
00000000
00000030
,
00000001
00001000
00000001
00000000
,
00000200
00000000
00000300
00000000
,
00001000
00000000
00001000
00000000
,
00020000
00000000
00030000
00000000
,
00001000
00010000
00001000
00000000
,
00200000
00000000
00300000
00000000
,
01000000
00000000
01000000
00000000
,
00200000
00000000
00000000
00300000
,
00010000
00000000
10000000
00000000
,
01000000
00000000
00010000
00000000
,
00001000
00000000
00000100
00000000
,
00000001
00000000
00001000
00000000
,
00001001
00000000
00000000
00000000
;

//---------------dance-double - ----------------
#NOTES:
     dance-double:
     :
     Medium:
     5:
     :
00000000
00000000
00000000
00000000
,
00000000
00000000
00000000
00000000
,
00000000
00000000
00000000
00000000
,
00100000
10000000
01000000
00010000
,
00021000
00000000
00000000
00030000
,
00001000
00010000
00001000
00000000
,
00000010
00001000
00000010
00000000
,
00000001
00000100
00000001
00000000
,
00001000
00000100
00001000
00000000
,
00010000
00001000
00010000
00000000
,
00001000
01000000
00100000
00100000
,
10000000
01000000
10000000
00000000
,
00010000
00100000
00010000
00000000
,
00001000
00010000
00001000
00000000
00000100
00000010
00000100
00000000
,
00000001
00000100
00000010
00000000
00000110
00000000
00000000
00000000
,
00000100
00001000
00010000
00000000
00010000
00100000
01000000
00000000
,
02200000
00000000
00000000
03300000
,
00100000
00010000
01000000
00010000
,
00100000
00000000
01100000
00000000
,
00010000
00000000
00010000
00000000
,
00001000
00000000
00001000
00000000
,
00000100
00000001
00000010
00000001
,
00000100
00000000
00001001
00000000
,
00000100
00000100
00010000
00010000
,
00001000
00001000
00001000
00001000
,
00011000
00000000
01000000
00000000
,
00010000
01000000
00010000
00000000
,
10000000
00000000
00100000
00000000
,
10000000
01000000
10000000
00000000
,
00010000
00000000
00001000
00000000
,
00010000
00001000
00010000
00000000
,
00000100
00000000
00000010
00000000
,
00000001
00000010
00000001
00000000
,
00001000
00000010
00001000
00000000
,
00000001
00000100
00001000
00000000
,
00010000
01000000
10000000
00000000
,
20020000
00000000
00000000
30030000
,
10000000
00010000
10000000
00000000
,
01000000
00010000
00001000
00000000
,
00012000
00000000
00000000
00000000
,
00020000
00000000
00033000
00011000
,
00010000
00001000
00010000
00000000
,
00000010
00001000
00000000
00001000
,
00000100
00001000
00000100
00000000
,
00000010
00000001
00000000
00000001
,
00000100
00000001
00000100
00000000
,
00001000
00010000
00000000
00010000
,
00001000
00010000
00001000
00000000
,
00020000
00001000
00001000
00031000
,
00000010
00001000
00000100
00001000
,
00000010
00000000
00000110
00000000
,
00001000
00000000
00001000
00000000
,
00010000
00000000
00010000
00000000
,
01000000
00010000
00100000
00010000
,
01000000
00000000
10010000
00000000
,
01000000
01000000
00001000
00001000
,
00020000
00001000
00001000
00031000
,
00010000
00001000
00001000
00000010
,
00000001
00000001
00000100
00001000
,
00001000
00010000
00100000
00100000
,
10000000
01000000
01000000
00100000
,
10010000
00000000
00000000
00000000
;

//---------------dance-double - ----------------
#NOTES:
     dance-double:
     :
     Hard:
     7:
     :
00000000
00000000
00000000
00000000
,
00000000
00000000
00000000
00000000
,
00000000
00000000
00000000
00000000
,
00001000
00010000
00001000
00010000
,
00021000
00000000
00000000
00030000
,
00010000
00010000
01000000
01000000
,
00010000
00000000
00010000
00000000
00000100
00010000
00000100
00000000
,
00001000
00000001
00000100
00000100
,
00001000
00000000
00001000
00000000
00100000
00001000
00100000
00000000
,
00010000
00000000
00100000
00000000
01000000
10000000
01000000
00000000
,
00010000
00000000
00001000
00000000
00010000
00001000
00010000
00001000
,
00100000
00001000
00101000
00010000
,
00011000
00000000
00000000
00000000
00000010
00000000
00000000
00000000
00010010
00000000
00000000
00010000
00002000
00000000
00003000
00000000
,
00010000
00001000
00010000
00001000
00000010
00001000
00000010
00000001
,
00000100
00000001
00000100
00000010
00001000
00000001
00000100
00000000
,
00000110
00001000
00000001
00000100
00001000
00010000
00100000
01000000
,
10000000
00000000
00000000
00000000
00000000
00000000
00000000
00000000
00000000
00100000
10000000
00100000
10000000
00100000
01000000
00000000
,
01100000
00000000
10000000
01000000
00010000
00000000
00001000
00000000
,
00000100
00000101
00000101
00000000
,
00001000
00000000
00000001
00000010
00000001
00000000
00001100
00000000
,
00000001
00000010
00000001
00000010
00000001
00000100
00000000
00000000
,
00000110
00000000
00000001
00000100
00001000
00000000
00010000
00000000
,
01000000
11000000
11000000
00000000
,
10000000
00100000
10000000
00100000
10000000
00000000
02000000
00000000
,
00100000
00100000
03100000
01000000
,
10010000
00000000
00010000
00000000
01000000
00000000
00001000
00010000
,
00001000
00010000
00001000
00000000
00000010
00000000
00000000
00000000
,
00000001
00000000
00000100
00000000
00001000
00000000
00010000
00001000
,
00010000
00001000
00010000
00000000
00100000
00000000
00000000
00000000
,
00001000
00010000
01000000
00000000
,
00100000
01000000
00100000
01000000
00100000
00000000
00000000
00000000
,
00010000
00001000
00000100
00000001
,
00000010
00000100
00000010
00000100
00000010
00000000
00000000
00000000
,
00000001
00000100
00001000
00000000
00001000
00010000
01000000
00000000
,
01100000
11000000
01100000
00000000
,
00010000
10000000
01000000
00000000
01000000
00010000
00001000
00000000
,
00000010
00000001
00000000
00000001
00000000
00000100
00001000
00000000
,
00010000
00001000
00000100
00000000
00000001
00000000
00000100
00000000
,
00001000
00010000
01000000
00000000
10000000
00000000
00000000
00000000
,
01010000
00000000
00000000
00000000
,
00022000
00000000
00000000
00000000
00000000
00003000
00001000
00030000
,
00010000
00000000
00000020
00000000
00001000
00001030
00000000
00000001
,
00000010
00000001
00001000
00000001
00000100
00001000
00010000
01000000
,
10000000
00000000
00200000
00000000
10000000
10300000
00000000
00010000
,
10000000
00100000
10000000
00010000
10000000
01000000
00010000
00001000
,
00000100
00000000
00000020
00000000
00001000
00001030
00000000
00000100
,
00001000
00000010
00000100
00001000
00010000
00100000
00010000
00001000
,
00010000
00000000
02000000
00000000
00010000
03010000
00000000
00100000
,
00010000
01000000
00100000
00010000
00001000
00000100
00001000
00010000
,
00001000
00010000
00000100
00001000
00000010
00000100
00000010
00000000
,
00000100
00001100
00001100
00000000
,
00000010
00000001
00000100
00001000
,
00000000
00100000
00010000
00100000
00010000
00100000
01000000
00000000
,
10000000
10000000
00100000
01000000
00010000
10000000
00010000
00000000
,
10000000
11000000
11000000
00000000
,
00010000
00100000
00000000
00001000
00010000
00000000
00000100
00000000
,
00021000
00130000
00012000
00003010
,
00001001
00000000
00000000
00000001
00000100
00001000
00000000
00000000
,
00000010
00000000
00000000
00001000
00010000
01000000
00000000
00000000
,
10000000
00000000
00000000
00100000
00010000
00001000
00000000
00000000
,
00011000
00010100
00001100
00000000
,
00000110
00000020
00000200
00000000
,
00000000
00000000
00000000
00000000
,
00000000
00000330
00000000
00000000
00000000
00000000
00000000
00000000
;
