#TITLE:Audiophilosophy;
#ARTIST:Neverakka;
#BANNER:Audiophilosophy.png;
#BACKGROUND:Audiophilosophy-bg.png;
#CDTITLE:./CDTITLES/Song Pack 16.png;
#MUSIC:Audiophilosophy.ogg;
#SAMPLESTART:48;
#SAMPLELENGTH:15;
#DISPLAYBPM:130;
#BPMS:0=129.964,36=130.007,168=130.003;

//---------------dance-single - ----------------
#NOTES:
     dance-single:
     :
     Beginner:
     1:
     :
0000
0000
0000
0000
,
0000
0000
0000
0000
,
0000
0000
0000
0000
,
0000
0000
0000
0000
,
0000
0000
0000
0000
,
1000
0000
0000
0000
,
0001
0000
0000
0000
,
1000
0000
0001
0000
,
1000
0000
0001
0000
,
1001
0000
0000
0000
,
0000
0000
0000
0000
,
0200
0000
0000
0300
,
0000
0000
0000
0000
,
0020
0000
0000
0030
,
0000
0000
0000
0000
,
0002
0000
0000
0003
,
0000
0000
0000
0000
,
1000
0000
0000
1000
,
1000
0000
0000
0000
,
0001
0000
0000
0001
,
0001
0000
0000
0000
,
0100
0000
0000
0100
,
0100
0000
0000
0000
,
0010
0000
0100
0000
,
0010
0000
0100
0000
,
0110
0000
0000
0000
,
0100
0000
0001
0000
,
0100
0000
0001
0000
,
1000
0000
0100
0000
,
1000
0000
0100
0000
,
0010
0000
0001
0000
,
0010
0000
0001
0000
,
1000
0000
0001
0000
,
1000
0000
0001
0000
,
1001
0000
0000
0000
,
0100
0000
0100
0000
,
0001
0000
0000
0000
,
1000
0000
1000
0000
,
0100
0000
0100
0000
,
0100
0000
0100
0000
,
0010
0000
0010
0000
,
0001
0000
1000
0000
,
1001
0000
0000
0000
,
0100
0000
0000
0000
,
0001
0000
0000
0000
,
1000
0000
0000
0000
,
0100
0000
0000
0000
,
0010
0000
0000
0000
,
0001
0000
0000
0000
,
1000
0000
0000
0000
,
0001
0000
0000
0000
,
1000
0000
0000
0000
,
0010
0000
0000
0000
,
0100
0000
0000
0000
,
0001
0000
0000
0000
,
1000
0000
0000
0000
,
0001
0000
0000
0000
,
0010
0000
0000
0000
,
0200
0000
0000
0300
;

//---------------dance-single - ----------------
#NOTES:
     dance-single:
     :
     Easy:
     2:
     :
0000
0000
0000
0000
,
0000
0000
0000
0000
,
0000
0000
0000
0000
,
0000
0000
0000
0000
,
0000
0000
0000
0000
,
1000
1000
0000
0000
,
0001
0001
0000
0000
,
1000
1000
0000
0000
,
0001
0000
1000
0000
,
1001
0000
0000
0000
,
0100
0000
0000
0000
,
0010
0000
0000
0000
,
0100
0000
0000
0000
,
0001
0000
0000
0000
,
1000
0000
0000
0000
,
0001
0000
0000
0000
,
0010
0010
0010
0010
,
0110
0000
0000
0000
,
0110
0000
0000
0000
,
1001
0000
0000
0000
,
1001
0000
0000
0000
,
0100
0000
0100
0000
,
1000
0000
1000
0000
,
0001
0000
1000
0000
,
0001
0001
1000
1000
,
2002
0000
0000
3003
,
0100
0000
0100
0000
,
0010
0000
0010
0010
,
1000
0000
1000
0000
,
0100
0000
0100
0100
,
0010
0000
0010
0000
,
0001
0000
0001
0001
,
0100
0000
0100
0000
,
0010
0000
0010
0010
,
1000
1000
0000
1000
,
0000
0001
0000
0010
,
0000
0001
0000
1000
,
0000
0001
0000
0100
,
0000
0010
0000
1000
,
0000
0010
0000
0100
,
0000
0001
0000
0010
,
0100
0100
0010
0010
,
0110
0000
0100
0000
,
1000
0000
0001
0000
,
1000
0000
0100
0000
,
0010
0000
0100
0000
,
0001
0000
0100
0000
,
0010
0000
0100
0000
,
1000
0000
0010
0000
,
0100
0000
0001
0000
,
1000
0000
0100
0000
,
0010
0000
0100
0000
,
1000
0000
0001
0000
,
0100
0000
0010
0000
,
0100
0000
0001
0000
,
0010
0000
0100
0000
,
1000
0000
0100
0000
,
0010
0000
0001
0000
,
2002
0000
0000
3003
;

//---------------dance-single - ----------------
#NOTES:
     dance-single:
     :
     Medium:
     5:
     :
0000
0000
0000
0000
,
0000
0000
0000
0000
,
0000
0000
0000
0000
,
0000
0000
0000
0000
,
0000
0000
0000
0000
,
0010
1000
0001
0010
,
1000
0001
0100
1000
,
0010
0001
1000
0010
,
0001
0000
1000
0000
0010
1000
0001
0100
,
0020
0000
0000
0000
,
2030
0000
0000
0000
,
3002
0000
0000
0000
,
0013
0000
0000
0000
0000
0100
0010
0000
,
2000
0000
0000
0000
,
3001
0000
0000
0000
0000
0010
0100
0000
,
2000
0000
0000
0000
,
3001
0000
0000
0000
0000
0010
0100
0010
,
0001
0000
1000
0000
0100
1000
0010
0000
,
0100
0000
0001
0000
1000
0010
0100
0000
,
0001
0000
1000
0000
0100
0010
0001
0000
,
0010
0000
0100
0000
0000
1000
0010
0000
,
0001
0010
0001
0010
,
0001
0000
0010
0000
0001
0000
0010
0100
,
0100
1000
0100
1000
,
0020
0000
0000
0000
,
0130
0000
0000
0110
,
1000
0100
0010
0001
0100
0000
0010
0000
,
1000
0100
0001
0100
,
0001
1000
0010
0100
0001
0000
1000
0000
,
0001
0000
0010
0000
1000
0000
0010
0100
,
1000
0010
1000
0010
0100
0000
0001
0000
,
0010
0100
0010
1000
,
0001
0010
0001
0010
0100
0000
0001
0000
,
0010
1000
0100
0001
,
0001
0010
0100
1000
0010
0000
0100
0000
,
0001
0010
1000
0010
,
1000
0001
0100
0010
1000
0000
0001
0000
,
1000
0000
0100
0000
0001
0000
0100
0010
,
0001
0100
0001
0100
0010
0000
1000
0000
,
0100
0010
0100
0001
,
1000
0100
1000
0100
0010
0000
1000
0000
,
0010
0000
0001
0000
1000
0100
0010
0001
,
0000
0000
0000
0000
0010
0000
0000
0000
0100
0000
0000
1000
0000
0000
0001
0000
,
0000
0000
0000
0000
0010
0000
0000
0000
0100
0000
0000
1000
0000
0000
0001
0000
,
0000
0000
0000
0000
0010
0000
0000
0000
1000
0000
0000
0100
0000
0000
0010
0000
,
0000
0000
0000
0000
1000
0000
0000
0000
0001
0000
0000
0010
0000
0000
0100
0000
,
0000
0000
0000
0000
0001
0000
0000
0000
1000
0000
0000
0010
0000
0000
0100
0000
,
0000
0000
0000
0000
0001
0000
0000
0000
0010
0000
0000
0100
0000
0000
1000
0000
,
0000
0000
0000
0000
1000
0000
0000
0000
0010
0000
0000
0100
0000
0000
0010
0000
,
0000
0000
0000
0000
0100
0000
0000
0000
0001
0000
0000
1000
0000
0000
0010
0000
,
0000
0000
0000
0000
0010
0000
0000
0000
1000
0000
0000
0010
0000
0000
0001
0000
,
0000
0000
0000
0000
0001
0000
0000
0000
0010
0000
0000
1000
0000
0000
0010
0000
,
0000
0000
0000
0000
0100
0000
0000
0000
0001
0000
0000
0100
0000
0000
1000
0000
,
0000
0000
0000
0000
1000
0000
0000
0000
0100
0000
0000
0001
0000
0000
0100
0000
,
0000
0000
0000
0000
0010
0000
0000
0000
1000
0000
0000
0100
0000
0000
0010
0000
,
0000
0000
0000
0000
0010
0000
0000
0000
0001
0000
0000
0100
0000
0000
0010
0000
,
0000
0000
0000
0000
1000
0000
0000
0000
0001
0000
0000
0100
0000
0000
0010
0000
,
0000
0000
0000
0000
1000
0000
0000
0000
0001
0000
0000
0100
0000
0000
0010
0000
;

//---------------dance-single - ----------------
#NOTES:
     dance-single:
     :
     Hard:
     8:
     :
0000
0000
0000
0000
,
0000
0000
0000
0000
,
0000
0000
0000
0000
,
0000
0000
0000
0000
,
0000
0000
0000
0000
,
0000
0010
0100
0000
0000
1100
1002
0000
,
0000
0103
0010
0000
0000
1010
1002
0000
,
0000
0013
1000
0000
0000
0101
1200
0000
,
0000
1300
0010
0000
0000
0011
1010
0000
,
2002
0000
0000
0000
,
0000
0000
0003
0000
0000
0200
3000
0000
,
2300
0000
0000
0000
,
0000
0000
0000
0000
0000
0020
3000
0000
,
0230
0000
0000
0000
,
0000
0000
0000
0000
0000
0002
0300
0000
,
0023
0000
0000
0030
,
0100
0010
0010
0100
1000
1000
0001
1000
,
0210
0000
0301
0000
0000
0110
0001
0000
,
0210
0000
1300
0000
0000
0110
1000
0001
,
2001
0000
3100
0000
0000
1001
0100
0000
,
2001
0000
3010
0000
0000
1001
0010
0100
,
0102
0000
0013
0000
0000
0101
0010
0000
,
2100
0000
3010
0000
0100
1000
0010
0100
,
1000
0100
0001
1000
0100
0001
0100
1000
,
0001
0000
1000
0001
0000
0100
0010
0000
1000
0001
0000
0100
0010
0000
1000
0000
,
0001
0000
1000
0000
0001
1000
0000
1000
0001
0000
0001
1000
0000
1000
0001
0000
,
0100
0000
0010
0000
0100
0010
0000
0100
1000
0000
0100
0001
0000
0100
0010
0000
,
1000
0001
0000
0010
0100
0000
1000
0100
0000
0001
0100
0000
0100
1000
0000
1000
,
0010
0000
0100
0000
0010
0100
0000
1000
0100
0000
0001
0100
0000
0010
0100
0001
,
0000
0010
0100
0000
1000
0001
0000
0010
0100
0000
0100
1000
0000
1000
0010
0100
,
0000
0001
0010
0000
0100
0010
0000
0001
0010
0000
0100
0010
0000
0100
1000
0000
,
0100
0010
0000
0100
1000
0000
0100
0010
0000
0001
1000
0000
1000
0010
0000
0010
,
0100
0000
0010
0000
0100
0001
0000
0010
0001
0000
1000
0100
0000
1000
0010
0100
,
0000
0001
0010
0000
0001
0100
0000
0100
0010
0000
0010
1000
0000
1000
0001
0010
,
0100
1000
0100
1000
0010
0100
0001
0100
,
0010
1000
0100
1000
0100
0010
0001
0100
,
0001
0010
0001
0010
0100
1000
0010
1000
,
0100
0010
0001
0010
0001
0100
0010
1000
,
0001
0100
0010
0100
0001
0100
0010
1000
,
0100
0010
0100
1000
0100
0010
0100
1000
,
0010
0100
0001
0010
0001
0100
0010
1000
,
0100
0001
0100
1000
0010
0100
0010
0100
,
1001
0000
0000
0000
1000
0000
1000
0000
0200
0000
0000
0320
0000
0000
0032
0000
,
0000
0003
0000
0000
0001
0000
0001
0000
0200
0000
0000
0320
0000
0000
2030
0000
,
0000
3000
0000
0000
0001
0000
0001
0000
0200
0000
0000
2300
0000
0000
3200
0000
,
0000
0300
0000
0000
0001
0000
0001
0000
0020
0000
0000
0230
0000
0000
2300
0000
,
0001
3000
0000
0000
0010
0000
0100
0000
1000
0000
0000
0001
0000
0000
1000
0000
,
0100
0000
0010
0000
1000
0000
0010
0000
0001
0000
0000
1000
0000
0000
0010
0000
,
0100
0000
0010
0000
1000
0000
0001
0000
0100
0000
0000
0010
0000
0000
0100
0000
,
0001
0000
1000
0000
0100
0000
0010
0000
0001
0000
0000
1000
0000
0000
0001
0000
,
1000
0000
0000
0000
0001
0000
1000
0000
0100
0000
0000
1000
0000
0000
0101
0000
,
0000
0000
0000
0000
1000
0000
0001
0000
0100
0000
0000
0001
0000
0000
1100
0000
,
0000
0000
0000
0000
0010
0000
0001
0000
1000
0000
0000
0001
0000
0000
1010
0000
,
0000
0000
0000
0000
0100
0000
0001
0000
1000
0000
0000
0001
0000
0000
1100
0000
,
0000
0000
0000
0000
0010
0000
0001
0000
1000
0000
0000
0101
0000
0000
1100
0000
,
0000
0000
0000
0000
0100
0000
0001
0000
1000
0000
0000
0011
0000
0000
1010
0000
,
0000
0000
0000
0000
0100
0000
0001
0000
1100
0000
0000
1010
0000
0000
1001
0000
,
0000
0000
0000
0000
0010
0000
1000
0000
0011
0000
0000
0101
0000
0000
1001
0000
,
0200
0000
0000
0000
,
0300
0000
0000
0000
;

//---------------dance-double - ----------------
#NOTES:
     dance-double:
     :
     Beginner:
     1:
     :
00000000
00000000
00000000
00000000
,
00000000
00000000
00000000
00000000
,
00000000
00000000
00000000
00000000
,
00000000
00000000
00000000
00000000
,
00000000
00000000
00000000
00000000
,
10000000
00000000
00000000
00000000
,
01000000
00000000
00000000
00000000
,
00010000
00000000
00010000
00000000
,
00001000
00000000
00001000
00000000
,
00011000
00000000
00000000
00000000
,
00000000
00000000
00000000
00000000
,
00000200
00000000
00000000
00000300
,
00000000
00000000
00000000
00000000
,
00000002
00000000
00000000
00000003
,
00000000
00000000
00000000
00000000
,
00002000
00000000
00000000
00003000
,
00000000
00000000
00000000
00000000
,
00000100
00000000
00000000
00000100
,
00000100
00000000
00000000
00000000
,
00010000
00000000
00000000
00010000
,
00010000
00000000
00000000
00000000
,
00001000
00000000
00000000
00001000
,
00001000
00000000
00000000
00000000
,
00010000
00000000
00010000
00000000
,
01000000
00000000
01000000
00000000
,
01100000
00000000
00000000
00000000
,
01000000
00000000
10000000
00000000
,
01000000
00000000
10000000
00000000
,
00100000
00000000
10000000
00000000
,
00100000
00000000
10000000
00000000
,
00100000
00000000
00010000
00000000
,
00100000
00000000
00010000
00000000
,
00001000
00000000
00010000
00000000
,
00001000
00000000
00010000
00000000
,
00011000
00000000
00000000
00000000
,
00000100
00000000
00000100
00000000
,
00000010
00000000
00000000
00000000
,
00001000
00000000
00001000
00000000
,
00000001
00000000
00000001
00000000
,
00000001
00000000
00000001
00000000
,
00000010
00000000
00000010
00000000
,
00000100
00000000
00001000
00000000
,
00001001
00000000
00000000
00000000
,
00000100
00000000
00000000
00000000
,
00010000
00000000
00000000
00000000
,
00001000
00000000
00000000
00000000
,
01000000
00000000
00000000
00000000
,
00010000
00000000
00000000
00000000
,
10000000
00000000
00000000
00000000
,
00100000
00000000
00000000
00000000
,
01000000
00000000
00000000
00000000
,
00010000
00000000
00000000
00000000
,
00100000
00000000
00000000
00000000
,
00001000
00000000
00000000
00000000
,
00010000
00000000
00000000
00000000
,
00000100
00000000
00000000
00000000
,
00001000
00000000
00000000
00000000
,
00000001
00000000
00000000
00000000
,
00000200
00000000
00000000
00000300
;

//---------------dance-double - ----------------
#NOTES:
     dance-double:
     :
     Easy:
     3:
     :
00000000
00000000
00000000
00000000
,
00000000
00000000
00000000
00000000
,
00000000
00000000
00000000
00000000
,
00000000
00000000
00000000
00000000
,
00000000
00000000
00000000
00000000
,
00010000
00010000
00000000
00000000
,
00001000
00001000
00000000
00000000
,
00010000
00010000
00000000
00000000
,
00010000
00000000
00001000
00000000
,
00011000
00000000
00000000
00000000
,
01000000
00000000
00000000
00000000
,
10000000
00000000
00000000
00000000
,
01000000
00000000
00000000
00000000
,
00010000
00000000
00000000
00000000
,
00001000
00000000
00000000
00000000
,
00000100
00000000
00000000
00000000
,
00000001
00000001
00000001
00000001
,
00001001
00000000
00000000
00000000
,
00001001
00000000
00000000
00000000
,
00000110
00000000
00000000
00000000
,
00000110
00000000
00000000
00000000
,
00001000
00000000
00001000
00000000
,
00010000
00000000
00010000
00000000
,
01000000
00000000
01000000
00000000
,
10000000
10000000
00010000
00010000
,
20020000
00000000
00000000
30030000
,
01000000
00000000
01000000
00000000
,
00100000
00000000
00100000
00100000
,
00010000
00000000
00010000
00000000
,
00001000
00000000
00001000
00001000
,
00000100
00000000
00000100
00000000
,
00000001
00000000
00000001
00000001
,
00001000
00000000
00001000
00000000
,
00000100
00000000
00000100
00000100
,
00010000
00010000
00000000
00001000
,
00000000
00100000
00000000
00010000
,
00000000
01000000
00000000
00100000
,
00000000
10000000
00000000
01000000
,
00000000
00010000
00000000
00001000
,
00000000
00010000
00000000
00001000
,
00000000
00000100
00000000
00000001
,
00001000
00001000
00000001
00000001
,
00001001
00000000
00000100
00000000
,
00000010
00000000
00000001
00000000
,
00000100
00000000
00001000
00000000
,
00010000
00000000
00001000
00000000
,
00000010
00000000
00001000
00000000
,
00010000
00000000
01000000
00000000
,
10000000
00000000
00100000
00000000
,
01000000
00000000
10000000
00000000
,
01000000
00000000
00010000
00000000
,
00100000
00000000
00001000
00000000
,
00010000
00000000
00000100
00000000
,
00001000
00000000
00000010
00000000
,
00000100
00000000
00000001
00000000
,
00000100
00000000
00001000
00000000
,
00010000
00000000
01000000
00000000
,
10000000
00000000
00010000
00000000
,
20020000
00000000
00000000
30030000
;

//---------------dance-double - ----------------
#NOTES:
     dance-double:
     :
     Medium:
     6:
     :
00000000
00000000
00000000
00000000
,
00000000
00000000
00000000
00000000
,
00000000
00000000
00000000
00000000
,
00000000
00000000
00000000
00000000
,
00000000
00000000
00000000
00000000
,
00000010
00001000
00000100
00010000
,
00001000
00100000
00010000
10000000
,
00100000
01000000
00010000
10000000
,
01000000
00000000
00010000
00000000
00001000
00010000
00001000
00010000
,
00000200
00000000
00000000
00000000
,
00000320
00000000
00000000
00000000
,
00000032
00000000
00000000
00000000
,
00000103
00000000
00000000
00000000
00000000
00001000
00010000
00000000
,
02000000
00000000
00000000
00000000
,
13000000
00000000
00000000
00000000
00000000
00100000
00010000
00000000
,
00002000
00000000
00000000
00000000
,
00003100
00000000
00000000
00000000
00000000
00000001
00001000
00000001
,
00000100
00000000
00000010
00000000
00000100
00000001
00000010
00000000
,
00000100
00000000
00001000
00000000
00000010
00001000
00000100
00000000
,
00010000
00000000
00001000
00000000
00100000
00001000
00010000
00000000
,
00001000
00000000
01000000
00000000
00000000
00010000
00100000
00000000
,
01000000
00100000
01000000
00100000
,
01000000
00000000
00100000
00000000
01000000
00000000
00100000
01000000
,
10000000
00010000
10000000
00010000
,
20020000
00000000
00000000
30030000
,
01100000
00000000
00000000
01100000
,
10000000
00010000
00100000
00010000
01000000
00000000
00001000
00000000
,
00010000
00001000
00010000
00001000
,
00000100
00000010
00001000
00000010
00000001
00000000
00000010
00000000
,
00000100
00000000
00001000
00000000
00000100
00000000
00000010
00001000
,
00000100
00000010
00000100
00000010
00000001
00000000
00001000
00000000
,
00000010
00010000
00001000
00100000
,
00010000
01000000
00010000
01000000
00100000
00000000
10000000
00000000
,
01000000
00100000
01000000
10000000
,
00010000
00100000
01000000
00100000
00010000
00000000
01000000
00000000
,
00001000
00010000
00000100
00001000
,
00000010
00000100
00000001
00000100
00000010
00000000
00001000
00000000
,
00000001
00000000
00000010
00000000
00000100
00000000
00001000
00000100
,
00010000
00001000
00010000
00001000
00100000
00000000
00010000
00000000
,
01000000
00100000
01000000
00010000
,
00100000
01000000
00100000
01000000
10000000
00000000
00010000
00000000
,
01000000
00000000
00100000
00000000
01000000
00010000
00100000
00001000
,
00000000
00000000
00000000
00000000
00010000
00000000
00000000
00000000
00001000
00000000
00000000
00000100
00000000
00000000
00000001
00000000
,
00000000
00000000
00000000
00000000
00000100
00000000
00000000
00000000
00001000
00000000
00000000
00010000
00000000
00000000
01000000
00000000
,
00000000
00000000
00000000
00000000
10000000
00000000
00000000
00000000
00100000
00000000
00000000
00010000
00000000
00000000
00001000
00000000
,
00000000
00000000
00000000
00000000
00000100
00000000
00000000
00000000
00001000
00000000
00000000
00010000
00000000
00000000
01000000
00000000
,
00000000
00000000
00000000
00000000
00010000
00000000
00000000
00000000
00001000
00000000
00000000
00000100
00000000
00000000
00000001
00000000
,
00000000
00000000
00000000
00000000
00000010
00000000
00000000
00000000
00001000
00000000
00000000
00010000
00000000
00000000
01000000
00000000
,
00000000
00000000
00000000
00000000
10000000
00000000
00000000
00000000
01000000
00000000
00000000
00010000
00000000
00000000
00001000
00000000
,
00000000
00000000
00000000
00000000
00000100
00000000
00000000
00000000
00000010
00000000
00000000
00000100
00000000
00000000
00000001
00000000
,
00000000
00000000
00000000
00000000
00000100
00000000
00000000
00000000
00001000
00000000
00000000
00010000
00000000
00000000
01000000
00000000
,
00000000
00000000
00000000
00000000
00100000
00000000
00000000
00000000
01000000
00000000
00000000
10000000
00000000
00000000
00100000
00000000
,
00000000
00000000
00000000
00000000
01000000
00000000
00000000
00000000
00010000
00000000
00000000
01000000
00000000
00000000
10000000
00000000
,
00000000
00000000
00000000
00000000
00010000
00000000
00000000
00000000
00100000
00000000
00000000
01000000
00000000
00000000
00001000
00000000
,
00000000
00000000
00000000
00000000
00010000
00000000
00000000
00000000
00000100
00000000
00000000
00001000
00000000
00000000
00000010
00000000
,
00000000
00000000
00000000
00000000
00000100
00000000
00000000
00000000
00000001
00000000
00000000
00001000
00000000
00000000
00000100
00000000
,
00000000
00000000
00000000
00000000
00000010
00000000
00000000
00000000
00001000
00000000
00000000
00010000
00000000
00000000
01000000
00000000
,
00000000
00000000
00000000
00000000
10000000
00000000
00000000
00000000
00010000
00000000
00000000
10000000
00000000
00000000
00010000
00000000
;

//---------------dance-double - ----------------
#NOTES:
     dance-double:
     :
     Hard:
     9:
     :
00000000
00000000
00000000
00000000
,
00000000
00000000
00000000
00000000
,
00000000
00000000
00000000
00000000
,
00000000
00000000
00000000
00000000
,
00000000
00000000
00000000
00000000
,
00000100
00000000
00001001
00000000
00000100
00001000
00000020
00000000
,
00000130
00000000
00001001
00000000
00000100
00000001
00000020
00000000
,
00001030
00000000
00011000
00000000
00010000
01000000
20000000
00000000
,
30100000
00000000
01100000
00000000
00100000
00010000
00001000
00000000
,
00022000
00003000
00030200
00000000
,
00000320
00000000
00000032
00000003
,
00002002
00000003
00000020
00003000
,
00000230
00000000
00002300
00003000
,
00022000
00003000
02030000
00000000
,
23000000
00000000
30200000
00300000
,
02200000
00300000
03002000
00000000
,
00013000
00000100
00000100
00010000
00000010
00000010
00000100
00000001
,
00001001
00000000
00000100
00000000
00000000
00001001
00000100
00000000
,
00011000
00000000
00000100
00000000
00000000
00011000
00000100
00000000
,
00011000
00000000
01000000
00000000
00000000
00011000
01000000
00000000
,
10010000
00000000
01000000
00000000
00000000
10010000
01000000
00000000
,
00100000
00000000
01100000
00000000
10100000
00010000
01000000
00000000
,
00100000
00000000
00110000
00000000
00101000
00010000
00001000
00000000
,
00010000
00000000
00010100
00000000
00001100
00000001
00000010
00000001
,
00000100
00000010
00000100
00001000
00010000
01000000
00100000
01000000
,
10000000
00000000
00100000
00000000
01000000
00100000
00000000
01000000
00100000
00000000
01000000
00100000
00000000
01000000
00100000
00000000
,
10000000
00000000
00010000
00000000
01000000
00100000
00000000
01000000
00010000
00000000
00100000
00010000
00000000
00100000
00001000
00000000
,
00100000
00010000
00000000
01000000
00010000
00000000
01000000
00100000
00000000
01000000
00001000
00000000
00010000
00000010
00000000
00001000
,
00000001
00000000
00001000
00000000
00000100
00000010
00000000
00000100
00001000
00000000
00000010
00001000
00000000
00000010
00010000
00000010
,
00000000
00001000
00000010
00000000
00001000
00000100
00000000
00000010
00000100
00000000
00010000
00000100
00000000
00010000
00001000
00010000
,
00000000
00001000
00100000
00000000
00010000
01000000
00000000
00001000
00100000
00000000
00010000
00100000
00000000
00001000
01000000
00000000
,
00010000
00100000
00000000
00001000
01000000
00000000
00010000
00100000
00000000
00001000
00010000
00000000
00000010
00001000
00000000
00000001
,
00000100
00000000
00000010
00000000
00001000
00000100
00000000
00010000
00000010
00000000
00001000
00000100
00000000
00010000
00000010
00001000
,
00000000
00000100
00010000
00000000
00000010
00001000
00000000
00000100
00010000
00000000
00000010
00001000
00000000
00000001
00000100
00000010
,
00001000
00000001
00000100
00001000
00000100
00000010
00001000
00000001
,
00000010
00000100
00010000
00001000
01000000
00100000
10000000
00010000
,
01000000
10000000
01000000
00010000
00100000
01000000
10000000
00010000
,
00100000
00001000
00010000
00000100
00001000
00000001
00000100
00000010
,
00001000
00000100
00000001
00000100
00001000
00000010
00000100
00000001
,
00000100
00001000
00010000
01000000
00100000
00010000
10000000
01000000
,
00100000
00010000
01000000
10000000
01000000
00010000
00100000
00001000
,
00010000
00000010
00001000
00000001
00000100
00001000
00010000
00100000
,
01100000
00000000
00000000
00000000
10000000
00000000
02000000
00000000
00010000
00000000
00000000
10000000
00000000
00000000
03010000
00000000
,
00000000
00000000
00000000
00000000
00010000
00000000
00002000
00000000
00000100
00000000
00000000
00010000
00000000
00000000
00003100
00000000
,
00000000
00000000
00000000
00000000
00000100
00000000
00000002
00000000
00000010
00000000
00000000
00000100
00000000
00000000
00000013
00000000
,
00000000
00000000
00000000
00000000
00000010
00000000
00002000
00000000
00010000
00000000
00000000
00000010
00000000
00000000
00013000
00000000
,
00011000
00000000
00000000
00000000
00010000
00000000
02000000
00000000
10000000
00000000
00000000
00010000
00000000
00000000
13000000
00000000
,
01000000
00000000
00100000
00000000
10000000
00000000
00200000
00000000
00010000
00000000
00000000
10000000
00000000
00000000
00310000
00000000
,
01000000
00000000
00001000
00000000
00010000
00000000
00000020
00000000
00000100
00000000
00000000
00010000
00000000
00000000
00000130
00000000
,
00000001
00000000
00001000
00000000
00000100
00000000
00000020
00000000
00000001
00000000
00000000
00000100
00000000
00000000
00000031
00000000
,
00001001
00000000
00000000
00000000
00000100
00000000
00000001
00000000
00000010
00000000
00000000
00001000
00000000
00000000
00011000
00000000
,
00000000
00000000
00000000
00000000
00100000
00000000
10000000
00000000
01000000
00000000
00000000
00010000
00000000
00000000
00011000
00000000
,
00000000
00000000
00000000
00000000
00000100
00000000
00000010
00000000
00001000
00000000
00000000
00000101
00000000
00000000
00001100
00000000
,
00000000
00000000
00000000
00000000
01000000
00000000
00100000
00000000
00010000
00000000
00000000
11000000
00000000
00000000
01010000
00000000
,
00000000
00000000
00000000
00000000
00100000
00000000
00010000
00000000
01010000
00000000
00000000
01001000
00000000
00000000
00011000
00000000
,
00000000
00000000
00000000
00000000
00000100
00000000
00001000
00000000
00001010
00000000
00000000
00000110
00000000
00000000
00000101
00000000
,
00000000
00000000
00000000
00000000
00001000
00000000
00000100
00000000
00010100
00000000
00000000
00011000
00000000
00000000
00101000
00000000
,
00000000
00000000
00000000
00000000
00010000
00000000
01000000
00000000
01010000
00000000
00000000
01100000
00000000
00000000
10100000
00000000
,
20020000
00000000
00000000
00000000
,
30030000
00000000
00000000
00000000
;
