#TITLE:Arms (Alpha Omega Mix);
#ARTIST:Monolithic;
#BANNER:Arms (Alpha Omega Mix).png;
#BACKGROUND:Arms (Alpha Omega Mix)-bg.png;
#CDTITLE:./CDTITLES/Dance Dance Revolution ULTRAMIX4.png;
#MUSIC:Arms (Alpha Omega Mix).ogg;
#SAMPLESTART:63.43;
#SAMPLELENGTH:15;
#BPMS:0=140;

//---------------dance-single - ----------------
#NOTES:
     dance-single:
     :
     Beginner:
     1:
     :
0000
0000
0000
0000
,
0000
0000
0000
0000
,
0000
0000
0000
0000
,
0000
0000
0000
0000
,
0000
0000
0000
0000
,
0100
0000
0000
0000
,
0001
0000
0000
0000
,
1000
0000
0000
0000
,
0100
0000
0000
0000
,
1000
0000
0000
0000
,
0001
0000
0000
0000
,
1000
0000
0000
0000
,
0001
0000
0000
0000
,
0100
0000
0100
0000
,
0100
0000
0000
0000
,
0001
0000
0001
0000
,
0001
0000
0000
0000
,
1000
0000
1000
0000
,
1000
0000
0000
0000
,
1001
0000
0000
0000
,
1001
0000
0000
0000
,
0001
0000
0000
0000
,
1000
0000
0000
0000
,
0010
0000
0000
0000
,
0010
0000
0000
0100
,
0100
0000
0000
0000
,
0001
0000
0000
0000
,
1000
0000
0000
0000
,
1000
0000
0000
0010
,
0010
0000
0000
0000
,
0010
0000
0000
0000
,
0001
0000
0000
0000
,
1000
0000
0000
0100
,
0100
0000
0000
0000
,
0100
0000
0000
0000
,
1000
0000
0001
0000
,
0001
0000
0000
0000
,
1001
0000
0000
0000
,
1000
0000
0000
0000
,
0100
0000
0000
0000
,
1000
0000
0000
0000
,
0001
0000
0001
0000
,
0010
0000
0000
0000
,
1000
0000
1000
0000
,
0010
0000
0000
0000
,
1000
0000
0000
0000
,
0001
0000
0000
0000
,
0100
0000
0000
0000
,
0010
0000
0000
0000
,
1000
0000
0000
0000
,
0001
0000
0001
0000
,
1000
0000
0000
0000
,
1000
0000
0100
0000
,
0100
0000
0000
0000
,
0001
0000
0000
0000
,
1000
0000
0000
0000
,
0100
0000
0100
0000
,
0001
0000
0000
0000
,
0100
0000
0100
0000
,
1000
0000
0000
0000
,
0001
0000
0000
0000
,
0010
0000
0000
0000
;

//---------------dance-single - ----------------
#NOTES:
     dance-single:
     :
     Easy:
     3:
     :
0000
0000
0000
0000
,
0000
0000
0000
0000
,
0000
0000
0000
0000
,
0000
0000
0000
0000
,
0000
0000
0000
0000
,
1000
0000
0100
0000
,
1000
0000
0001
0000
,
0010
0000
0001
0000
,
0200
0000
0000
0300
,
0001
0000
1000
0000
,
0010
0000
1000
0000
,
0020
0000
0000
0030
,
2000
0000
0000
3000
,
0001
0000
0100
0000
,
0001
0000
1000
0000
,
0010
0000
1000
0000
,
0200
0000
0000
0300
,
1000
0000
0010
0000
,
0100
0000
0001
0000
,
0100
0000
0010
0000
,
1000
0000
0001
0000
,
1000
0000
0010
0000
,
0100
0100
0100
0000
,
0001
0000
1000
0000
,
0100
0010
0100
0000
,
0001
0000
0010
0000
,
0100
0100
0100
0000
,
1000
0000
0010
0000
,
0100
0010
0100
0000
,
0001
0000
1000
0000
,
0001
0001
0001
0000
,
1000
0001
1000
0000
,
0100
0000
1000
0000
,
0010
0010
0010
0000
,
0100
0010
0100
0000
,
2002
0000
0000
3003
,
0000
0000
0000
0000
,
0001
0000
0010
0000
,
0100
0000
1000
0000
,
0010
0000
0000
1000
,
0001
0000
0000
0000
,
1000
1000
1000
0000
,
0001
0100
0001
0000
,
0010
0010
0010
0000
,
0100
1000
0100
1000
,
0001
0000
0100
0000
,
0001
0000
1000
0000
,
0200
0000
0000
0300
,
1000
0000
0100
0000
,
0010
0010
0010
0000
,
0001
0010
0001
0000
,
0100
0000
0010
0000
,
1000
0001
1000
0001
,
0100
0000
0001
0000
,
1000
0000
0010
0000
,
0100
0100
0100
0000
,
0001
0100
0001
0000
,
1000
0000
0010
0000
,
0100
0000
0010
0000
,
1000
0001
1000
0001
,
0100
0000
0010
0000
,
1001
0000
0000
0000
;

//---------------dance-single - ----------------
#NOTES:
     dance-single:
     :
     Medium:
     6:
     :
0000
0000
0000
0000
,
0000
0000
0000
0000
,
0000
0000
0000
0000
,
0000
0000
0000
0000
,
0000
0000
0000
0000
,
0100
0010
0100
0010
,
0100
1000
0100
0010
,
0100
0000
0001
0100
0000
0000
0000
0000
,
1100
0000
0011
0000
,
0100
0001
0100
0010
,
0100
0000
1000
0000
0100
0000
0001
0100
,
0000
0000
0110
0000
,
1000
0010
0100
0000
,
0001
0100
1000
0100
,
0001
0100
0010
1000
,
0010
0000
1000
0100
0000
0000
0010
0000
,
0001
1001
1000
1001
,
0001
0100
1000
0000
0100
0000
0001
0000
,
1000
0100
0001
0000
0100
0000
1000
0000
,
0010
0100
0001
1000
,
0010
0100
0001
1000
,
1000
0010
0000
0100
0001
0000
0010
0000
,
0100
1100
0001
0101
,
1000
0100
0000
0001
0100
0000
0010
0000
,
1000
1100
0001
0011
,
0010
0100
0000
0001
1000
0000
0100
0000
,
0010
0011
0100
1100
,
1000
0100
0000
0010
0100
0000
0001
0000
,
0100
1001
0010
1010
,
1000
0100
0010
0000
0100
0000
0100
0000
,
0001
0100
1000
0001
,
0001
0010
0100
0000
0010
0000
0010
0000
,
1000
0010
0001
1000
,
1000
0100
0010
0000
0100
0000
0100
0000
,
0001
0010
0100
0000
0010
0000
0010
0000
,
2002
0000
0000
3003
,
0000
0000
0000
0000
,
0010
0001
0010
0000
1000
0000
1000
0000
,
1001
0010
0100
1001
,
0220
0000
0000
0300
0000
1000
0000
2030
,
0000
3010
1000
0001
,
1000
0100
1000
0000
0001
0100
0001
0000
,
0100
0010
1000
0001
,
1000
0100
1000
0000
0010
0001
0010
0000
,
0020
2030
3002
0203
,
0301
1000
0100
0000
0100
0000
0100
0000
,
0110
0001
1000
0110
,
0100
0010
0001
0000
1000
0000
1000
0000
,
1010
0001
0100
1010
,
0001
0100
1000
0000
0100
0000
0001
0000
,
1000
0100
0001
0000
0100
0000
1000
0000
,
0001
0100
0001
0000
1000
0010
1000
0000
,
0202
0000
0000
0303
,
1000
0001
0100
0000
0010
0000
0010
0000
,
1010
0000
0101
0000
,
0010
0100
0001
0000
0010
0000
0010
0000
,
1001
0000
1010
0000
,
1000
0100
1000
0000
0020
0000
0230
0000
,
0301
1000
0010
0000
0200
0000
0302
0000
,
1003
0010
0100
0000
0001
1000
0001
0000
,
1000
1100
0001
0101
,
1002
0000
0000
0000
0000
0103
0000
0000
;

//---------------dance-single - ----------------
#NOTES:
     dance-single:
     :
     Hard:
     7:
     :
0000
0000
0000
0000
,
0000
0000
0000
0000
,
0000
0000
0000
0000
,
0000
0000
0000
0000
,
0000
0000
0000
0000
,
0001
1000
0010
1000
0010
0000
0000
0000
,
0200
0010
0001
0310
,
1000
0001
0100
0001
0100
0000
0000
0000
,
1100
0000
0011
0000
,
0001
0010
0100
0010
0100
0000
0000
0000
,
2000
0100
0001
3100
,
1000
0001
0010
0001
0010
0000
0000
0000
,
0220
0000
0000
0330
,
0010
0001
0200
0000
0000
0000
0010
0000
,
0302
0100
1000
0103
,
1000
0010
0200
0000
0000
0000
1000
0000
,
0320
0100
0001
0130
,
0001
1000
0020
0000
0000
0000
0001
0000
,
2030
0001
0100
3001
,
0100
0001
0100
0000
0010
1000
0010
0000
,
0011
0000
0110
0000
,
0010
0001
0000
0010
1000
0000
0010
0001
,
0100
1000
0000
0100
0001
0000
0010
0100
,
1000
0100
0000
0001
0010
0000
1000
0010
,
0110
0000
1001
0000
,
0001
1000
0000
0010
0100
0000
0001
0010
,
1000
0010
0000
0001
0100
0000
0010
0100
,
0010
1000
0000
0010
0100
0000
0001
1000
,
1100
0000
0101
0000
,
0100
1000
0010
0000
0100
0010
0100
0000
,
0001
1000
0010
0000
0100
1000
0100
0000
,
0100
0101
0100
0101
,
0010
1010
0010
1010
,
0001
1000
0001
0100
0010
1000
0001
0000
,
0100
0010
0100
1000
0100
0001
0010
0100
,
0020
0001
0100
0001
,
0230
0000
0000
0300
,
1000
0100
0010
0001
0010
0100
1000
0000
,
0001
0101
1000
1100
,
0100
0010
0001
0010
0100
0010
0001
0000
,
0100
0110
1000
1001
,
1000
0010
1000
0010
0000
0100
0001
0100
,
0010
1000
0100
0001
0000
0100
1000
0100
,
0010
0001
0010
0100
1000
0100
0010
0100
,
1001
0001
0101
0100
,
0001
1000
0010
0100
0001
0100
1000
0000
,
0101
0001
1100
0100
,
0010
0001
0100
0001
1000
0010
1000
0000
,
0100
1001
0010
0110
,
0001
0100
0001
0100
0000
0010
1000
0010
,
0100
0001
0010
1000
0000
0010
0001
0010
,
0100
0000
1000
0002
0000
0100
0000
2003
,
0000
0000
0000
3000
,
0001
0010
0100
0010
0100
0010
0100
0010
,
0001
0101
0001
0101
,
0100
0010
1000
0010
1000
0010
1000
0010
,
0100
0110
0100
0110
,
1000
0010
1000
0010
0000
0100
0001
0010
,
0100
0010
0001
1100
0000
0000
0110
0000
,
0100
1000
0001
0100
0010
0100
0001
0100
,
0010
1000
0100
1000
0001
1000
0020
0000
,
1030
0001
0200
0000
0000
0310
0000
0000
;

//---------------dance-double - ----------------
#NOTES:
     dance-double:
     :
     Beginner:
     1:
     :
00000000
00000000
00000000
00000000
,
00000000
00000000
00000000
00000000
,
00000000
00000000
00000000
00000000
,
00000000
00000000
00000000
00000000
,
00000000
00000000
00000000
00000000
,
00000001
00000000
00000000
00000000
,
00000100
00000000
00000000
00000000
,
00001000
00000000
00000000
00000000
,
00010000
00000000
00000000
00000000
,
00100000
00000000
00000000
00000000
,
10000000
00000000
00000000
00000000
,
00010000
00000000
00000000
00000000
,
00010000
00000000
00000000
00000000
,
00001000
00000000
00001000
00000000
,
00001000
00000000
00000000
00000000
,
00000100
00000000
00000100
00000000
,
00000100
00000000
00000000
00000000
,
00010000
00000000
00010000
00000000
,
00010000
00000000
00000000
00000000
,
00011000
00000000
00000000
00000000
,
00011000
00000000
00000000
00000000
,
00000100
00000000
00000000
00000000
,
00000001
00000000
00000000
00000000
,
00001000
00000000
00000000
00000000
,
00010000
00000000
00000000
01000000
,
01000000
00000000
00000000
00000000
,
01000000
00000000
00000000
00000000
,
10000000
00000000
00000000
00000000
,
10000000
00000000
00000000
00010000
,
00010000
00000000
00000000
00000000
,
00001000
00000000
00000000
00000000
,
00010000
00000000
00000000
00000000
,
00000100
00000000
00000000
00000001
,
00000001
00000000
00000000
00000000
,
00001000
00000000
00000000
00000000
,
00010000
00000000
00010000
00000000
,
01000000
00000000
00000000
00000000
,
10010000
00000000
00000000
00000000
,
00010000
00000000
00000000
00000000
,
00001000
00000000
00000000
00000000
,
00000100
00000000
00000000
00000000
,
00001000
00000000
00001000
00000000
,
00010000
00000000
00000000
00000000
,
01000000
00000000
01000000
00000000
,
00010000
00000000
00000000
00000000
,
00001000
00000000
00000000
00000000
,
00000100
00000000
00000000
00000000
,
00000001
00000000
00000000
00000000
,
00001000
00000000
00000000
00000000
,
00010000
00000000
00000000
00000000
,
01000000
00000000
01000000
00000000
,
10000000
00000000
00000000
00000000
,
00100000
00000000
00100000
00000000
,
10000000
00000000
00000000
00000000
,
00010000
00000000
00000000
00000000
,
00001000
00000000
00000000
00000000
,
00000100
00000000
00000100
00000000
,
00000001
00000000
00000000
00000000
,
00000010
00000000
00000010
00000000
,
00000001
00000000
00000000
00000000
,
00001000
00000000
00000000
00000000
,
00010000
00000000
00000000
00000000
;

//---------------dance-double - ----------------
#NOTES:
     dance-double:
     :
     Easy:
     3:
     :
00000000
00000000
00000000
00000000
,
00000000
00000000
00000000
00000000
,
00000000
00000000
00000000
00000000
,
00000000
00000000
00000000
00000000
,
00000000
00000000
00000000
00000000
,
00010000
00000000
01000000
00000000
,
00010000
00000000
00100000
00000000
,
00001000
00000000
00010000
00000000
,
00002000
00000000
00000000
00003000
,
00010000
00000000
00000100
00000000
,
00010000
00000000
00000010
00000000
,
00002000
00000000
00000000
00003000
,
00000002
00000000
00000000
00000003
,
00001000
00000000
00000100
00000000
,
00001000
00000000
00000010
00000000
,
00010000
00000000
00001000
00000000
,
00200000
00000000
00000000
00300000
,
00010000
00000000
01000000
00000000
,
10000000
00000000
01000000
00000000
,
00010000
00000000
00100000
00000000
,
01000000
00000000
00010000
00000000
,
00001000
00000000
00010000
00000000
,
00001000
00001000
00001000
00000000
,
00000100
00000000
00000001
00000000
,
00001000
00000001
00001000
00000000
,
00000100
00000000
00010000
00000000
,
00001000
00001000
00001000
00000000
,
00010000
00000000
01000000
00000000
,
10000000
00010000
10000000
00000000
,
00100000
00000000
00010000
00000000
,
00001000
00001000
00001000
00000000
,
00010000
00001000
00010000
00000000
,
00000100
00000000
00001000
00000000
,
00000001
00000001
00000001
00000000
,
00000100
00000010
00000100
00000000
,
00000220
00000000
00000000
00000330
,
00000000
00000000
00000000
00000000
,
00001000
00000000
00010000
00000000
,
01000000
00000000
10000000
00000000
,
00100000
00000000
00000000
01000000
,
00010000
00000000
00000000
00000000
,
00001000
00001000
00001000
00000000
,
00000100
00000010
00000100
00000000
,
00000001
00000001
00000001
00000000
,
00001000
00000001
00001000
00000001
,
00000010
00000000
00001000
00000000
,
00010000
00000000
01000000
00000000
,
20000000
00000000
00000000
30000000
,
00100000
00000000
01000000
00000000
,
00010000
00010000
00010000
00000000
,
00100000
00001000
00100000
00000000
,
00001000
00000000
00010000
00000000
,
00000100
00001000
00000100
00001000
,
00000010
00000000
00000100
00000000
,
00000001
00000000
00001000
00000000
,
00000100
00000100
00000100
00000000
,
00010000
00001000
00010000
00000000
,
00100000
00000000
01000000
00000000
,
00010000
00000000
10000000
00000000
,
00010000
10000000
00010000
10000000
,
01000000
00000000
00010000
00000000
,
00011000
00000000
00000000
00000000
;

//---------------dance-double - ----------------
#NOTES:
     dance-double:
     :
     Medium:
     6:
     :
00000000
00000000
00000000
00000000
,
00000000
00000000
00000000
00000000
,
00000000
00000000
00000000
00000000
,
00000000
00000000
00000000
00000000
,
00000000
00000000
00000000
00000000
,
00100000
10000000
00100000
10000000
,
01000000
00010000
01000000
00100000
,
00001000
00000000
00010000
00001000
00000000
00000000
00000000
00000000
,
00001100
00000000
00000101
00000000
,
00000010
00000001
00000010
00000001
,
00000100
00000000
00001000
00000000
00010000
00000000
01000000
10000000
,
00000000
00000000
10010000
00000000
,
00100000
01000000
00010000
00000000
,
00100000
01000000
10000000
01000000
,
00010000
00001000
00010000
00001000
,
00000100
00000000
00000010
00000100
00000000
00000000
00000001
00000000
,
00001000
00001100
00000010
00000011
,
00000100
00000001
00000010
00000000
00000100
00000000
00001000
00000000
,
00000010
00001000
00000100
00000000
00010000
00000000
00001000
00000000
,
00100000
00010000
01000000
00100000
,
10000000
01000000
00010000
00001000
,
00010000
00000100
00000000
00000100
00010000
00000000
00001000
00000000
,
00000100
00000110
00001000
00001001
,
00000010
00001000
00000000
00001000
00000010
00000000
00000100
00000000
,
00001000
00011000
00010000
00110000
,
00100000
10000000
00000000
10000000
00100000
00000000
01000000
00000000
,
00010000
00110000
01000000
11000000
,
10000000
01000000
00000000
01000000
10000000
00000000
00010000
00000000
,
00100000
00101000
00001000
00011000
,
00001000
00000100
00000001
00000000
00001000
00000000
00001000
00000000
,
00000100
00000010
00000001
00000100
,
00000100
00001000
00010000
00000000
00001000
00000000
00001000
00000000
,
00010000
00100000
10000000
01000000
,
01000000
00010000
00001000
00000000
00010000
00000000
00010000
00000000
,
00001000
00000010
00000001
00000000
00001000
00000000
00001000
00000000
,
00002002
00000000
00000000
00003003
,
00000000
00000000
00000000
00000000
,
00001000
00010000
00001000
00000000
00010000
00000000
00001000
00000000
,
00011000
00010000
00100000
01100000
,
20020000
00000000
00000000
00030000
00000000
01000000
00000000
02000000
,
30000000
03010000
00001000
00010000
,
00001000
00000100
00001000
00000000
00000001
00000100
00000001
00000000
,
00000010
00000100
00000010
00000001
,
00000100
00001000
00000100
00000000
00010000
00001000
00010000
00000000
,
00002000
00023000
02030000
23000000
,
30100000
10000000
01000000
00000000
00100000
00000000
00100000
00000000
,
00110000
00010000
01000000
01001000
,
01000000
00100000
00010000
00000000
00001000
00000000
00001000
00000000
,
00011000
00010000
00001000
00001010
,
00000010
00000001
00000100
00000000
00000010
00000000
00001000
00000000
,
00000001
00000100
00000010
00000000
00000100
00000000
00001000
00000000
,
00010000
00001000
00010000
00000000
00100000
01000000
00100000
00000000
,
02020000
00000000
00000000
03030000
,
10000000
01000000
00100000
00000000
00010000
00000000
00010000
00000000
,
01010000
00000000
00011000
00000000
,
00001000
00000100
00000001
00000000
00001000
00000000
00001000
00000000
,
00001100
00000000
00011000
00000000
,
00100000
01000000
00100000
00000000
02000000
00000000
03200000
00000000
,
01300000
10000000
00100000
00000000
02000000
00000000
03200000
00000000
,
01300000
00010000
00100000
00000000
00010000
01000000
00010000
00000000
,
00001000
00011000
00000100
00001100
,
00002001
00000000
00000000
00000000
00000000
00003100
00000000
00000000
;

//---------------dance-double - ----------------
#NOTES:
     dance-double:
     :
     Hard:
     7:
     :
00000000
00000000
00000000
00000000
,
00000000
00000000
00000000
00000000
,
00000000
00000000
00000000
00000000
,
00000000
00000000
00000000
00000000
,
00000000
00000000
00000000
00000000
,
00000001
00000100
00000001
00000010
00000200
00000000
00001000
00000000
,
00000000
00000001
00000000
00001300
,
00000010
00001000
00000010
00010000
00002000
00000000
00010000
00000000
,
00000000
00000100
00000000
00013000
,
00001000
00100000
01000000
00100000
02000000
00000000
10000000
00000000
,
00000000
00010000
00000000
13000000
,
00100000
01000000
00001000
00010000
00002000
00000000
00000100
00000000
,
00000000
00010000
00000000
00003100
,
00000001
00001000
00000001
00000010
00000200
00000000
00001000
00000000
,
00000001
00001000
00000001
00001300
,
00000010
00010000
00000100
00010000
00002000
00000000
00010000
00000000
,
00000100
00010000
00000100
00013000
,
00001000
01000000
00010000
01000000
00200000
00000000
10000000
00000000
,
00010000
10000000
00010000
10300000
,
01000000
00100000
00001000
00010000
02000000
00000000
10000000
00000000
,
00010000
10000000
00010000
13000000
,
00100000
01000000
00100000
10000000
00000000
01000000
00000000
00100000
,
00000000
00001000
00000000
00010000
00000000
00000010
00000000
00000100
,
00000001
00000010
00000001
00001000
00000000
00000001
00000000
00000010
,
00000000
00001000
00000000
00010000
00000000
00100000
00000000
10000000
,
01000000
00100000
00010000
01000000
00000000
00001000
00000000
00010000
,
00000000
00000100
00000000
00001000
00000000
00000010
00000000
00000100
,
00000001
00000010
00000001
00000000
00001000
00000000
00000001
00000000
,
00001000
00000010
00001000
00000000
00000001
00000000
00001000
00000000
,
00000001
00000100
00000001
00000010
00000000
00001000
00000000
00010000
,
00000000
00001000
00000000
00010000
00000000
00100000
00000000
10000000
,
00010000
10000000
00100000
01000000
00000000
00010000
00000000
10000000
,
00000000
01000000
00000000
00100000
00000000
00001000
00001000
00010000
,
00010000
00001000
00000100
00000001
,
00001000
00001010
00000001
00000011
,
00002002
00000000
00000000
00000000
,
00000000
00000000
00003003
00000000
00000100
00000100
00000100
00000000
,
00000001
00000100
00000001
00000000
00001000
00000100
00001000
00000000
,
00000001
00000100
00001000
00000000
00010000
00000000
00011000
00000000
,
00001000
01000000
00001000
00000000
00100000
00010000
00100000
00000000
,
01000000
10000000
00010000
00000000
01000000
00000000
01100000
00000000
,
00100000
10000000
00100000
10000000
01000000
00010000
00001000
00000000
,
01000000
00001000
00010000
00000100
,
00000010
00000000
00000001
00002000
00000000
00000000
00003001
00000000
,
00000011
00001100
00001010
00000101
,
00000001
00000010
00000001
00000000
00001000
00000100
00001000
00000000
,
00000001
00000010
00001000
00000000
00010000
00000000
00011000
00000000
,
00001000
00100000
00001000
00000000
01000000
00010000
01000000
00000000
,
00100000
10000000
01000000
00000000
00010000
00000000
00011000
00000000
,
00001000
01000000
00010000
00100000
00010000
00000000
10010000
00000000
,
00100000
01000000
00001000
00010000
00001000
00010000
00000000
00010100
,
00000000
00000000
00000100
00000010
00000000
00000011
00000000
00002002
,
00000000
00000000
00003003
00000110
,
00000100
00000001
00000010
00000000
00000001
00000010
00000100
00010000
,
00001000
00000100
00000001
00000000
00000010
00000001
00001000
00000100
,
00010000
00001000
00000010
00000000
00000100
00010000
00001000
00010000
,
00001000
01000000
00010000
00000000
00100000
01000000
10000000
00100000
,
01000000
00100000
10000000
00000000
01000000
00100000
00001000
00010000
,
00000010
00010000
00001000
00000000
00000100
00000001
00001000
00000000
,
00000001
00000010
00000100
00010000
,
00011000
01001000
00011000
00010100
,
00000100
00000010
00000002
00000000
00000000
00000103
00000000
00000000
;
