#TITLE:AM-3P;
#ARTIST:KTz;
#BANNER:AM-3P.png;
#BACKGROUND:AM-3P-bg.png;
#CDTITLE:./CDTITLES/Song Pack 16.png;
#MUSIC:AM-3P.ogg;
#SAMPLESTART:46.117;
#SAMPLELENGTH:15;
#DISPLAYBPM:130;
#BPMS:0=130.152,20=130.109;

//---------------dance-single - ----------------
#NOTES:
     dance-single:
     :
     Beginner:
     1:
     :
0000
0000
0000
0000
,
0000
0000
0000
0000
,
0000
0000
0000
0000
,
0000
0000
0000
0000
,
0000
0000
0000
0000
,
0000
0000
0000
0000
,
0000
0000
0000
0000
,
0010
0000
0010
0000
,
1000
0000
0100
0000
,
0100
0000
0100
0000
,
0100
0000
0100
0000
,
0010
0000
0010
0000
,
0010
0000
0100
0000
,
0010
0000
0100
0000
,
0010
0000
0100
0000
,
1000
0000
0001
0000
,
1000
0000
0001
0000
,
0001
0000
0000
0100
,
0000
0000
0000
0100
,
0000
0000
0000
0100
,
0000
0001
0001
0001
,
0000
0000
0000
0100
,
0100
0000
0000
1000
,
0000
0000
0000
0010
,
0010
0000
1000
1000
,
0000
0100
0000
1000
,
0000
0010
0000
0100
,
0000
1000
0000
0010
,
0000
0001
0000
1000
,
0000
1000
0000
0110
,
0000
0001
0000
0110
,
0000
0100
0000
0010
,
0010
0000
0100
0000
,
0010
0000
0001
0001
,
0000
0001
0000
0100
,
0000
1001
0000
1000
,
1000
0000
0010
0000
,
1000
0000
0001
0000
,
1000
0000
0001
0000
,
0010
0000
0100
0000
,
0001
0000
0010
0000
,
1000
0000
0001
0000
,
1000
0000
0001
0000
,
0010
0000
0000
0100
,
0000
0000
0010
0000
;

//---------------dance-single - ----------------
#NOTES:
     dance-single:
     :
     Easy:
     5:
     :
0000
0000
0000
0000
,
0000
0000
0000
0000
,
0000
0000
0000
0000
,
0000
0000
0000
0000
,
0000
0000
0000
0000
,
0000
0000
0000
0000
,
0000
0000
0000
0000
,
0010
1000
0010
1001
,
1000
0001
0100
1001
,
0100
1001
0100
1001
,
0100
1001
0100
1001
,
0010
0100
0010
1001
,
0010
1000
0100
1001
,
0010
0001
0100
1001
,
0010
1000
0100
1001
,
1100
0001
0101
1000
,
1100
0001
0101
1000
,
0001
0000
0000
0001
0000
0000
0001
0000
0000
0000
1000
0000
0100
0000
0000
0000
,
1000
0000
0000
1000
0000
0000
1000
0000
0000
0000
0001
0000
0100
0000
0000
0000
,
0001
0000
0000
1000
0000
0000
0001
0000
0000
0000
0010
0000
0100
0000
0000
0000
,
0010
0001
0001
0001
,
1000
0000
0000
0100
0000
0000
1000
0000
0000
0000
0001
0000
0100
0000
0000
0000
,
0100
0000
0000
0001
0000
0000
1000
0000
0000
0000
0100
0000
1000
0000
0000
0000
,
0010
0000
0000
0001
0000
0000
1000
0000
0000
0000
0100
0000
0010
0000
0000
0000
,
0010
1000
1000
1000
,
0001
0100
0010
1000
,
0100
0010
0001
0100
,
0010
1000
0100
0010
,
0001
0001
1000
1000
,
0010
1000
0100
0110
,
0010
0001
0100
0110
,
1000
0100
0001
0010
,
1010
0001
0011
1000
,
0010
0000
1000
0000
0001
0100
0001
0000
,
0010
0000
0001
0000
0100
0100
0100
0000
,
1001
0000
1001
0000
1000
0100
1000
0000
,
1000
0000
0100
0000
0010
0001
0100
0000
,
1100
0001
0101
1000
,
1100
0001
0101
1000
,
0010
1000
0100
0010
,
0001
0100
0010
1001
,
1000
0010
0001
0010
,
1000
0010
0100
0000
0001
0010
0100
0000
,
0010
0000
0000
1000
0000
0000
0100
0000
,
0000
0001
0000
0000
0010
0010
0100
0100
;

//---------------dance-single - ----------------
#NOTES:
     dance-single:
     :
     Medium:
     6:
     :
0000
0000
0000
0000
,
0000
0000
0000
0000
,
0000
0000
0000
0000
,
0000
0000
0000
0000
,
0000
0000
0000
0000
,
0000
0000
0000
0000
,
0000
0000
0000
0000
,
1000
0100
1000
0000
0010
1000
0001
0000
,
0001
0100
0001
0000
0100
0000
1001
0000
,
0100
1000
1001
0000
0100
0001
1001
0000
,
0100
1000
1001
0000
0100
0001
1001
0000
,
0010
0100
0010
1001
,
0010
0001
0100
0000
0100
0000
1001
0000
,
0100
0001
0100
0000
0100
1000
0100
0000
,
0100
0001
0100
0000
0100
1000
0100
0000
,
0100
1000
0001
0000
0100
0001
1000
0000
,
0100
1000
0001
0000
0100
0001
1000
0000
,
0001
0000
0000
0001
0000
0000
0001
0000
0000
0000
0100
0000
1000
0000
0100
0000
,
1000
0000
0000
1000
0000
0000
1000
0000
0000
0000
0001
0000
0100
0000
0001
0000
,
0010
0000
0000
0001
0000
0000
0100
0000
0000
0000
1000
0000
0100
0000
0001
0000
,
0100
0100
0100
0100
,
0010
0000
0000
0010
0000
0000
0010
0000
0000
0000
1000
0000
0001
0000
0100
0000
,
0010
0000
0000
0010
0000
0000
1001
0000
0000
0000
0010
0000
1000
0000
0100
0000
,
0001
0000
0000
0001
0000
0000
0110
0000
0000
0000
0001
0000
1000
0000
0100
0000
,
0010
0000
0010
0000
1001
1000
0100
0000
,
0100
0000
0010
0000
1000
0100
0010
0000
,
0001
0000
0100
0000
0010
1000
0100
0000
,
0010
0000
0001
0000
0100
0010
1000
0000
,
1001
0000
1001
0000
0100
0001
1000
0000
,
0010
1000
0100
0110
,
0010
0001
0100
0110
,
1000
0100
1000
0000
0001
0100
0001
0000
,
1000
0100
1000
0000
0001
0100
0001
0000
,
1000
0000
0001
0000
1000
1000
0100
0000
,
0001
0000
1000
0000
0001
0001
0100
0000
,
0011
0000
1001
0000
0001
1000
0100
0000
,
0010
0000
1001
0000
0010
0100
0010
0000
,
1100
0001
0101
1000
,
1100
0110
0101
0110
,
0010
1000
0100
0011
,
0001
0100
0010
1010
,
0001
0100
0010
1000
,
1000
0010
0100
0000
0001
0010
0100
0000
,
0010
0000
0000
1000
0000
0000
0100
0000
,
0000
0001
0000
0000
0100
0100
0010
0010
;

//---------------dance-single - ----------------
#NOTES:
     dance-single:
     :
     Hard:
     8:
     :
0000
0000
0000
0000
,
0000
0000
0000
0000
,
0000
0000
0000
0000
,
0000
0000
0000
0000
,
0000
0000
0000
0000
,
0000
0000
0000
0000
,
0000
0000
0000
0000
,
0100
0001
0100
0001
0100
1000
0100
1000
,
0100
0001
0100
0001
0100
1000
0100
1000
,
0100
0001
0100
1000
0100
0001
0100
1000
,
0100
0001
0100
1000
0100
0010
0100
0010
,
0100
0001
0100
1000
0100
0001
0100
1000
,
0100
0001
0100
0010
0100
1000
0100
0010
,
0001
0100
0001
0010
0001
0100
0001
0010
,
0001
1000
0001
1000
0001
0100
0001
0100
,
1000
0001
1000
0001
1000
0010
1000
0010
,
1000
0100
1000
0010
1000
0100
1010
0000
,
1000
0000
0000
0001
0000
0000
1000
0000
0000
0000
0010
0000
0100
0000
0001
0000
,
0001
0000
0000
1000
0000
0000
0001
0000
0000
0000
0010
0000
0100
0000
1000
0000
,
0010
0000
0000
0010
0000
0000
0010
0000
0000
0000
1000
0000
0001
0000
0100
0000
,
0010
0000
0010
0000
0010
1000
0100
0000
,
1000
0000
0000
1000
0000
0000
1000
0000
0000
0100
1000
0000
0001
0000
0100
0000
,
0001
0000
0000
0001
0000
0000
0001
0000
0000
0010
0001
0000
1000
0000
0100
0000
,
0010
0000
0000
0010
0000
0000
0010
0000
0000
0100
1000
0000
0001
0000
0100
0000
,
0010
1000
0000
0000
0100
1000
0000
0000
0001
1000
0000
0000
0100
1000
0000
0000
,
0000
1000
0000
1000
0000
0001
0000
0001
,
0000
0010
0000
1100
0000
0010
0000
0101
,
0000
0100
0000
1001
0000
0100
0000
1001
,
0000
0100
0000
0100
0000
0010
1001
0000
,
0100
1000
0100
1000
0001
0010
0001
0010
,
0001
0100
0001
0100
0010
1000
1010
0000
,
0100
1000
0010
1000
0001
0100
0010
1000
,
0100
0010
0001
0100
0010
0100
1001
0000
,
0010
0000
1000
0000
0001
1001
1001
0000
,
1001
0000
0100
0000
1001
1000
0100
0000
,
0010
1000
0100
0010
0001
0100
0100
0000
,
1100
0000
1010
0000
0010
0001
0101
0000
,
1001
0000
0100
0000
0001
0100
1000
0000
,
1001
0000
0100
0000
1000
0100
0001
0000
,
1001
0000
0101
0000
0001
0010
0101
0000
,
0011
0000
1100
0000
1010
0001
0100
0000
,
1000
0101
0001
1100
,
0010
0000
0001
1100
0000
1000
0101
0000
,
0010
0001
0001
1000
0001
0001
0100
0001
,
0001
0001
1000
1000
0010
1000
1001
0101
;

//---------------dance-single - ----------------
#NOTES:
     dance-single:
     :
     Challenge:
     9:
     :
0000
0000
0000
0000
,
0000
0000
0000
0000
,
0000
0000
0000
0000
,
0000
0000
0000
0000
,
0000
0000
0000
0000
,
0000
0000
0000
0000
,
0000
0000
0000
0000
,
1000
0000
0000
0000
0001
0000
0000
0000
0010
0100
0000
1000
0000
0010
0100
0001
,
0101
1010
0201
0310
,
1000
0000
0001
0000
0010
0000
0000
0100
0000
1000
0001
1000
0100
1000
0000
0000
,
0010
0100
0001
0010
0011
0000
1100
0000
,
0001
0000
0010
0000
0100
0000
0000
1000
0000
0001
1000
0001
0010
0001
0000
0000
,
1000
0000
0000
0000
0001
0000
0000
0000
0100
0010
0000
0010
0000
0010
0000
0000
,
1000
0000
0001
0000
0100
0000
0000
0010
0000
0100
0001
0100
0010
0100
0000
0000
,
0010
1000
0100
0010
0110
0000
1001
0000
,
0100
0000
0010
0000
1000
0000
0000
0001
0000
1000
0100
1000
0010
1000
0000
0000
,
0100
0000
0000
1000
0000
0000
0010
0000
0000
0001
0000
0000
0100
0000
1000
0000
,
0101
0000
0000
1100
0000
0000
0101
0000
0000
0010
0100
0000
1000
0000
0100
0000
,
0011
0000
0000
1010
0000
0000
0011
0000
0000
1000
0010
0000
0100
0000
0001
0000
,
1100
0000
0000
0101
0000
0000
1100
0000
0000
0010
1000
0000
0100
0000
0010
0000
,
0001
0100
0000
0100
0010
0000
0010
1000
0000
1000
0001
0000
0000
0000
0000
0000
,
1010
0000
0000
1100
0000
0000
1001
0000
0000
0100
0010
0000
1000
0000
0001
0000
,
0011
0000
0000
0101
0000
0000
1001
0000
0000
0010
0100
0000
0010
0000
0001
0000
,
1100
0000
0000
0101
0000
0000
1100
0000
0000
0001
1000
0000
0010
0000
0100
0000
,
0001
0010
0000
0010
0100
0000
0100
1000
0000
1000
0001
0000
0000
0000
0000
0000
,
1000
0000
0000
0010
0000
0000
0110
0000
0000
1000
0000
0000
0100
0000
0010
0000
,
0001
0000
0000
1000
0000
0000
1100
0000
0000
0001
0000
0000
0100
0000
0010
0000
,
1000
0000
0000
0010
0000
0000
0110
0000
0000
0001
0000
0000
1000
0000
0010
0000
,
0100
0000
0000
0001
0000
0000
0012
0000
0000
0000
1000
0000
1003
0000
0000
0000
,
0010
0000
0000
1000
0000
0000
1100
0000
0000
0010
0000
0000
0001
0000
0100
0000
,
0010
0000
0000
0100
0000
0000
0101
0000
0000
0010
0000
0000
0100
0000
0010
0000
,
1000
0000
0000
0100
0000
0000
1001
0000
0000
0010
0000
0000
0100
0000
0001
0000
,
0100
0000
0000
0010
0000
0000
0110
0000
0000
0000
0000
0000
0000
0000
0000
0000
,
0000
1000
0100
0010
0001
0000
0000
0001
0010
0100
1000
0000
0000
0100
0010
0100
,
0000
1000
0010
0100
0001
0100
0010
0000
0000
0100
0001
0100
0010
0100
0000
0000
,
0000
0001
0100
0010
1000
0000
0000
1000
0010
0100
0001
0000
0000
0100
0010
0100
,
0000
0001
1000
0001
0010
0000
0010
0000
0010
0000
0010
0000
0011
0000
0011
0000
,
1001
0000
1000
0100
0010
0000
0110
0000
,
0011
0101
1100
1010
,
0010
0100
0000
0000
0100
0001
0000
0000
0001
1000
0000
0000
1001
0000
0000
0000
,
0110
0000
0011
0000
1010
0000
1001
0100
,
1001
0000
0001
1000
0100
0000
0110
0000
,
1100
0000
1010
1001
0000
1001
0101
0001
,
0011
0100
0010
1010
0100
0010
1100
1000
,
0010
0101
0001
0010
0100
0010
0110
1001
;

//---------------dance-double - ----------------
#NOTES:
     dance-double:
     :
     Beginner:
     1:
     :
00000000
00000000
00000000
00000000
,
00000000
00000000
00000000
00000000
,
00000000
00000000
00000000
00000000
,
00000000
00000000
00000000
00000000
,
00000000
00000000
00000000
00000000
,
00000000
00000000
00000000
00000000
,
00000000
00000000
00000000
00000000
,
00000100
00000000
00000000
00000000
,
00000010
00000000
00000000
00000000
,
00010000
00010000
00000000
00000000
,
00000000
00001000
00000000
01000000
,
01000000
01000000
00000000
00000000
,
00100000
00000000
01000000
00000000
,
00010000
00010000
00000000
00000000
,
00000000
10000000
00000000
01000000
,
01000000
01000000
00000000
00000000
,
00100000
00000000
00100000
00000000
,
00001000
00001000
00001000
00000000
,
00010000
00010000
00010000
00000000
,
00000100
00000100
00000100
00000000
,
00001000
00000000
00001000
00000000
,
00000001
00000001
00000001
00000000
,
00000100
00000100
00000100
00000000
,
00000001
00000001
00000001
00000000
,
00000010
00000000
00000100
00000000
,
00010000
00010000
00010000
00010000
,
00010000
00000000
00001000
00000000
,
00100000
00100000
00100000
00100000
,
00100000
00000000
01000000
00000000
,
10000000
10000000
10000000
10000000
,
10000000
00000000
00100000
00000000
,
01000000
01000000
01000000
01000000
,
01000000
00000000
00001000
00000000
,
00010000
00010000
00010000
00000000
,
00000100
00000000
00000100
00000000
,
00001000
00001000
00001000
00000000
,
00000010
00000000
00000010
00000000
,
00000100
00000000
00000001
00000000
,
00000100
00000000
00001000
00000000
,
00010000
00000000
00100000
00000000
,
10000000
00000000
01000000
00000000
,
00010000
00000000
00001000
00000000
,
00000010
00000000
00000001
00000000
,
00000200
00000000
00000000
00000000
,
00000000
00000000
00000000
00000000
00000000
00000000
00000000
00000300
;

//---------------dance-double - ----------------
#NOTES:
     dance-double:
     :
     Easy:
     5:
     :
00000000
00000000
00000000
00000000
,
00000000
00000000
00000000
00000000
,
00000000
00000000
00000000
00000000
,
00000000
00000000
00000000
00000000
,
00000000
00000000
00000000
00000000
,
00000000
00000000
00000000
00000000
,
00000000
00000000
00000000
00000000
,
10000000
01000000
00100000
00010000
,
00001000
00000100
00000010
00001001
,
00000001
00000100
00000001
00000000
00001000
00000100
00001000
00000000
,
00010000
00100000
01000000
10010000
,
10000000
01000000
10000000
00000000
00010000
01000000
00010000
00000000
,
00001000
00000100
00000010
00001001
,
00000100
00000001
00000100
00000000
00000100
00001000
00000100
00000000
,
00010000
00100000
01000000
10010000
,
10000000
10000000
00010000
00001000
,
00010000
00001000
00000001
00001001
,
00000001
00000000
00000000
00000010
00000000
00000000
00000100
00000000
00000000
00000000
00001000
00000000
00010000
00000000
00000000
00000000
,
10000000
00000000
00000000
00100000
00000000
00000000
01000000
00000000
00000000
00000000
00010000
00000000
00001000
00000000
00000000
00000000
,
00000010
00000000
00000000
00000001
00000000
00000000
00000100
00000000
00000000
00000000
00001000
00000000
00000100
00000000
00000000
00000000
,
00010000
00100000
10000000
01000000
,
00010000
00000000
00000000
00001000
00000000
00000000
00000010
00000000
00000000
00000000
00000001
00000000
00000100
00000000
00000000
00000000
,
00001000
00000000
00000000
00010000
00000000
00000000
00100000
00000000
00000000
00000000
10000000
00000000
01000000
00000000
00000000
00000000
,
00010000
00000000
00000000
00001000
00000000
00000000
00000100
00000000
00000000
00000000
00001000
00000000
00010000
00000000
00000000
00000000
,
10000000
01000000
00010000
00001000
,
00000010
00000001
00000100
00001000
,
00000010
00000100
00010000
00011000
,
00100000
10000000
01000000
00010000
,
00100000
01000000
00001000
00011000
,
00000001
00000100
00000100
00010000
,
10000000
01000000
01000000
00001000
,
00000001
00000100
00000010
00010000
,
00100000
10000000
00010000
11000000
,
00000000
01000000
00000000
01000000
,
10000000
01000000
10000000
00000000
00010000
01000000
00010000
00000000
,
00001000
00000001
00000100
00001000
,
00001001
00001001
00010000
00001000
,
00011000
01000000
00011000
00000010
,
00011000
10000000
00011000
00000001
,
00011000
00000001
00000100
00001000
,
00011000
10000000
01000000
00010000
,
00001000
00000001
00000100
00010000
,
00001000
00000010
00001000
00000000
00001000
00010000
00001000
00000000
,
00001000
00000000
00000000
00100000
00000000
00000000
00010000
00000000
,
00000000
00000010
00000000
00000000
00010000
00010000
00001000
00001000
;

//---------------dance-double - ----------------
#NOTES:
     dance-double:
     :
     Medium:
     6:
     :
00000000
00000000
00000000
00000000
,
00000000
00000000
00000000
00000000
,
00000000
00000000
00000000
00000000
,
00000000
00000000
00000000
00000000
,
00000000
00000000
00000000
00000000
,
00000000
00000000
00000000
00000000
,
00000000
00000000
00000000
00000000
,
10000000
01000000
10000000
00000000
00010000
01000000
00010000
00000000
,
00001000
00000100
00001000
00000000
00000001
00000000
00000101
00000000
,
00000010
00000001
00000100
00000000
00000010
00001000
00000100
00000000
,
00010000
00100000
01000000
11000000
,
10000000
00010000
01000000
00000000
00010000
10000000
01000000
00000000
,
00001000
00000100
00000010
00000101
,
00000010
00000100
00000100
00000000
00000100
00001000
00000100
00000000
,
00010000
00100000
01000000
11000000
,
10000000
00100000
10000000
00000000
00010000
00000000
00001000
00000000
,
00010000
00001000
00010000
00000000
00000001
00000000
00000101
00000000
,
00000001
00000000
00000000
00000010
00000000
00000000
00001000
00000000
00000000
00000000
00010000
00000000
00001000
00000000
00010000
00000000
,
10000000
00000000
00000000
00100000
00000000
00000000
00010000
00000000
00000000
00000000
00001000
00000000
00010000
00000000
00001000
00000000
,
00010000
00000000
00000000
00100000
00000000
00000000
01000000
00000000
00000000
00000000
00010000
00000000
00001000
00000000
00000100
00000000
,
00000001
00000001
00000010
00000100
,
00001000
00000000
00000000
00010000
00000000
00000000
00100000
00000000
00000000
00000000
10000000
00000000
01000000
00000000
00010000
00000000
,
00010000
00000000
00000000
00001000
00000000
00000000
00000010
00000000
00000000
00000000
00000001
00000000
00000100
00000000
00001000
00000000
,
00010000
00000000
00000000
00100000
00000000
00000000
00010000
00000000
00000000
00000000
00001000
00000000
00000010
00000000
00001000
00000000
,
00010000
00000000
00011000
00000000
00000010
00000001
00000100
00000000
,
00000001
00000100
00000001
00000000
00001000
00000100
00001000
00000000
,
00010000
01000000
00010000
00000000
10000000
01000000
10000000
00000000
,
00100000
10000000
01000000
10010000
,
00100000
10000000
01000000
00000000
00100000
00010000
01000000
00000000
,
00001000
00010000
00000100
00000000
00000001
00000100
00000001
00000000
,
00000010
00000001
00000100
00001001
,
00000010
00000001
00000100
00000000
00000010
00001000
00000100
00000000
,
00010000
00001000
01000000
00000000
10000000
01000000
10000000
00000000
,
00000000
01000000
00000000
01000000
,
10000000
01000000
11000000
00000000
00010000
01000000
01010000
00000000
,
00001000
00000100
00000001
00000100
,
00000101
00000101
00010000
00001000
,
00011000
01000000
00011000
01000000
,
00001000
00010000
00000010
00000000
00001000
00010000
00000010
00000000
,
00011000
00000100
00011000
00000100
,
00010000
00001000
00100000
00000000
00010000
00001000
00100000
00000000
,
00010000
00000010
00001000
00100000
,
00010000
00100000
00010000
00000000
00010000
00001000
00010000
00000000
,
00001000
00000000
00000000
00100000
00000000
00000000
00010000
00000000
,
00000000
00000010
00000000
00000000
00010000
00001000
01000000
00000100
;

//---------------dance-double - ----------------
#NOTES:
     dance-double:
     :
     Hard:
     7:
     :
00000000
00000000
00000000
00000000
,
00000000
00000000
00000000
00000000
,
00000000
00000000
00000000
00000000
,
00000000
00000000
00000000
00000000
,
00000000
00000000
00000000
00000000
,
00000000
00000000
00000000
00000000
,
00000000
00000000
00000000
00000000
,
00000001
00000100
00000010
00001000
00000100
00010000
00001000
01000000
,
00010000
00100000
01000000
10000000
00010000
01000000
00001000
00010000
,
00000100
00000010
00000001
00000000
00000100
00000010
00001000
00000000
,
00000100
00010000
00001000
01000000
00100000
10000000
01000000
00000000
,
00100000
00001000
00010000
00000000
00000100
00000010
00000001
00000000
,
00001000
00000100
00010000
00001000
00100000
00010000
10000000
00000000
,
00100000
01000000
00010000
00000000
10000000
01000000
00100000
00000000
,
00001000
00010000
00000100
00000010
00000001
00000100
00000010
00000000
,
00001000
00000100
00010000
00000000
00001000
01000000
00010000
00000000
,
00100000
00001000
00010000
00000100
00001000
00000010
00010000
00000000
,
00001000
01000000
00010000
00100000
00000000
01000000
01000000
01000000
,
10000000
00010000
01000000
00100000
00000000
10000000
10000000
10000000
,
00010000
01000000
00001000
00010000
00000000
00000010
00000010
00000010
,
00001001
00000000
00000110
00000000
00010000
00001000
00100000
00010000
,
10000000
01000000
00100000
00010000
00000000
01000000
01000000
01000000
,
00001000
00010000
00000100
00000010
00000000
00000001
00000001
00000001
,
00001000
00000100
00010000
00001000
00000000
00100000
00100000
00100000
,
10010000
00000000
01100000
00000000
00001000
00010000
00000100
00001000
,
00000001
00000100
00000010
00000000
00001000
00000100
00010000
00000000
,
00101000
00000000
00000000
10010000
00000000
00000000
01001000
00000000
,
00010000
00000010
00001000
00000000
00000001
00000010
00000100
00000000
,
00001001
00000000
00000000
00011000
00000000
00000000
10010000
00000000
,
00100000
01000000
10000000
00000000
00010000
01000000
00001000
00000000
,
00010010
00000000
00000000
01001000
00000000
00000000
10010000
00000000
,
00100000
00001000
00010000
00000000
00000100
00000010
00000001
00000000
,
00001100
00000000
00000000
00011000
00000000
00000000
00110000
00000000
,
10000000
01000000
00100000
00000000
00010000
01000000
00001000
00000000
,
00010000
00000100
00001000
00000000
00000001
00000001
00000001
00000000
,
00000010
00000100
00001000
00000000
00000010
00010000
00001000
00000000
,
00100000
00010000
10000000
00000000
01000000
01000000
01000000
00000000
,
00100000
00001000
01000000
00100000
10000000
01000000
00100000
00000000
,
00001000
00010000
00000010
00001000
00000100
00000010
00000001
00000000
,
00000100
00000010
00001000
00000100
00010000
00001000
00100000
00000000
,
00010000
10000000
01000000
00100000
00010000
01000000
00100000
00000000
,
10000000
01000000
00100000
00001000
00010000
00000100
00000010
00000000
,
00000001
00000100
00000010
00001000
00000100
00010000
00001000
00000000
,
00110000
01000000
01000000
11000000
00010000
00010000
01010000
00001000
,
00001000
00011000
00000100
00000100
00001000
00000001
00000100
00000010
;

//---------------dance-double - ----------------
#NOTES:
     dance-double:
     :
     Challenge:
     9:
     :
00000000
00000000
00000000
00000000
,
00000000
00000000
00000000
00000000
,
00000000
00000000
00000000
00000000
,
00000000
00000000
00000000
00000000
,
00000000
00000000
00000000
00000000
,
00000000
00000000
00000000
00000000
,
00000000
00000000
00000000
00000000
,
00010000
00000000
00000000
00000000
00001000
00000000
00000000
00000000
00000100
00000010
00000000
00001000
00000000
00000100
00000010
00000100
,
00000110
00001001
00000110
00010000
,
00001000
00000000
00000001
00000000
00000100
00000000
00000000
00000010
00000000
00010000
00001000
00010000
00001000
00100000
00000000
00000000
,
00010000
01000000
00100000
10000000
10100000
00000000
01010000
00000000
,
10000000
00000000
01000000
00000000
00100000
00000000
00000000
10000000
00000000
00100000
01000000
00100000
01000000
00001000
00000000
00000000
,
00010000
00000000
00000000
00000000
00000100
00000000
00000000
00000000
00001000
00000001
00000000
00000001
00000000
00000001
00000000
00000000
,
00000100
00000000
00000010
00000000
00001000
00000000
00000000
00000010
00000000
00010000
00001000
00010000
00001000
00000100
00000000
00000000
,
00010000
01000000
00100000
00010000
00110000
00000000
10100000
00000000
,
00010000
00000000
01000000
00000000
00100000
00000000
00000000
10000000
00000000
00100000
01000000
00100000
01000000
00010000
00000000
00000000
,
00100000
00000000
00000000
00001000
00000000
00000000
00010000
00000000
00000000
00000100
00000000
00000000
00001000
00000000
00000010
00000000
,
00000011
00000000
00000000
00001010
00000000
00000000
00000011
00000000
00000000
00000100
00000001
00000000
00001000
00000000
00000100
00000000
,
00011000
00000000
00000000
00001100
00000000
00000000
00011000
00000000
00000000
01000000
00010000
00000000
00100000
00000000
01000000
00000000
,
11000000
00000000
00000000
01010000
00000000
00000000
11000000
00000000
00000000
00100000
01000000
00000000
00010000
00000000
10000000
00000000
,
01000000
00100000
00000000
00100000
00010000
00000000
00010000
01000000
00000000
01000000
00100000
00000000
00000000
00000000
00000000
00000000
,
10100000
00000000
00000000
00110000
00000000
00000000
10100000
00000000
00000000
01000000
10000000
00000000
00010000
00000000
01000000
00000000
,
00011000
00000000
00000000
01010000
00000000
00000000
00011000
00000000
00000000
00000100
00001000
00000000
00000010
00000000
00000100
00000000
,
00000101
00000000
00000000
00001100
00000000
00000000
00000101
00000000
00000000
00000010
00000100
00000000
00001000
00000000
00000001
00000000
,
00000100
00000010
00000000
00000010
00001000
00000000
00001000
00000001
00000000
00000001
00000100
00000000
00000000
00000000
00000000
00000000
,
00000010
00000000
00000000
00010000
00000000
00000000
00001100
00000000
00000000
00100000
00000000
00000000
00010000
00000000
01000000
00000000
,
00100000
00000000
00000000
01000000
00000000
00000000
01010000
00000000
00000000
10000000
00000000
00000000
01000000
00000000
00010000
00000000
,
01000000
00000000
00000000
10000000
00000000
00000000
01100000
00000000
00000000
01000000
00000000
00000000
00001000
00000000
00010000
00000000
,
00001000
00000000
00000000
00000100
00000000
00000000
00000110
00000000
00000000
00000000
00001000
00000000
00001000
00000000
00000000
00000000
,
00000001
00000000
00000000
00001000
00000000
00000000
00001010
00000000
00000000
00000100
00000000
00000000
00000010
00000000
00000001
00000000
,
00001000
00000000
00000000
00000010
00000000
00000000
00011000
00000000
00000000
01000000
00000000
00000000
00010000
00000000
10000000
00000000
,
01000000
00000000
00000000
00010000
00000000
00000000
01100000
00000000
00000000
10000000
00000000
00000000
00010000
00000000
01000000
00000000
,
00100000
00000000
00000000
10000000
00000000
00000000
10010000
00000000
00000000
00000000
00000000
00000000
00000000
00000000
00000000
00000000
,
00000000
00001000
00010000
00001000
00010000
00000000
00000000
00000100
00000010
00000001
00000010
00000000
00000000
00000001
00001000
00000001
,
00000000
00000010
00000001
00000100
00000010
00000100
00000001
00000000
00000000
00001000
00000100
00000010
00000100
00010000
00000000
00000000
,
00000000
00010000
00001000
00010000
00001000
00000000
00000000
01000000
00100000
10000000
00100000
00000000
00000000
10000000
00010000
10000000
,
00000000
00100000
01000000
00001000
00010000
00000000
00010000
00000000
00010000
00000000
00010000
00000000
00011000
00000000
00011000
00000000
,
00001010
00000000
00000001
00000100
00000010
00000000
00000110
00000000
,
00001010
00001100
00000101
00000011
,
00000001
00000100
00000000
00000000
00000100
00000010
00000000
00000000
00000010
00010000
00000000
00000000
00011000
00000000
00000000
00000000
,
00110000
00000000
10100000
00000000
01100000
00000000
00110000
10000000
,
00110000
00000000
10000000
01000000
00100000
00000000
01100000
00000000
,
10100000
00000000
00110000
10010000
00000000
00110000
00011000
00000100
,
00001100
00001000
00000010
00000101
00000001
00000010
00000110
00001000
,
00000001
00000110
00000001
00001000
00000010
00000100
00000110
00001001
;

//---------------dance-couple - ----------------
#NOTES:
     dance-couple:
     :
     Easy:
     5:
     :
00000000
00000000
00000000
00000000
,
00000000
00000000
00000000
00000000
,
00000000
00000000
00000000
00000000
,
00000000
00000000
00000000
00000000
,
00000000
00000000
00000000
00000000
,
00000000
00000000
00000000
00000000
,
00000000
00000000
00000000
00000000
,
00100010
10000001
00100010
10011001
,
00100010
01000100
00100010
10011001
,
01000000
10010000
00000100
00001001
,
01000000
10010000
00000100
00001001
,
00100010
01000100
00100010
10011001
,
00100010
10000001
01000100
10011001
,
00100010
00011000
01000100
10011001
,
00100010
10000001
01000100
10011001
,
11000101
00011000
01011100
10000001
,
11000101
00011000
01011100
10000001
,
00011000
00000000
00000000
00010000
00000100
00000000
00010000
00000000
00001000
00000000
10000000
00000000
01000100
00000000
00000000
00000000
,
00011000
00000000
00000000
00001000
01000000
00000000
00001000
00000000
00010000
00000000
00000001
00000000
01000100
00000000
00000000
00000000
,
00011000
00000000
00000000
10000001
00000000
00000000
00011000
00000000
00000000
00000000
00100010
00000000
01000100
00000000
00000000
00000000
,
00100010
00011000
00011000
00011000
,
10000001
00000000
00000000
01000100
00000000
00000000
10000001
00000000
00000000
00000000
00011000
00000000
01000100
00000000
00000000
00000000
,
01000100
00000000
00000000
00011000
00000000
00000000
10000001
00000000
00000000
00000000
01000100
00000000
10000001
00000000
00000000
00000000
,
00100010
00000000
00000000
00011000
00000000
00000000
10000001
00000000
00000000
00000000
01000100
00000000
00100010
00000000
00000000
00000000
,
00100010
10000001
10000001
10000001
,
00011000
01000100
00100010
10000001
,
01000100
00100010
00011000
01000100
,
00100010
10000001
01000100
00100010
,
00011000
00011000
10000001
10000001
,
00100010
10000001
01000100
01100110
,
00100010
00011000
01000100
01100110
,
10000001
01000100
00011000
00100010
,
10100011
00011000
00111010
10000001
,
00100010
00000000
10001000
00000000
00010001
01000100
00010001
00000000
,
00100010
00000000
00010001
00000000
01000100
01000100
01000100
00000000
,
10011001
00000000
10011001
00000000
10000001
01000100
10000001
00000000
,
10000001
00000000
01000100
00000000
00100010
00011000
01000100
00000000
,
11000101
00011000
01011100
10000001
,
11000101
00011000
01011100
10000001
,
00100010
10000001
01000100
00100010
,
00011000
01000100
00100010
10011001
,
10000001
00100010
00011000
00100010
,
00000001
00000010
00000100
00000000
10000000
00100000
01000000
00000000
,
00100010
00000000
00000000
10000001
00000000
00000000
01000100
00000000
,
00000000
00011000
00000000
00000000
00100010
00100010
01000100
01000100
;

//---------------dance-couple - ----------------
#NOTES:
     dance-couple:
     :
     Medium:
     6:
     :
00000000
00000000
00000000
00000000
,
00000000
00000000
00000000
00000000
,
00000000
00000000
00000000
00000000
,
00000000
00000000
00000000
00000000
,
00000000
00000000
00000000
00000000
,
00000000
00000000
00000000
00000000
,
00000000
00000000
00000000
00000000
,
10000000
01000000
10000000
00000000
00000001
00000100
00000001
00000000
,
00010000
01000000
00010000
00000000
00001000
00000100
00001000
00000000
,
01000000
10000000
10001001
00000000
00000100
00000001
10010001
00000000
,
01000000
00010000
00011001
00000000
00000100
00001000
10011000
00000000
,
00100010
01000100
00100010
10011001
,
00100010
00011000
01000100
00000000
01000100
00000000
10011001
00000000
,
01000100
00011000
01000100
00000000
01000100
10000001
01000100
00000000
,
01000100
00011000
01000100
00000000
01000100
10000001
01000100
00000000
,
01000100
10000001
00011000
00000000
01000100
00011000
10000001
00000000
,
01000100
10000001
00011000
00000000
01000100
00011000
10000001
00000000
,
00011000
00000000
00000000
00011000
00000000
00000000
00011000
00000000
00000000
00000000
01000100
00000000
10000001
00000000
01000100
00000000
,
10000001
00000000
00000000
10000001
00000000
00000000
10000001
00000000
00000000
00000000
00011000
00000000
01000100
00000000
00011000
00000000
,
00100010
00000000
00000000
00011000
00000000
00000000
01000100
00000000
00000000
00000000
10000001
00000000
01000100
00000000
00011000
00000000
,
01000000
00000100
01000000
00000100
,
00100010
00000000
00000000
00100010
00000000
00000000
00100010
00000000
00000000
00000000
10000001
00000000
00011000
00000000
01000100
00000000
,
00100010
00000000
00000000
00100010
00000000
00000000
10011001
00000000
00000000
00000000
00100010
00000000
10000001
00000000
01000100
00000000
,
00011000
00000000
00000000
00011000
00000000
00000000
01100110
00000000
00000000
00000000
00011000
00000000
10000001
00000000
01000100
00000000
,
00100010
00000000
00100010
00000000
10011001
10000001
01000100
00000000
,
01000100
00000000
00100010
00000000
10000001
01000100
00100010
00000000
,
00011000
00000000
01000100
00000000
00100010
10000001
01000100
00000000
,
00100010
00000000
00011000
00000000
01000100
00100010
10000001
00000000
,
10011001
00000000
10011001
00000000
01000100
00011000
10000001
00000000
,
00100010
10000001
01000100
01100110
,
00100010
00011000
01000100
01100110
,
10000001
01000100
10000001
00000000
00011000
01000100
00011000
00000000
,
10000001
01000100
10000001
00000000
00011000
01000100
00011000
00000000
,
10000001
00000000
00011000
00000000
10000001
10000001
01000100
00000000
,
00011000
00000000
10000001
00000000
00011000
00011000
01000100
00000000
,
00111010
00000000
10011001
00000000
00011000
10000001
01000100
00000000
,
00100010
00000000
10011001
00000000
00100010
01000100
00100010
00000000
,
11000101
00011000
01011100
10000001
,
11000101
01100110
01011100
01100110
,
00100010
10000001
01000100
00111010
,
00011000
01000100
00100010
10100011
,
00011000
01000100
00100010
10000001
,
10000000
00100000
01000000
00000000
00000001
00000010
00000100
00000000
,
00100010
00000000
00000000
10000001
00000000
00000000
01000100
00000000
,
00000000
00011000
00000000
00000000
01000100
01000100
00100010
00100010
;

//---------------dance-couple - ----------------
#NOTES:
     dance-couple:
     :
     Hard:
     8:
     :
00000000
00000000
00000000
00000000
,
00000000
00000000
00000000
00000000
,
00000000
00000000
00000000
00000000
,
00000000
00000000
00000000
00000000
,
00000000
00000000
00000000
00000000
,
00000000
00000000
00000000
00000000
,
00000000
00000000
00000000
00000000
,
01000100
00011000
01000100
00011000
01000100
10000001
01000100
10000001
,
01000100
00011000
01000100
00011000
01000100
10000001
01000100
10000001
,
01000100
00011000
01000100
10000001
01000100
00011000
01000100
10000001
,
01000100
00011000
01000100
10000001
01000100
00100010
01000100
00100010
,
01000100
00011000
01000100
10000001
01000100
00011000
01000100
10000001
,
01000100
00011000
01000100
00100010
01000100
10000001
01000100
00100010
,
00011000
01000100
00011000
00100010
00011000
01000100
00011000
00100010
,
00011000
10000001
00011000
10000001
00011000
01000100
00011000
01000100
,
10000001
00011000
10000001
00011000
10000001
00100010
10000001
00100010
,
10000001
01000100
10000001
00100010
10000001
01000100
10100011
00000000
,
10000001
00000000
00000000
00011000
00000000
00000000
10000001
00000000
00000000
00000000
00100010
00000000
01000100
00000000
00011000
00000000
,
00011000
00000000
00000000
10000001
00000000
00000000
00011000
00000000
00000000
00000000
00100010
00000000
01000100
00000000
10000001
00000000
,
00100010
00000000
00000000
00100010
00000000
00000000
00100010
00000000
00000000
00000000
10000001
00000000
00011000
00000000
01000100
00000000
,
00100010
00000000
00100010
00000000
00100010
10000001
01000100
00000000
,
10000001
00000000
00000000
10000001
00000000
00000000
10000001
00000000
00000000
01000100
10000001
00000000
00011000
00000000
01000100
00000000
,
00011000
00000000
00000000
00011000
00000000
00000000
00011000
00000000
00000000
00100010
00011000
00000000
10000001
00000000
01000100
00000000
,
00100010
00000000
00000000
00100010
00000000
00000000
00100010
00000000
00000000
01000100
10000001
00000000
00011000
00000000
01000100
00000000
,
00100010
10000001
00000000
00000000
01000100
10000001
00000000
00000000
00011000
10000001
00000000
00000000
01000100
10000001
00000000
00000000
,
00000000
10000001
00000000
10000001
00000000
00011000
00000000
00011000
,
00000000
00100010
00000000
11000101
00000000
00100010
00000000
01011100
,
00000000
01000100
00000000
10011001
00000000
01000100
00000000
10011001
,
00000000
01000100
00000000
01000100
00000000
00100010
10011001
00000000
,
01000100
10000001
01000100
10000001
00011000
00100010
00011000
00100010
,
00011000
01000100
00011000
01000100
00100010
10000001
10100011
00000000
,
01000100
10000001
00100010
10000001
00011000
01000100
00100010
10000001
,
01000100
00100010
00011000
01000100
00100010
01000100
10011001
00000000
,
00100010
00000000
10000001
00000000
00011000
10011001
10011001
00000000
,
10011001
00000000
01000100
00000000
10011001
10000001
01000100
00000000
,
00100010
10000001
01000100
00100010
00011000
01000100
01000100
00000000
,
11000101
00000000
10100011
00000000
00100010
00011000
01011100
00000000
,
10011001
00000000
01000100
00000000
00011000
01000100
10000001
00000000
,
10011001
00000000
01000100
00000000
10000001
01000100
00011000
00000000
,
10011001
00000000
01011100
00000000
00011000
00100010
01011100
00000000
,
00111010
00000000
11000101
00000000
10100011
00011000
01000100
00000000
,
10000001
01011100
00011000
11000101
,
00100010
00000000
00011000
11000101
00000000
10000001
01011100
00000000
,
00100010
00011000
00011000
10000001
00011000
00011000
01000100
00011000
,
00011000
00011000
10000001
10000001
00100010
10000001
10011001
01011100
;

//---------------dance-solo - ----------------
#NOTES:
     dance-solo:
     :
     Easy:
     5:
     :
000000
000000
000000
000000
,
000000
000000
000000
000000
,
000000
000000
000000
000000
,
000000
000000
000000
000000
,
000000
000000
000000
000000
,
000000
000000
000000
000000
,
000000
000000
000000
000000
,
000010
100000
000100
100001
,
100000
000010
001000
100001
,
001000
010001
001000
100010
,
001000
100001
001000
100001
,
000100
001000
010000
100001
,
000010
010000
001000
100001
,
000100
000010
001000
100001
,
000100
010000
001000
100001
,
011000
000001
001010
100000
,
011000
000001
001010
100000
,
000001
000000
000000
000001
000000
000000
000001
000000
000000
000000
010000
000000
001000
000000
000000
000000
,
100000
000000
000000
100000
000000
000000
100000
000000
000000
000000
000010
000000
001000
000000
000000
000000
,
000001
000000
000000
100000
000000
000000
000010
000000
000000
000000
000100
000000
001000
000000
000000
000000
,
000100
000001
000001
000001
,
100000
000000
000000
001000
000000
000000
100000
000000
000000
000000
000001
000000
001000
000000
000000
000000
,
001000
000000
000000
000010
000000
000000
100000
000000
000000
000000
001000
000000
010000
000000
000000
000000
,
000100
000000
000000
000001
000000
000000
100000
000000
000000
000000
001000
000000
000100
000000
000000
000000
,
000100
010000
010000
010000
,
000001
001000
000100
100000
,
001000
010000
000001
001000
,
000010
100000
001000
000100
,
000001
000001
100000
100000
,
000100
010000
001000
001100
,
000010
000001
001000
001100
,
100000
001000
000001
000100
,
100010
000001
011000
100000
,
000100
000000
001000
000000
000001
100000
000001
000000
,
000100
000000
000010
000000
001000
001000
001000
000000
,
100001
000000
100001
000000
010000
001000
010000
000000
,
100000
000000
001000
000000
000100
000001
001000
000000
,
101000
000001
000110
010000
,
101000
000001
000110
010000
,
000100
100000
001000
000100
,
000001
001000
000010
100001
,
010000
000100
000010
000100
,
100000
000100
001000
000000
000010
000100
001000
000000
,
010000
000000
000000
100000
000000
000000
000001
000000
,
000000
000010
000000
000000
000100
000100
001000
001000
;

//---------------dance-solo - ----------------
#NOTES:
     dance-solo:
     :
     Medium:
     6:
     :
000000
000000
000000
000000
,
000000
000000
000000
000000
,
000000
000000
000000
000000
,
000000
000000
000000
000000
,
000000
000000
000000
000000
,
000000
000000
000000
000000
,
000000
000000
000000
000000
,
010000
001000
010000
000000
000100
000001
100000
000000
,
000010
001000
000010
000000
001000
000000
100001
000000
,
001000
010000
100001
000000
001000
000010
100001
000000
,
001000
010000
100001
000000
001000
000010
100001
000000
,
000100
001000
000100
100001
,
000100
000010
001000
000000
001000
000000
100001
000000
,
001000
000001
001000
000000
001000
100000
001000
000000
,
001000
000010
001000
000000
001000
010000
001000
000000
,
001000
000010
100000
000000
001000
010000
000001
000000
,
001000
000010
100000
000000
001000
010000
000001
000000
,
100000
000000
000000
100000
000000
000000
100000
000000
000000
000000
001000
000000
100000
000000
001000
000000
,
010000
000000
000000
010000
000000
000000
010000
000000
000000
000000
000001
000000
001000
000000
000001
000000
,
000100
000000
000000
000010
000000
000000
001000
000000
000000
000000
100000
000000
001000
000000
000001
000000
,
001000
001000
001000
001000
,
000100
000000
000000
000100
000000
000000
000100
000000
000000
000000
010000
000000
000001
000000
001000
000000
,
000100
000000
000000
000100
000000
000000
100001
000000
000000
000000
000100
000000
010000
000000
001000
000000
,
000001
000000
000000
000001
000000
000000
001100
000000
000000
000000
000001
000000
010000
000000
001000
000000
,
000100
000000
000100
000000
100001
100000
001000
000000
,
001000
000000
000100
000000
010000
001000
000100
000000
,
000001
000000
001000
000000
000010
100000
001000
000000
,
000100
000000
000001
000000
001000
000010
100000
000000
,
010001
000000
100010
000000
001000
000001
100000
000000
,
000100
010000
001000
000101
,
010000
001000
000100
001100
,
010000
000001
010000
000000
000010
100000
000010
000000
,
010000
001000
010000
000000
000010
001000
000010
000000
,
100000
000000
000001
000000
010000
010000
001000
000000
,
000001
000000
100000
000000
000010
000010
001000
000000
,
000101
000000
100001
000000
000010
010000
001000
000000
,
000100
000000
100001
000000
000100
001000
000100
000000
,
101000
000001
001010
100000
,
011000
000101
001010
100100
,
001000
010000
001000
000101
,
000010
001000
000100
100010
,
000001
001000
000100
100000
,
010000
000010
001000
000000
000001
000100
001000
000000
,
010000
000000
000000
100000
000000
000000
000001
000000
,
000000
000010
000000
000000
001000
001000
000100
000100
;

//---------------dance-solo - ----------------
#NOTES:
     dance-solo:
     :
     Hard:
     8:
     :
000000
000000
000000
000000
,
000000
000000
000000
000000
,
000000
000000
000000
000000
,
000000
000000
000000
000000
,
000000
000000
000000
000000
,
000000
000000
000000
000000
,
000000
000000
000000
000000
,
001000
100000
001000
010000
001000
000010
001000
000001
,
001000
010000
001000
100000
001000
000001
001000
000010
,
001000
100000
001000
000001
001000
010000
001000
000010
,
001000
100000
001000
000001
001000
000100
001000
010000
,
001000
100000
001000
000010
001000
100000
001000
000001
,
001000
010000
001000
000100
001000
000010
001000
000100
,
000001
001000
000001
010000
000001
001000
000001
000010
,
000001
100000
000001
100000
000001
001000
000001
001000
,
100000
000001
010000
000001
100000
001000
010000
001000
,
000001
000100
000001
000010
000001
001000
000010
000000
,
100000
000000
000000
000001
000000
000000
100000
000000
000000
000000
000100
000000
001000
000000
000010
000000
,
000010
000000
000000
100000
000000
000000
000001
000000
000000
000000
000100
000000
001000
000000
010000
000000
,
000100
000000
000000
000100
000000
000000
000100
000000
000000
000000
100000
000000
000001
000000
001000
000000
,
000010
000000
000010
000000
000010
100000
001000
000000
,
010000
000000
000000
010000
000000
000000
010000
000000
000000
001000
100000
000000
000001
000000
001000
000000
,
000010
000000
000000
000010
000000
000000
000010
000000
000000
000100
000001
000000
100000
000000
001000
000000
,
000100
000000
000000
000100
000000
000000
000100
000000
000000
001000
100000
000000
000001
000000
001000
000000
,
000010
100000
000000
000000
001000
100000
000000
000000
000001
100000
000000
000000
001000
100000
000000
000000
,
000000
010000
000000
010000
000000
000001
000000
000001
,
000000
000100
000000
011000
000000
000100
000000
001010
,
000000
100000
000000
010001
000000
001000
000000
100010
,
000000
001000
000000
001000
000000
000100
100001
000000
,
001000
100000
001000
100000
000001
000100
000001
000100
,
000001
001000
000010
001000
000100
100000
100010
000000
,
001000
010000
000100
100000
000001
001000
000100
100000
,
001000
000100
000001
001000
000010
001000
100001
000000
,
000100
000000
100000
000000
000010
010001
100010
000000
,
100001
000000
001000
000000
100001
010000
001000
000000
,
000100
100000
001000
000100
000001
001000
001000
000000
,
101000
000000
010100
000000
000100
000010
001001
000000
,
100010
000000
001000
000000
000001
001000
100000
000000
,
100001
000000
001000
000000
100000
001000
000001
000000
,
100001
000000
001010
000000
000001
000100
001010
000000
,
000101
000000
101000
000000
010100
000010
001000
000000
,
100000
001001
000010
100100
,
001000
000000
000001
101000
000000
010000
100001
000000
,
000100
000010
000010
010000
000001
000001
001000
000010
,
000010
000010
100000
100000
000100
010000
100010
010001
;
