#TITLE:pot-pourri d'orange;
#ARTIST:Orange Lounge;
#BANNER:pot-pourri d'orange.png;
#BACKGROUND:pot-pourri d'orange-bg.png;
#CDTITLE:./CDTITLES/GUITARFREAKS & drummania.PNG;
#MUSIC:pot-pourri d'orange.ogg;
#SAMPLESTART:6.859;
#SAMPLELENGTH:15;
#DISPLAYBPM:170;
#BPMS:0=175.78,4=174.757,20=175.182,36=174.757,68=175.182,84=171.021,100=169.811,116=172.249,132=171.838,148=171.429,164=172.249,180=171.429,196=172.249,228=171.021,244=172.249;

//---------------dance-single - ----------------
#NOTES:
     dance-single:
     :
     Beginner:
     1:
     :
0000
0000
0000
0000
,
0000
0000
0000
0000
,
0000
0000
0000
0000
,
0000
0000
0000
0000
,
0000
0000
0000
0000
,
1000
0000
0000
0000
,
0001
0000
0000
0000
,
0100
0000
0000
0000
,
0010
0000
0000
0000
,
1000
0000
0000
0000
,
0001
0000
0000
0000
,
0010
0000
0000
0000
,
0100
0000
0000
0000
,
1000
0000
0000
0000
,
0010
0000
0000
0000
,
0100
0000
0000
0000
,
0001
0000
0000
0000
,
1000
0000
1000
0000
,
0001
0000
0001
0000
,
1001
0000
0000
0000
,
1000
0000
0000
0000
,
0001
0000
0010
0000
,
0001
0000
0000
0000
,
0100
0000
0100
0000
,
0001
0000
0010
0000
,
0100
0000
0000
0000
,
1000
0000
0000
0000
,
0100
0000
0000
0000
,
0010
0000
0000
0000
,
1000
0000
0000
0000
,
0001
0000
0000
0000
,
1000
0000
0000
0000
,
1000
0000
0000
0000
,
0010
0000
0000
0000
,
0100
0000
0000
0000
,
0001
0000
1000
0000
,
0001
0000
0000
0000
,
0010
0000
0001
0000
,
0100
0000
0000
0000
,
0010
0000
0100
0000
,
0010
0000
0000
0000
,
0100
0000
0001
0000
,
1000
0000
0000
0000
,
1000
0000
1000
0000
,
0002
0000
0000
0003
,
0001
0000
1000
0000
,
0000
0000
0010
0000
,
1000
0000
0100
0000
,
0000
0000
1000
0000
,
0100
0000
0100
0000
,
0000
0000
0001
0000
,
0010
0000
0010
0000
,
0000
0000
0010
0000
,
0100
0000
0100
0000
,
0000
0000
1000
0000
,
0001
0000
0001
0000
,
0000
0000
0100
0000
,
0010
0000
0010
0000
,
0000
0000
1000
0000
,
0001
0000
0001
0000
,
0002
0000
0000
0003
,
0001
0000
1000
0000
,
0010
0000
1000
0000
,
0020
0000
0000
0030
,
0010
0000
0100
0000
,
0001
0000
1000
0000
,
0000
1001
0000
0000
;

//---------------dance-single - ----------------
#NOTES:
     dance-single:
     :
     Easy:
     3:
     :
0000
0000
0000
0000
,
0000
0000
0000
0000
,
0000
0000
0000
0000
,
0000
0000
0000
0000
,
0000
0000
0000
0000
,
0001
0000
1000
0000
,
0100
0000
1000
0000
,
0001
0000
0010
0000
,
0100
0000
0010
0000
,
0001
0000
0001
0000
,
0010
0000
0001
0000
,
1000
0000
0100
0000
,
0010
0000
0100
0000
,
2000
0000
3000
1000
,
0000
0000
0001
0001
,
0200
0000
0300
0100
,
0000
0000
0001
0001
,
1000
1000
0000
0001
,
0001
0000
1000
0001
,
2000
0000
0000
3000
,
1000
0010
1000
0001
,
0100
0000
0001
0000
,
1000
0001
1000
0100
,
0010
0000
0010
0000
,
0100
1000
0010
1000
,
0002
0000
0003
0000
,
2000
0000
3000
0000
,
0020
0000
0030
0000
,
1000
1001
0000
0000
,
1000
0000
0100
0000
,
0010
0100
1000
0000
,
1000
0000
0001
0000
,
0001
0010
0001
0000
,
0010
0100
0010
0000
,
0010
0001
1000
0000
,
0010
0000
0100
0000
,
2002
0000
3003
0000
,
0001
0000
1000
0000
,
0010
0000
0100
0000
,
0001
1000
0010
0000
,
1000
0100
1000
0000
,
0100
1000
0010
1000
,
0010
0010
0010
0000
,
1000
0000
0001
0000
,
2002
0000
3003
0000
,
0010
1000
0100
0000
,
0010
0100
1000
0000
,
0010
1000
0100
0000
,
1000
0001
0010
0000
,
0100
1000
0001
0000
,
0100
0010
0100
0000
,
0001
1000
0001
0000
,
0001
0001
0010
0000
,
0001
0100
0010
0000
,
0100
0001
0010
0000
,
0100
0010
0001
1000
,
1000
0001
0100
0000
,
0001
0001
0100
0000
,
0001
1000
0010
0000
,
0010
0000
0100
0010
,
1000
0000
1000
0000
,
0010
1000
0010
1000
,
0100
1000
0100
1000
,
0001
0000
0001
0000
,
0010
0000
0100
0000
,
0010
0000
0001
0000
,
0000
1001
0000
0000
;

//---------------dance-single - ----------------
#NOTES:
     dance-single:
     :
     Medium:
     5:
     :
0000
0000
0000
0000
,
0000
0000
0000
0000
,
0000
0000
0000
0000
,
0000
0000
0000
0000
,
0000
0000
0000
0000
,
0100
0000
0100
0000
0001
1000
0001
0010
,
0000
0000
0010
0000
0000
0001
0000
0000
,
1000
0000
0010
0000
0100
0001
0000
0001
,
0000
0000
0100
0000
0000
0010
0000
0000
,
0010
0000
0010
0000
1000
0001
1000
0100
,
0000
0000
0100
0000
0000
1000
0000
0000
,
0001
0000
0100
0000
0010
1000
0000
1000
,
0000
0000
0010
0000
0000
0100
0000
0000
,
0100
0000
0000
0001
0000
0000
0001
0000
,
0000
0010
0000
0000
0001
0000
0001
0000
,
0100
0000
0000
0001
0000
0000
1000
0000
,
0000
0001
0000
0000
0010
0000
0010
0000
,
0001
1000
0000
0100
1000
0000
0001
0010
,
0000
0001
0100
0000
0010
0000
1000
0000
,
0002
0000
0000
0000
,
2000
0000
0000
3003
,
0001
0000
0010
0000
0001
1000
1000
0001
,
0000
0100
0001
0000
1000
0010
0010
1000
,
0001
0000
1000
0000
1000
0100
0100
1000
,
0000
1000
0001
0000
1000
0010
0010
0100
,
0010
0000
0000
2000
0000
0000
3000
0000
,
0001
0000
0000
0002
0000
0000
0003
0000
,
0100
0000
0000
0200
0000
0000
0300
0000
,
1001
2002
0000
3003
,
1000
0000
0100
0000
0010
0001
0000
1000
,
0000
0001
0000
0200
0000
0000
0300
0000
,
0010
0000
1000
0000
0010
0100
0000
0001
,
0000
0010
0000
0200
0000
0000
0300
0000
,
1000
0000
0001
0000
1000
0100
0000
0100
,
0000
1000
0000
2000
0000
0000
3000
0000
,
0020
0030
0200
0300
,
0220
0000
0330
0000
,
0001
0000
1000
1000
0100
0000
1000
0001
,
0020
0000
0030
0001
,
0001
0000
0010
0010
0100
0000
1000
0001
,
0002
0000
0003
1000
,
0010
0000
0010
1000
0001
0000
1000
0100
,
2000
0000
3000
0001
,
0002
0003
0202
0303
,
2002
0000
3003
0000
,
1000
0000
0010
0200
0000
0000
0000
0000
,
0000
0001
0000
0301
0000
0000
0000
0000
,
0002
0003
0020
0030
,
0200
0300
1000
0100
,
0010
0000
0001
2000
0000
0000
0000
0000
,
0000
0001
0000
3001
0000
0000
0000
0000
,
2000
3000
0002
0003
,
0020
0030
0010
0001
,
1000
0000
1000
0002
0000
0000
0000
0000
,
0000
1000
0000
1003
0000
0000
0000
0000
,
2000
3000
0020
0030
,
2000
3000
0001
0010
,
0100
0000
1000
0020
0000
0000
0000
0000
,
0000
0100
0000
0130
0000
0000
0000
0000
,
0002
0003
0200
0300
,
0020
0000
0030
0010
0000
0000
0000
0000
,
1000
0100
1000
0100
0010
0000
0001
0010
,
0001
0010
0100
0000
0100
0010
0100
0010
,
0002
0000
0000
0003
,
0100
0000
0000
1000
0000
0000
0100
0000
,
2200
3300
2020
3030
,
0000
1001
0000
0000
;

//---------------dance-single - ----------------
#NOTES:
     dance-single:
     :
     Hard:
     8:
     :
0000
0000
0000
0000
,
0000
0000
0000
0000
,
0000
0000
0000
0000
,
0000
0000
0000
0000
,
0000
0000
0000
0000
,
0001
0000
0100
0000
0001
1000
0001
2000
,
0000
0000
0100
0000
0000
3010
0000
0000
,
0100
0000
0001
0000
0001
0010
0000
0002
,
0000
0000
0010
0000
0000
1003
0000
0000
,
1000
0000
0010
0000
1000
0001
1000
0002
,
0000
0000
0010
0000
0000
0103
0000
0000
,
0010
0000
1000
0000
1000
0100
0000
2000
,
0000
0000
0100
0000
0000
3001
0000
0000
,
0020
0000
0000
2030
0000
0000
3002
0000
,
0000
2003
0000
0000
3100
0000
0100
0000
,
0020
0000
0000
0032
0000
0000
0203
0000
,
0000
1300
0000
0000
0001
0000
0001
0000
,
1000
2000
0000
3001
0002
0000
0013
0020
,
0000
0130
0200
0000
1300
0000
1000
0000
,
0002
0000
0010
0010
0000
0000
1003
0000
,
1000
0000
0000
0000
1000
0000
0000
0000
1000
0100
1000
0100
1000
0000
0001
0000
,
0001
0000
1000
0000
0010
1000
0001
0010
,
0100
1000
1001
0000
0010
1000
0001
1000
,
1010
0000
0010
0000
1000
0010
0100
0001
,
1000
0100
1100
0000
1000
0001
0010
0001
,
1001
0000
0011
0011
0000
0000
0010
0001
,
1000
0000
0000
0101
0000
0010
1000
0100
,
0110
0000
0000
0110
0000
0000
0000
0000
,
1010
0000
0000
0000
1001
0000
0000
1000
0001
0000
1000
0000
0100
0000
0000
0000
,
1000
0000
0010
0000
0100
0001
0000
1000
,
0000
0100
0000
0010
0000
0001
1000
0000
,
0010
0000
0100
0000
0001
1000
0000
0010
,
0000
1000
0000
0001
0000
1000
0100
0000
,
0010
0000
0001
0000
1000
0100
0000
1000
,
0000
0010
0000
0100
0000
0001
1000
0000
,
1001
0000
1001
0000
,
1000
0100
1000
0100
1000
0000
0001
1000
0001
1000
0001
0000
1000
0000
0000
0000
,
0001
0001
1000
0100
0000
0100
1000
1000
,
0002
0010
0100
1003
,
1000
0001
1000
0010
0000
1000
0100
1000
,
0002
1000
0100
0013
,
1000
0001
0001
1000
0000
1000
0001
0100
,
0002
0010
1000
0013
,
0022
0033
0202
0303
,
2002
0000
0000
0000
3003
0000
0000
0000
1000
0000
0001
1000
0001
0000
0001
0000
,
1000
0000
1000
0020
0000
0000
1000
1000
,
0000
0001
0000
0031
0000
0000
0001
0000
,
0010
0000
0000
1000
1000
0001
0000
1000
,
0000
0010
0000
0000
0010
0000
0100
0000
,
0001
0000
1000
0200
0000
0000
0000
0000
,
0000
0010
0000
0010
0000
0000
0000
0000
,
1300
0000
0010
1000
0000
0010
0000
2000
,
0000
0000
0000
0000
3001
1000
0100
0010
,
0001
0000
1000
0020
0000
0000
0001
0001
,
0000
0100
0000
0130
0000
0000
0000
0000
,
0200
0000
0300
0000
0020
0000
0030
1000
,
0000
1000
0000
0010
1000
0001
0100
0001
,
1000
0000
0001
2000
0000
0000
0000
0000
,
0000
0002
0000
3003
,
1000
0000
0000
0001
0010
0100
1000
0001
,
1000
0000
0000
0100
0000
0000
0000
0000
,
0010
0100
0010
0100
1001
0000
1000
0001
,
1000
0001
0110
0000
1000
1000
0001
0001
,
1000
0000
0001
0010
0001
0000
0100
0000
0001
1000
0001
0000
1000
0000
0001
0000
,
0100
0000
0001
0100
0001
0000
1000
0000
1000
0001
0010
0000
0001
0000
0000
0000
,
2000
0000
0002
0000
,
3003
1001
0000
0000
;

//---------------dance-double - ----------------
#NOTES:
     dance-double:
     :
     Beginner:
     1:
     :
00000000
00000000
00000000
00000000
,
00000000
00000000
00000000
00000000
,
00000000
00000000
00000000
00000000
,
00000000
00000000
00000000
00000000
,
00000000
00000000
00000000
00000000
,
00010000
00000000
00000000
00000000
,
01000000
00000000
00000000
00000000
,
01000000
00000000
00000000
00000000
,
00100000
00000000
00000000
00000000
,
10000000
00000000
00000000
00000000
,
00100000
00000000
00000000
00000000
,
10000000
00000000
00000000
00000000
,
01000000
00000000
00000000
00000000
,
00010000
00000000
00000000
00000000
,
00001000
00000000
00000000
00000000
,
00000100
00000000
00000000
00000000
,
00000001
00000000
00000000
00000000
,
00000010
00000000
00000010
00000000
,
00000001
00000000
00000100
00000000
,
00000010
00000000
00000000
00000000
,
00001000
00000000
00000000
00000000
,
00000100
00000000
00000010
00000000
,
00000001
00000000
00000010
00000000
,
00000010
00000000
00000100
00000000
,
00001000
00000000
00000001
00000000
,
00000100
00000000
00000000
00000000
,
00001000
00000000
00000000
00000000
,
00010000
00000000
00000000
00000000
,
01000000
00000000
00000000
00000000
,
10000000
00000000
00000000
00000000
,
10000000
00000000
00000000
00000000
,
00010000
00000000
00000000
00000000
,
00010000
00000000
00000000
00000000
,
01000000
00000000
00000000
00000000
,
00100000
00000000
00000000
00000000
,
10000000
00000000
00010000
00000000
,
10000000
00000000
00000000
00000000
,
01000000
00000000
10000000
00000000
,
01000000
00000000
00000000
00000000
,
01000000
00000000
00010000
00000000
,
00001000
00000000
00000000
00000000
,
00000010
00000000
00000001
00000000
,
00001000
00000000
00000000
00000000
,
00000100
00000000
00000010
00000000
,
00000200
00000000
00000000
00000300
,
00000000
00000000
00000001
00000000
,
00000000
00000000
00000100
00000000
,
00000001
00000000
00000010
00000000
,
00000000
00000000
00000001
00000000
,
00000010
00000000
00000100
00000000
,
00000000
00000000
00010000
00000000
,
00001000
00000000
00010000
00000000
,
00000000
00000000
00010000
00000000
,
01000000
00000000
10000000
00000000
,
00000000
00000000
00010000
00000000
,
00100000
00000000
00010000
00000000
,
00000000
00000000
00100000
00000000
,
01000000
00000000
10000000
00000000
,
00000000
00000000
00010000
00000000
,
01000000
00000000
00100000
00000000
,
20000000
00000000
00000000
30000000
,
10000000
00000000
10000000
00000000
,
01000000
00000000
00010000
00000000
,
00001000
00000000
00000000
00000000
,
00000100
00000000
00000001
00000000
,
00000010
00000000
00000100
00000000
,
00000000
00000110
00000000
00000000
;

//---------------dance-double - ----------------
#NOTES:
     dance-double:
     :
     Easy:
     3:
     :
00000000
00000000
00000000
00000000
,
00000000
00000000
00000000
00000000
,
00000000
00000000
00000000
00000000
,
00000000
00000000
00000000
00000000
,
00000000
00000000
00000000
00000000
,
10000000
00000000
00010000
00000000
,
10000000
00000000
10000000
00000000
,
01000000
00000000
00010000
00000000
,
00001000
00000000
00000100
00000000
,
00000001
00000000
00001000
00000000
,
00000100
00000000
00001000
00000000
,
00000010
00000000
00000100
00000000
,
00000001
00000000
00001000
00000000
,
00000020
00000000
00000030
00000010
,
00000000
00000000
00010000
00010000
,
00002000
00000000
00003000
00001000
,
00000000
00000000
00010000
00010000
,
01000000
01000000
00000000
10000000
,
10000000
00000000
00010000
00010000
,
02000000
00000000
00000000
03000000
,
01000000
00100000
10000000
01000000
,
00100000
00000000
00010000
00000000
,
01000000
00010000
10000000
01000000
,
00010000
00000000
00001000
00000000
,
00000100
00000001
00001000
00000010
,
00000020
00000000
00000030
00000000
,
00020000
00000000
00030000
00000000
,
00002000
00000000
00003000
00000000
,
00010000
00011000
00000000
00000000
,
00001000
00000000
00100000
00000000
,
00010000
10000000
01000000
00000000
,
10000000
00000000
00010000
00000000
,
00010000
00100000
01000000
00000000
,
00100000
00100000
00010000
00000000
,
10000000
00100000
00010000
00000000
,
00001000
00000000
00000010
00000000
,
00000002
00000000
00000003
00000000
,
00000001
00000000
00000010
00000000
,
00000100
00000000
00000100
00000000
,
00001000
00000001
00000100
00000000
,
00000001
00000010
00000001
00000000
,
00000010
00000100
00001000
00000001
,
00000100
00000100
00001000
00000000
,
00010000
00000000
01000000
00000000
,
20000000
00000000
30000000
00000000
,
00010000
10000000
00100000
00000000
,
10000000
01000000
01000000
00000000
,
00100000
01000000
10000000
00000000
,
00010000
10000000
01000000
00000000
,
00100000
00010000
10000000
00000000
,
10000000
01000000
00010000
00000000
,
00001000
00000100
00000001
00000000
,
00000001
00000001
00001000
00000000
,
00001000
00000010
00000100
00000000
,
00000010
00001000
00000100
00000000
,
00000010
00000100
00001000
00000001
,
00000001
00001000
00000010
00000000
,
00001000
00001000
00000010
00000000
,
00001000
00000001
00000100
00000000
,
00001000
00000000
00010000
01000000
,
10000000
00000000
10000000
00000000
,
00100000
01000000
00100000
01000000
,
00010000
01000000
00010000
01000000
,
00001000
00000000
00010000
00000000
,
00001000
00000000
00000100
00000000
,
00000001
00000000
00001000
00000000
,
00000000
00001001
00000000
00000000
;

//---------------dance-double - ----------------
#NOTES:
     dance-double:
     :
     Medium:
     6:
     :
00000000
00000000
00000000
00000000
,
00000000
00000000
00000000
00000000
,
00000000
00000000
00000000
00000000
,
00000000
00000000
00000000
00000000
,
00000000
00000000
00000000
00000000
,
00100000
00000000
00100000
00000000
10000000
00010000
10000000
01000000
,
00000000
00000000
00100000
00000000
00000000
00010000
00000000
00000000
,
00100000
00000000
00001000
00000000
00010000
00000100
00000000
00001000
,
00000000
00000000
00000001
00000000
00000000
00000100
00000000
00000000
,
00000100
00000000
00000100
00000000
00000001
00001000
00000001
00000010
,
00000000
00000000
00000100
00000000
00000000
00001000
00000000
00000000
,
00000100
00000000
00010000
00000000
00001000
00100000
00000000
00010000
,
00000000
00000000
10000000
00000000
00000000
00100000
00000000
00000000
,
01000000
00000000
00000000
00010000
00000000
00000000
10000000
00000000
,
00000000
01000000
00000000
00000000
00100000
00000000
01000000
00000000
,
01000000
00000000
00000000
10000000
00000000
00000000
00100000
00000000
,
00000000
00010000
00000000
00000000
00001000
00000000
00010000
00000000
,
00010000
00001000
00000000
00001000
00000100
00000000
00000100
00000001
,
00000000
00000001
00000100
00000000
00000010
00000000
00001000
00000000
,
00000002
00000000
00000000
00000000
,
00002000
00000000
00000000
00003003
,
00000010
00000000
00001000
00000000
00000010
00001000
00001000
00000010
,
00000000
00000100
00000001
00000000
00000001
00000010
00000010
00000001
,
00001000
00000000
00000001
00000000
00000001
00000100
00000100
00000001
,
00000000
00000001
00001000
00000000
00000001
00000010
00000010
00000100
,
00001000
00000000
00000000
00000200
00000000
00000000
00000300
00000000
,
00010000
00000000
00000000
00002000
00000000
00000000
00003000
00000000
,
01000000
00000000
00000000
00020000
00000000
00000000
00030000
00000000
,
10000000
20020000
00000000
30030000
,
10000000
00000000
00100000
00000000
01000000
00010000
00000000
10000000
,
00000000
00010000
00000000
00200000
00000000
00000000
00300000
00000000
,
01000000
00000000
10000000
00000000
01000000
00100000
00000000
00010000
,
00000000
01000000
00000000
00200000
00000000
00000000
00300000
00000000
,
10000000
00000000
00010000
00000000
10000000
00100000
00000000
00100000
,
00000000
10000000
00000000
20000000
00000000
00000000
30000000
00000000
,
00200000
00300000
00020000
00030000
,
00022000
00000000
00033000
00000000
,
00010000
00000000
00001000
00000100
00000001
00000000
00001000
00000001
,
00000200
00000000
00000300
00000001
,
00000001
00000000
00000010
00000001
00001000
00000000
00000100
00001000
,
00002000
00000000
00003000
00000010
,
00010000
00000000
00001000
00010000
00100000
00000000
10000000
01000000
,
20000000
00000000
30000000
00010000
,
00020000
00030000
20000000
30000000
,
20020000
00000000
30030000
00000000
,
10000000
00000000
00010000
02000000
00000000
00000000
00000000
00000000
,
00000000
00010000
00000000
03010000
00000000
00000000
00000000
00000000
,
00020000
00030000
00200000
00300000
,
02000000
03000000
10000000
01000000
,
00010000
00000000
00001000
00002000
00000000
00000000
00000000
00000000
,
00000000
00000000
00000000
00003000
00000000
00000000
00000000
00000000
,
00002000
00003000
00000200
00000300
,
00000002
00000003
00000010
00000100
,
00001000
00000000
00001000
00000002
00000000
00000000
00000000
00000000
,
00000000
00001000
00000000
00001003
00000000
00000000
00000000
00000000
,
00000020
00000030
00002000
00003000
,
00020000
00030000
00010000
00100000
,
10000000
00000000
10000000
00200000
00000000
00000000
00000000
00000000
,
00000000
00000000
00000000
00300000
00000000
00000000
00000000
00000000
,
20000000
30000000
00200000
00300000
,
02000000
00000000
03000000
01000000
00000000
00000000
00000000
00000000
,
00010000
01000000
00010000
01000000
00001000
00000000
00010000
00001000
,
00010000
00001000
00000100
00000000
00000100
00000001
00000100
00000001
,
00002000
00000000
00000000
00003000
,
00000010
00000000
00000000
00001000
00000000
00000000
00000100
00000000
,
00002200
00003300
00022000
00000000
,
00033000
00011000
00000000
00000000
;

//---------------dance-double - ----------------
#NOTES:
     dance-double:
     :
     Hard:
     8:
     :
00000000
00000000
00000000
00000000
,
00000000
00000000
00000000
00000000
,
00000000
00000000
00000000
00000000
,
00000000
00000000
00000000
00000000
,
00000000
00000000
00000000
00000000
,
00000100
00000000
00010000
00000000
00001000
00010000
00001000
00020000
,
00000000
00000000
00001000
00000000
00000000
00031000
00000000
00000000
,
00100000
00000000
00010000
00000000
01000000
00100000
00000000
20000000
,
00000000
00000000
01000000
00000000
00000000
30100000
00000000
00000000
,
00100000
00000000
01000000
00000000
00001000
00010000
00010000
00002000
,
00000000
00000000
00010000
00000000
00000000
00013000
00000000
00000000
,
00001000
00000000
00000100
00000000
00000001
00000100
00000000
00000002
,
00000000
00000000
00000010
00000000
00000000
00000100
00000003
00000000
,
00002000
00000000
00000000
00003200
00000000
00000000
00020300
00000000
,
00000000
00032000
00000000
00000000
01000000
00000000
01003000
00000000
,
00020000
00000000
00000000
00230000
00000000
00000000
02300000
00000000
,
00000000
23000000
00000000
00000000
30010000
00000000
00010000
00000000
,
10000000
20000000
00000000
30100000
00200000
00000000
00010000
00320000
,
00000000
00030000
00100000
00000000
00200000
00000000
00000000
00000000
10000000
00000000
00000000
00000000
10300000
00000000
00000000
00000000
,
20000000
00000000
00100000
00100000
00000000
00000000
00010000
00000000
,
00010000
00000000
00000000
00000000
30010000
00000000
00000000
00000000
00010000
01000000
00010000
01000000
00010000
00000000
01000000
00000000
,
00010000
00000000
01000000
00000000
00001000
00010000
00001000
00100000
,
00001000
00010000
00011000
00000000
00001000
00010000
00000010
00010000
,
00010010
00000000
00010000
00000000
00001000
01000000
00001000
00010000
,
00000100
00010000
00010100
00000000
00001000
00000001
00000010
00000100
,
00001001
00000000
00000110
00000110
00000000
00000000
00001000
00000100
,
00010000
00000000
00000000
00010100
00000000
00001000
00000100
00000010
,
00000011
00000000
00000000
00002002
00000000
00000000
00003003
00000000
,
00000110
00000000
00000000
00000000
00001001
00000000
00000000
00000001
00000100
00000000
00001000
00000000
00010000
00000000
00000000
00000000
,
01000000
00000000
00100000
00000000
01000000
10000000
00000000
10000000
,
00000000
01000000
00000000
00100000
00000000
01000000
10000000
00000000
,
00100000
00000000
01000000
00000000
00010000
01000000
00000000
00010000
,
00000000
00100000
00000000
00010000
00000000
00010000
01000000
00000000
,
00100000
00000000
01000000
00000000
00010000
01000000
00000000
00010000
,
00000000
00100000
00000000
01000000
00000000
00010000
00001000
00000000
,
00011000
00000000
00010100
00000000
,
00002000
00000000
00000001
00000000
00003001
00000000
00000001
00001000
00000001
00001000
00000001
00000000
00001000
00000000
00000000
00000000
,
00001000
00001000
00000001
00000010
00000000
00000010
00000001
00000001
,
00002000
00000100
00000010
00003001
,
00000001
00001000
00000001
00000100
00000000
00000001
00000010
00000001
,
00000200
00000001
00000010
00001300
,
00010000
00001000
00010000
01000000
00000000
10000000
00010000
01000000
,
00020000
00100000
01000000
10030000
,
00220000
00330000
02200000
03300000
,
20000000
00000000
00000000
00000000
30000000
00000000
00000000
00000000
10000000
00000000
00010000
01000000
00010000
00000000
00010000
00000000
,
10000000
00000000
00010000
00200000
00000000
00000000
10000000
10000000
,
00000000
00010000
00000000
00310000
00000000
00000000
00000000
00000000
,
02000000
00000000
00000000
10000000
13000000
00010000
00000000
10000000
,
00000000
00100000
00000000
00000000
00010000
00000000
00001000
00000000
,
00010000
00000000
00000100
00020000
00000000
00000000
00000000
00000000
,
00000000
00000100
00000000
00030100
00000000
00000000
00000000
00000000
,
00001000
00000000
00000001
00000100
00000000
00000010
00000000
00002000
,
00000000
00000000
00000000
00000000
00003100
00000010
00000001
00000010
,
00000100
00000000
00001000
00000020
00000000
00000000
00001000
00001000
,
00000000
00000001
00000000
00000031
00000000
00000000
00000000
00000000
,
00000020
00000000
00000030
00000000
00002000
00000000
00003000
00000100
,
00000000
00010000
00000000
00100000
00010000
00001000
01000000
00010000
,
00100000
00000000
00010000
02000000
00000000
00000000
00000000
00000000
,
00000000
00020000
00000000
03030000
,
01010000
00000000
00000000
00010000
10000000
00100000
01000000
00010000
,
10000000
00000000
00000000
00220000
00000000
00000000
00330000
00000000
,
00100000
00010000
00100000
00010000
00110000
00000000
00001000
00010000
,
00001000
00010000
00011000
00000000
00000100
00001000
00000100
00001000
,
00001100
00000000
00000010
00000100
00000010
00000100
00000010
00000001
,
00000100
00001000
00000100
00000001
00000001
00000100
00001000
00000000
,
00000200
00000000
00000020
00000000
,
00000330
00000110
00000000
00000000
;
