#TITLE:e-motion;
#SUBTITLE:(ROMANTIC STYLE);
#ARTIST:dj TAKA;
#BANNER:e-motion (ROMANTIC STYLE).png;
#BACKGROUND:e-motion (ROMANTIC STYLE)-bg.png;
#CDTITLE:./CDTITLES/Song Pack 14.png;
#MUSIC:e-motion (ROMANTIC STYLE).ogg;
#SAMPLESTART:25.883;
#SAMPLELENGTH:15;
#DISPLAYBPM:153;
#BPMS:0=152.996;

//---------------dance-single - ----------------
#NOTES:
     dance-single:
     :
     Beginner:
     1:
     :
0000
0000
0000
0000
,
0000
0000
0000
0000
,
0000
0000
0000
0000
,
0000
0000
0000
0000
,
0000
0000
0000
0000
,
0010
0000
0000
0000
,
0000
0000
0000
0000
,
0001
0000
0000
0000
,
0000
0000
0000
0000
,
0100
0000
0000
0000
,
0100
0000
0000
0000
,
0010
0000
0000
0000
,
0010
0000
0000
0000
,
0100
0000
0000
0000
,
0001
0000
0000
0000
,
1000
0000
0000
0000
,
0001
0000
0000
0000
,
1000
1000
0000
0000
,
0001
0001
0000
0000
,
1000
1000
0000
0000
,
0010
0010
0000
0000
,
0100
0000
0001
0000
,
1000
0000
0010
0000
,
0100
0000
0100
0000
,
0001
0000
0001
0000
,
1000
0000
1000
0000
,
0001
0000
0001
0000
,
0010
0000
0000
0000
,
0100
0000
0000
0000
,
1000
0000
1000
0000
,
0001
0000
0001
0000
,
0010
0000
0000
0000
,
0010
0000
0000
0000
,
0100
0000
0000
0000
,
1000
0000
0000
0000
,
1000
0000
0000
0000
,
0010
0000
0000
0000
,
0100
0000
0000
0000
,
0001
0000
0000
0000
,
1000
0000
0001
0000
,
1000
0000
0001
0000
,
1001
0000
0000
0000
;

//---------------dance-single - ----------------
#NOTES:
     dance-single:
     :
     Easy:
     3:
     :
0000
0000
0000
0000
,
0000
0000
0000
0000
,
0000
0000
0000
0000
,
0000
0000
0000
0000
,
0000
0000
0000
0000
,
1000
0000
0001
0000
,
0001
0000
0100
0000
,
0010
0000
0010
0000
,
0100
0000
0001
0000
,
1001
0000
1000
0010
,
1000
0000
0010
0000
,
0110
0000
0100
0001
,
0100
0000
0001
0000
,
1001
0000
0001
1000
,
0001
0000
0010
0000
,
0110
0000
0100
0000
,
0020
0000
0000
0030
,
0010
0001
0010
0000
,
0100
1000
0001
0000
,
0100
0001
0010
0000
,
0010
0100
0010
0000
,
0001
0010
0100
1000
,
0000
0001
0100
0000
,
0001
1000
0100
0010
,
0000
0010
0100
0000
,
1000
0010
0100
0000
,
0010
1000
0001
0000
,
0010
0001
1000
0000
,
0100
1000
0001
0000
,
0001
0010
0100
0000
,
1000
0010
0100
0000
,
0001
0001
1000
0000
,
1000
1000
0010
0000
,
0010
0000
0100
0100
,
0001
0000
1000
0000
,
0001
0010
0010
0000
,
0001
0000
1000
0000
,
0010
0010
1000
0000
,
0010
0010
0100
0000
,
0001
0000
1000
0000
,
0010
0000
1000
0000
,
0200
0000
0000
0000
,
0000
0000
0000
0300
;

//---------------dance-single - ----------------
#NOTES:
     dance-single:
     :
     Medium:
     6:
     :
0000
0000
0000
0000
,
0000
0000
0000
0000
,
0000
0000
0000
0000
,
0000
0000
0000
0000
,
0000
0000
0000
0000
,
0020
0000
0000
1000
1000
0000
0130
0000
,
0200
0000
0000
0010
0010
0000
0301
0000
,
0002
0000
0000
0010
0010
0000
1003
0000
,
2000
0000
0000
0100
0100
0000
3001
0000
,
1001
0000
0000
0010
1000
0000
0001
0000
,
1001
0000
0000
0100
1000
0000
0100
0000
,
0011
0000
0000
0100
1000
0000
0001
0000
,
0101
0000
0000
0001
1000
0000
0001
0000
,
1001
0000
0000
0010
1000
0000
0001
0000
,
0110
0000
0000
0100
1000
0000
0001
0000
,
2002
0003
3020
0000
,
0130
0000
0000
0000
1000
0001
1000
0001
,
1000
0000
1000
0000
0010
1000
0100
0000
,
0010
0100
1000
0001
0000
0100
0010
0000
,
1000
0001
1000
0000
0010
0000
0100
0000
,
0001
0000
0100
0000
0010
0000
1000
1000
,
0001
0000
0100
0000
0010
0100
0100
0000
,
0010
0000
0100
0000
0001
1000
0010
0000
,
0100
0010
0000
0100
0001
0001
0010
0000
,
0100
0010
0001
0100
0001
1000
0001
0000
,
0010
0100
1000
0001
0000
0010
0000
0000
,
0100
1000
0001
1000
0000
0100
0000
0000
,
0010
0001
1000
0100
0010
0001
1000
0001
,
0010
0100
1000
0001
0010
0001
1000
0000
,
1000
0001
1000
0001
0000
1000
0000
0000
,
0100
0010
0100
0010
0000
0001
0000
0000
,
1000
0010
0100
0001
0010
0100
1000
0001
,
0001
0100
0001
1000
0001
0000
0110
0000
,
2000
0000
0000
0000
3001
0000
0010
0001
,
2000
0000
0020
3030
,
0200
0000
0000
0000
0000
0000
0301
0001
,
0002
0000
0010
0003
,
0200
1000
1000
1300
,
0002
0010
0010
0013
,
2000
0100
3002
0100
,
2003
0000
3020
0000
,
0200
0000
0000
0000
,
0000
0000
0000
0330
;

//---------------dance-single - ----------------
#NOTES:
     dance-single:
     :
     Hard:
     9:
     :
0000
0000
0000
0000
,
0000
0000
0000
0000
,
0000
0000
0000
0000
,
0000
0000
0000
0000
,
0000
0000
0000
0000
,
1000
0001
1000
0020
0000
0000
0130
0000
,
0001
1000
0000
0010
0100
0010
1000
0100
,
0020
0000
0000
0001
0031
0000
1000
0001
,
0200
0000
0000
0320
0000
0000
1030
0000
,
1001
0000
0000
0000
1000
0001
1000
0010
0100
0000
0000
0001
0000
0000
0010
0000
,
0100
1000
0010
2000
0000
0000
3001
1000
,
1001
0000
0000
0000
0000
0000
0000
0000
0000
0000
0000
0000
0000
0000
0000
0000
0010
0000
0000
0000
0000
0001
0000
0000
0000
0000
1000
0000
0000
0000
0000
0000
0100
0000
0000
0000
0000
1000
0000
0000
0000
0000
0001
0000
0000
0000
0000
0000
0100
0000
0000
0000
0000
0001
0000
0000
0000
0000
1000
0000
0000
0000
0000
0000
,
0010
0000
1000
0000
0001
0000
0010
0000
0100
0000
0000
1000
0000
0000
0001
0000
,
1001
0100
0010
1000
0000
0000
1010
0000
,
0001
0010
0000
0100
1000
0001
0100
0010
,
0120
0000
0000
0031
0010
0100
1000
0001
,
2002
0000
0000
3003
,
1000
0001
0100
0001
1000
0010
0100
0001
,
0010
0100
1000
0100
0010
1000
0010
0001
,
1000
0100
0001
0100
0010
0001
1000
0100
,
0001
1100
0101
0110
,
1001
0000
0000
1000
0100
0000
1000
0010
0000
1000
0100
0000
0010
0000
1001
0000
,
0101
0000
0000
0001
0010
0000
0001
0100
0000
0000
0101
0000
0000
1001
0000
0000
,
1010
0000
0000
1000
0010
0000
1000
0100
0000
1000
0010
0000
0100
0000
1001
0000
,
0011
0000
0000
0001
0100
0000
0001
0010
0000
0001
0100
0000
0001
0000
1000
0000
,
1001
0100
0010
0001
0000
1000
0000
0000
,
0001
0000
0100
0000
0010
0000
1000
0000
0000
0000
0001
0000
0000
0010
0100
1000
,
0001
0010
0100
1000
0001
0100
0000
1000
,
0100
0000
0001
0000
0000
0000
0010
0100
2000
0000
0000
0000
3002
0000
0000
0000
,
0013
0100
0010
0000
0001
1000
0001
0000
0100
0010
0100
0000
0001
0010
0001
0000
,
1000
0100
1000
0000
0001
0100
0001
0000
1000
0010
1000
0000
0100
0010
0100
0010
,
0001
0000
0000
0000
0000
0000
1000
0001
1000
0000
0000
0000
0001
0000
0100
0020
,
0200
0000
0000
0330
0101
0000
1100
0000
,
1002
0000
0000
0003
0000
0000
0001
0000
0000
0000
0011
0000
0000
0000
0100
0000
,
0102
0000
0000
0100
0000
0000
0100
0000
0000
0000
1003
0000
0000
0000
0010
0000
,
1020
0000
0000
0030
0000
0000
0010
0000
0000
0000
0011
0000
0000
0000
1000
0000
,
1002
0000
0000
1000
0000
0000
1003
0000
0100
1000
0000
0001
0010
0000
0100
0000
,
1002
0000
0000
0003
0000
0000
0001
0000
0002
0000
0000
0100
0000
0000
0100
0000
,
0203
0000
0000
1000
0000
0000
1000
0000
2300
0000
0000
0010
0000
0000
0010
0000
,
3020
0000
0000
0001
0000
0000
0001
0000
0031
0000
1000
0000
0001
0000
0100
0000
,
0010
0100
0010
0000
1000
0001
1000
0000
0010
1000
0001
0100
0001
1000
0001
0010
,
0200
0000
0000
0000
,
0000
0000
0000
0300
;

//---------------dance-double - ----------------
#NOTES:
     dance-double:
     :
     Beginner:
     1:
     :
00000000
00000000
00000000
00000000
,
00000000
00000000
00000000
00000000
,
00000000
00000000
00000000
00000000
,
00000000
00000000
00000000
00000000
,
00000000
00000000
00000000
00000000
,
00010000
00000000
00000000
00000000
,
00000000
00000000
00000000
00000000
,
01000000
00000000
00000000
00000000
,
00000000
00000000
00000000
00000000
,
00010000
00000000
00000000
00000000
,
10000000
00000000
00000000
00000000
,
01000000
00000000
00000000
00000000
,
00010000
00000000
00000000
00000000
,
00001000
00000000
00000000
00000000
,
00000100
00000000
00000000
00000000
,
00000001
00000000
00000000
00000000
,
00000100
00000000
00000000
00000000
,
00000010
00000010
00000000
00000000
,
00001000
00001000
00000000
00000000
,
00000001
00000001
00000000
00000000
,
00000100
00000100
00000000
00000000
,
00001000
00000000
00010000
00000000
,
01000000
00000000
10000000
00000000
,
01000000
00000000
10000000
00000000
,
00100000
00000000
10000000
00000000
,
01000000
00000000
00010000
00000000
,
00001000
00000000
00010000
00000000
,
00001000
00000000
00000000
00000000
,
00000100
00000000
00000000
00000000
,
00000001
00000000
00000001
00000000
,
00001000
00000000
00001000
00000000
,
00000010
00000000
00000000
00000000
,
00000100
00000000
00000000
00000000
,
00000001
00000000
00000000
00000000
,
00000100
00000000
00000000
00000000
,
00001000
00000000
00000000
00000000
,
00010000
00000000
00000000
00000000
,
01000000
00000000
00000000
00000000
,
10000000
00000000
00000000
00000000
,
10000000
00000000
01000000
00000000
,
00010000
00000000
00001000
00000000
,
00011000
00000000
00000000
00000000
;

//---------------dance-double - ----------------
#NOTES:
     dance-double:
     :
     Easy:
     3:
     :
00000000
00000000
00000000
00000000
,
00000000
00000000
00000000
00000000
,
00000000
00000000
00000000
00000000
,
00000000
00000000
00000000
00000000
,
00000000
00000000
00000000
00000000
,
00010000
00000000
10000000
00000000
,
10000000
00000000
01000000
00000000
,
00010000
00000000
00001000
00000000
,
00000100
00000000
00000001
00000000
,
00001001
00000000
00001000
00000100
,
00001000
00000000
00000010
00000000
,
00000110
00000000
00000001
00000100
,
00001000
00000000
00010000
00000000
,
00011000
00000000
00010000
01000000
,
10000000
00000000
00100000
00000000
,
01100000
00000000
01000000
00000000
,
00020000
00000000
00000000
00030000
,
00010000
00100000
00010000
00000000
,
00100000
00010000
10000000
00000000
,
10000000
01000000
00010000
00000000
,
00001000
00000100
00000001
00000000
,
00001000
00000001
00000100
00000010
,
00000000
00000010
00000100
00000000
,
00000001
00000100
00001000
00010000
,
00000000
00001000
00010000
00000000
,
00010000
01000000
10000000
00000000
,
01000000
10000000
00010000
00000000
,
00100000
01000000
10000000
00000000
,
10000000
01000000
00010000
00000000
,
00001000
00000100
00000001
00000000
,
00001000
00000010
00000100
00000000
,
00000010
00000010
00001000
00000000
,
00001000
00000100
00000010
00000000
,
00000001
00000000
00000100
00001000
,
00010000
00000000
00001000
00000000
,
00010000
01000000
10000000
00000000
,
00100000
00000000
01000000
00000000
,
00010000
00010000
10000000
00000000
,
00100000
00100000
10000000
00000000
,
01000000
00000000
00010000
00000000
,
00001000
00000000
00010000
00000000
,
00002000
00000000
00000000
00000000
,
00000000
00000000
00000000
00003000
;

//---------------dance-double - ----------------
#NOTES:
     dance-double:
     :
     Medium:
     6:
     :
00000000
00000000
00000000
00000000
,
00000000
00000000
00000000
00000000
,
00000000
00000000
00000000
00000000
,
00000000
00000000
00000000
00000000
,
00000000
00000000
00000000
00000000
,
00000002
00000000
00000000
00000010
00000010
00000000
00001003
00000000
,
00002000
00000000
00000000
00000100
00000100
00000000
00003100
00000000
,
00000200
00000000
00000000
00001000
00001000
00000000
00010300
00000000
,
00002000
00000000
00000000
00010000
00010000
00000000
00013000
00000000
,
00011000
00000000
00000000
00010000
01000000
00000000
10000000
00000000
,
11000000
00000000
00000000
00010000
10000000
00000000
00100000
00000000
,
10100000
00000000
00000000
00010000
01000000
00000000
00001000
00000000
,
00011000
00000000
00000000
00010000
00000100
00000000
00001000
00000000
,
00001100
00000000
00000000
00001000
00000010
00000000
00000100
00000000
,
00000110
00000000
00000000
00000001
00000100
00000000
00001000
00000000
,
00022000
00003000
00230000
00000000
,
00310000
00000000
00000000
00000000
00010000
00100000
00010000
01000000
,
00010000
00000000
10000000
00000000
01000000
00010000
00001000
00000000
,
00010000
00001000
00000100
00000001
00000000
00001000
00000100
00000000
,
00001000
00000010
00001000
00000000
00000010
00000000
00010000
00000000
,
00001000
00000000
01000000
00000000
00010000
00000000
00100000
01000000
,
10000000
00000000
00100000
00000000
00100000
01000000
00010000
00000000
,
00100000
00000000
00001000
00000000
00010000
00001000
00100000
00000000
,
00010000
00100000
00000000
01000000
00010000
00001000
00000100
00000000
,
00000001
00000100
00000001
00000010
00000100
00001000
00000001
00000000
,
00000100
00001000
00010000
00001000
00000000
00010000
00000000
00000000
,
01000000
10000000
00010000
10000000
00000000
00100000
00000000
00000000
,
01000000
00010000
00100000
00001000
00010000
00001000
01000000
00010000
,
00100000
01000000
00100000
00010000
10000000
01000000
10000000
00000000
,
10000000
01000000
00010000
00001000
00000000
00000100
00000000
00000000
,
00000001
00000100
00000010
00001000
00000000
00000001
00000000
00000000
,
00000001
00000010
00001000
00010000
00100000
10000000
00100000
10000000
,
01000000
00010000
00001000
00010000
00001000
00000000
00011000
00000000
,
00002000
00000000
00000000
00000000
00013000
00000000
00001000
00100000
,
00020000
00000000
00200000
00330000
,
00002000
00000000
00000000
00000000
00000000
00000000
00010000
00013000
,
00000200
00000000
00001000
00000300
,
00000002
00001000
00001000
00001003
,
00000200
00001000
00001000
00001300
,
00020000
00030100
00002000
01003000
,
00020000
00000000
00230000
00000000
,
02000000
00000000
00000000
00000000
,
00000000
00000000
00000000
03300000
;

//---------------dance-double - ----------------
#NOTES:
     dance-double:
     :
     Hard:
     9:
     :
00000000
00000000
00000000
00000000
,
00000000
00000000
00000000
00000000
,
00000000
00000000
00000000
00000000
,
00000000
00000000
00000000
00000000
,
00000000
00000000
00000000
00000000
,
00010000
00001000
01000000
00200000
00000000
00000000
00310000
00000000
,
00100000
10000000
00000000
00010000
10000000
00010000
00100000
01000000
,
00200000
00000000
00000000
01000000
01300000
00000000
10000000
01000000
,
00020000
00000000
00000000
00032000
00000000
00000000
00013000
00000000
,
00011000
00000000
00000000
00000000
00010000
00001000
00010000
00000100
00001000
00000000
00000000
00000010
00000000
00000000
00000100
00000000
,
00000001
00000010
00000100
00002000
00000000
00000000
00003001
00001000
,
00001001
00000000
00000000
00000000
00000000
00000000
00000000
00000000
00000000
00000000
00000000
00000000
00000000
00000000
00000000
00000000
00000001
00000000
00000000
00000000
00000000
00000010
00000000
00000000
00000000
00000000
00001000
00000000
00000000
00000000
00000000
00000000
00010000
00000000
00000000
00000000
00000000
01000000
00000000
00000000
00000000
00000000
10000000
00000000
00000000
00000000
00000000
00000000
00010000
00000000
00000000
00000000
00000000
10000000
00000000
00000000
00000000
00000000
00100000
00000000
00000000
00000000
00000000
00000000
,
01000000
00000000
00010000
00000000
10000000
00000000
00010000
00000000
00100000
00000000
00000000
01000000
00000000
00000000
00010000
00000000
,
00011000
00001000
00010000
00000100
00000000
00000000
00010100
00000000
,
00000100
00000010
00000000
00000010
00000001
00001000
00000100
00000010
,
00000120
00000000
00000000
00000030
00001000
00010000
01000000
00100000
,
02200000
00000000
00000000
03300000
,
00100000
01000000
10000000
00100000
01000000
10000000
00010000
00100000
,
01000000
00010000
00100000
01000000
00010000
00001000
00000010
00000100
,
00001000
00000010
00000100
00001000
00000001
00000010
00000100
00000001
,
00001100
00010100
00101000
00110000
,
10010000
00000000
00000000
10000000
01000000
00000000
00100000
00010000
00000000
01000000
00010000
00000000
00100000
00000000
00110000
00000000
,
00101000
00000000
00000000
00001000
00100000
00000000
00001000
00010000
00000000
00000000
00011000
00000000
00000000
00001100
00000000
00000000
,
00001010
00000000
00000000
00001000
00000010
00000000
00000100
00000001
00000000
00001000
00000100
00000000
00001000
00000000
00001100
00000000
,
00010100
00000000
00000000
00010000
00001000
00000000
00100000
00001000
00000000
00010000
00000100
00000000
00010000
00000000
00001000
00000000
,
00011000
00010000
00100000
20000000
00000000
30020000
00000000
00030000
,
10000000
00000000
01000000
00000000
00010000
00000000
00001000
00000000
00000000
00000000
00010000
00000000
00000000
00001000
00010000
00000100
,
00001000
00000010
00001000
00000001
00000010
00000100
00000000
00000001
,
00000100
00000000
00001000
00000000
00000000
00000000
00000010
00001000
00000200
00000000
00000000
00000000
00020300
00000000
00000000
00000000
,
00031000
00010000
00001000
00000000
00100000
01000000
00100000
00000000
00010000
10000000
00010000
00000000
01000000
00100000
01000000
00000000
,
00001000
00010000
00001000
00000000
00010000
00001000
00010000
00000000
00000100
00000010
00000100
00000000
00001000
00000001
00001000
00000001
,
00000010
00000000
00000000
00000000
00000000
00000000
00000100
00000010
00000100
00000000
00000000
00000000
00010000
00000000
00001000
00020000
,
00002000
00033000
00010100
00101000
,
00120000
00000000
00000000
10000000
00000000
00000000
01030000
00000000
00000000
00000000
00100000
00000000
00000000
00000000
10000000
00000000
,
12000000
00000000
00000000
00100000
00000000
00000000
03010000
00000000
00000000
00000000
00001000
00000000
00000000
00000000
00010000
00000000
,
00012000
00000000
00000000
00100000
00000000
00000000
00013000
00000000
00000000
00000000
00100000
00000000
00000000
00000000
00010000
00000000
,
00012000
00000000
00000000
00000010
00000000
00000000
00003000
00000000
00010000
00000010
00000000
00001000
00000010
00000000
00001000
00000000
,
00002000
00000000
00000000
00000100
00000000
00000000
00000100
00000000
00003200
00000000
00000000
00000010
00000000
00000000
00000010
00000000
,
00000320
00000000
00000000
00001000
00000000
00000000
00001000
00000000
00002030
00000000
00000000
00100000
00000000
00000000
00100000
00000000
,
00203000
00000000
00000000
00010000
00000000
00000000
00310000
00000000
01000000
00000000
00100000
00000000
10000000
00000000
00010000
00000000
,
01000000
00010000
10000000
00000000
01000000
10000000
00010000
00000000
00100000
00001000
00010000
00001000
00010000
00001000
00010000
00001000
,
00020000
00000000
00000000
00000000
,
00000000
00000000
00000000
00030000
;
