#TITLE:Whip It;
#ARTIST:Devo;
#BANNER:Whip It.png;
#BACKGROUND:Whip It-bg.png;
#CDTITLE:./CDTITLES/DANCE DANCE REVOLUTION ULTRAMIX 3.png;
#MUSIC:Whip It.ogg;
#SAMPLESTART:19.38;
#SAMPLELENGTH:15;
#DISPLAYBPM:131:198;
#BPMS:0=158.7,24=157.3,51=158,76=157.7,96=158.4,114=157.6,131=158,180=158.2,198=159,208=157.4,236=157.8,252=156.54;
#BGCHANGES:4=Whip It.avi=1=1=0=0=StretchNoLoop==CrossFade==,263=Whip It-bg.png=1=0=0=1=====;

//---------------dance-single - ----------------
#NOTES:
     dance-single:
     :
     Beginner:
     1:
     :
0000
0000
0000
0000
,
0000
0000
0000
0000
,
0000
0000
0000
0000
,
1000
0000
0000
0000
,
1000
0000
0000
0000
,
0001
0000
0000
0000
,
0001
0000
0000
0000
,
0010
0000
0000
0000
,
0100
0000
0000
0000
,
1000
0000
0000
0000
,
0100
0000
0000
0000
,
1000
0000
0000
0000
,
0001
0000
0000
0000
,
0010
0000
0100
0000
,
1000
0000
0000
0000
,
0001
0000
1000
0000
,
0001
0000
0000
0000
,
0010
0000
0100
0000
,
1000
0000
0000
0000
,
0001
0000
0000
0000
,
0010
0000
0000
0000
,
0001
0000
0000
0000
,
0100
0000
0000
0000
,
0010
0000
0000
0000
,
1000
0000
0000
0000
,
0001
0000
0000
0000
,
1000
0000
0000
0000
,
0010
0000
0000
0000
,
0100
0000
0000
0000
,
0100
0000
0100
0000
,
0100
0000
0000
0000
,
0001
0000
0001
0000
,
0001
0000
0000
0000
,
1000
0000
1000
0000
,
1000
0000
0000
0000
,
0010
0000
0010
0000
,
0010
0000
0000
0000
,
0100
0000
0001
0000
,
1000
0000
0000
0000
,
1000
0000
0100
0000
,
1000
0000
0000
0000
,
1000
0000
0010
0000
,
0100
0000
0000
0000
,
0001
0000
1000
0000
,
0010
0000
0000
0000
,
1000
0000
0000
0000
,
0001
0000
0000
0000
,
0010
0000
0000
0000
,
0100
0000
0000
0000
,
0010
0000
0000
0000
,
0001
0000
0000
0000
,
0100
0000
0000
0000
,
0001
0000
0000
0000
,
0010
0000
0000
0000
,
0100
0000
0000
0000
,
1000
0000
0000
0000
,
0100
0000
0000
0000
,
0010
0000
0000
0000
,
0001
0000
0000
0000
,
0001
0000
0000
0000
,
0010
0000
0000
0000
,
0100
0000
0000
0000
,
0100
0000
0000
0000
,
1000
0000
0010
0000
,
0100
0000
0001
0000
,
1000
0000
1001
0000
;

//---------------dance-single - ----------------
#NOTES:
     dance-single:
     :
     Easy:
     2:
     :
0000
0000
0000
0000
,
0000
0000
0000
0000
,
0000
0000
0000
0000
,
2000
0000
0000
3000
,
1000
0000
0010
0000
,
0200
0000
0000
0300
,
0100
0000
0100
0000
,
0002
0000
0000
0003
,
0001
0000
1000
0000
,
0020
0000
0000
0030
,
0010
0000
1000
0000
,
1000
0000
0100
0000
,
0010
0000
0001
0000
,
1000
0010
1000
0000
,
0001
1000
0100
0000
,
0010
0001
0100
0000
,
0010
1000
0100
0000
,
0010
0001
1000
0000
,
0010
0100
0001
0000
,
1000
0000
1000
0000
,
0010
0000
0010
0000
,
0100
0000
0100
0000
,
0001
0000
0001
0000
,
1000
0000
1000
0000
,
0010
0000
0010
0000
,
0100
0000
0100
0000
,
0001
0000
0001
0000
,
1000
0000
1000
0000
,
0100
0000
0100
0000
,
0010
0000
0001
0000
,
1000
0000
0000
0000
,
0001
0000
1000
0000
,
0010
0000
0000
0000
,
0100
0000
0001
0000
,
1000
0000
0000
0000
,
0100
0000
0010
0000
,
0001
0000
0000
0000
,
1000
0010
1000
0000
,
0001
0010
0100
0000
,
1000
0010
0100
0000
,
0001
1000
0100
0000
,
0010
0001
0100
0000
,
0010
1000
0100
0000
,
1000
0001
1000
0000
,
0010
0100
0001
0000
,
1000
0000
0100
0000
,
0010
0000
0001
0000
,
1000
0000
0010
0000
,
0100
0000
0001
0000
,
1000
0000
0100
0000
,
0010
0000
0100
0000
,
1000
0000
0010
0000
,
0100
0000
0001
0000
,
1000
0000
0100
0000
,
0010
0000
0001
0000
,
1000
0000
0001
0000
,
1000
0000
0010
0000
,
0100
0000
0001
0000
,
1000
0000
0100
0000
,
0010
0000
0001
0000
,
1000
0000
0100
0000
,
1000
0000
0001
0000
,
0010
0000
0100
0000
,
2000
0000
0000
3000
,
1000
0000
0000
0000
,
0001
0000
1001
0000
;

//---------------dance-single - ----------------
#NOTES:
     dance-single:
     :
     Medium:
     4:
     :
0000
0000
0000
0000
,
0000
0000
0000
0000
,
0000
0000
0000
0000
,
1000
0000
0100
0000
,
1000
0010
1000
0000
,
0010
0000
0100
0000
,
0001
0100
0001
0000
,
0010
0000
0100
0000
,
1000
0010
0100
0000
,
0001
0000
1000
0000
,
0001
1000
0001
0000
,
0010
0000
0100
0000
,
1000
0010
0100
0000
,
0010
0000
0100
0000
,
0001
1000
0001
1000
0000
0000
0000
0000
,
0001
0000
1000
0000
,
0010
0100
0010
0100
0000
0000
0000
0000
,
0010
0000
1000
0000
,
0010
1000
0010
1000
0000
0000
0000
0000
,
1000
0010
2000
0000
0000
0000
3000
0000
,
0001
0100
0002
0000
0000
0000
0003
0000
,
0010
0100
0020
0000
0000
0000
0030
0000
,
0001
1000
0002
0000
0000
0000
0003
0000
,
0100
0010
0200
0000
0000
0000
0300
0000
,
0010
1000
0020
0000
0000
0000
0030
0000
,
1000
0100
2000
0000
0000
0000
3000
0000
,
0001
0001
0200
0000
0000
0000
0300
0000
,
0010
0010
2000
0000
0000
0000
3000
0000
,
1000
1000
0002
0000
0000
0000
0003
0000
,
0100
0000
0001
0000
,
1000
0000
0001
0100
0001
0100
0000
0000
,
0010
0000
0100
0000
,
0001
0000
1000
0100
1000
0000
0000
0000
,
0001
0000
0100
0000
,
0001
0000
0010
0001
0010
0001
0000
0000
,
1000
0000
0010
0000
,
0100
0000
0010
1000
0010
0000
0000
0000
,
1000
0000
0010
0000
,
0010
0000
0100
0000
,
0001
1000
1000
0000
,
0001
1000
1000
0001
0000
0000
0000
0000
,
0001
1000
0010
0000
,
0010
0100
0100
0010
0000
0000
0000
0000
,
1000
0010
0100
0000
,
0001
0100
0100
0001
0000
0000
0000
0000
,
0010
0010
0001
0000
0100
0000
0000
0000
,
0010
1000
1000
0000
0001
0000
0000
0000
,
0010
0001
1000
0000
1000
0000
0000
0000
,
0010
0100
0001
0000
1000
0000
0000
0000
,
0100
1000
1000
0000
0001
0000
0000
0000
,
0010
0100
0010
0000
0001
0000
0000
0000
,
0010
0001
1000
0000
0100
0000
0000
0000
,
0010
0010
0100
0000
1000
0000
0000
0000
,
0010
0100
0001
0000
0010
0000
0000
0000
,
0001
1000
0100
0000
1000
0000
0000
0000
,
0001
0010
0100
0000
1000
0000
0000
0000
,
0010
1000
0100
0000
0010
0000
0000
0000
,
0010
0001
0001
0000
0001
0000
0000
0000
,
1000
0001
0100
0000
0100
0000
0000
0000
,
0010
1000
0100
0000
0010
0000
0000
0000
,
0001
0100
0001
0000
0010
0000
0000
0000
,
0001
0010
0100
0000
0010
0000
0000
0000
,
0001
1000
1000
0000
0001
0000
0000
0000
,
1000
0000
0010
0000
,
0010
0100
0001
1000
,
0010
1000
1001
0000
;

//---------------dance-single - ----------------
#NOTES:
     dance-single:
     :
     Hard:
     6:
     :
0000
0000
0000
0000
,
0000
0000
0000
0000
,
0000
0000
0000
0000
,
0010
1000
0010
0100
0002
0000
0000
0000
,
1000
0100
0103
0000
,
1000
1000
0010
1000
0200
0000
0000
0000
,
0010
1000
1300
0000
,
0010
0010
0100
0001
0002
0000
0000
0000
,
0100
0010
0013
0000
,
0010
0100
1000
0001
0200
0000
0000
0000
,
0010
0001
0301
0000
,
0001
0010
0100
1000
0020
0000
0000
0000
,
1000
0100
0130
0000
,
0100
0100
0010
0100
0002
0000
0000
0000
,
1003
0100
1000
1001
0000
0000
0001
0100
,
0010
1000
0100
0010
0200
0000
0000
0000
,
1300
1000
0010
1010
0000
0000
0000
0000
,
0010
1000
0001
0100
0002
0000
0000
0000
,
0013
0001
0100
0101
0000
0000
0000
0000
,
0001
1000
1000
0000
0010
0000
0010
0000
,
1000
0100
1000
0000
0100
0000
0100
0000
,
0010
0001
1000
0000
0001
0000
0001
0000
,
1000
0010
0100
0000
0010
0000
0010
0000
,
0100
0001
1000
0000
0001
0000
0001
0000
,
1000
0010
1000
0000
0100
0000
0100
0000
,
1000
1000
0010
0000
0010
0000
0100
0000
,
0001
1000
0010
0000
1000
0000
0010
0000
,
0010
0010
0100
0000
0001
0000
1000
0000
,
0100
0010
0001
0000
0001
1000
1001
0000
,
0110
0000
1001
0000
,
0110
0000
0010
1000
0010
1010
0000
0000
,
1010
0000
1100
0000
,
1001
0000
1000
0001
1001
0000
0000
0000
,
0011
0000
0101
0000
,
0110
0000
0010
1000
0010
0100
0000
0000
,
1010
0000
0110
0000
,
0101
0000
0001
1000
0100
0000
0000
0000
,
0010
0001
1000
0010
1001
0000
0000
0000
,
0100
0000
1000
0000
0001
0100
0010
0100
,
0001
0100
0001
1000
0002
0000
0000
0000
,
1003
0100
0010
0110
0000
0000
1000
1000
,
0010
0100
0001
1000
0020
0000
0000
0000
,
1030
0010
0100
0101
0000
0000
0100
0000
,
0100
0001
0010
0010
0200
0000
0000
0000
,
1300
0001
1000
1100
0000
0000
0000
0000
,
0010
0010
0200
0000
0001
0000
0301
0000
,
0100
0100
0020
0000
1000
0000
1030
0000
,
0001
0001
2000
0000
0010
0000
3010
0000
,
1000
1000
0002
0000
0100
0000
0103
0000
,
1000
1000
0200
0000
0010
0000
0310
0000
,
0001
0001
0020
0000
0100
0000
0130
0000
,
0100
0100
2000
0000
0100
0000
3100
0000
,
0010
0010
0002
0000
1000
0000
1003
0000
,
0001
0001
0200
0000
0010
0000
0310
0000
,
1000
1000
0020
0000
0100
0000
0130
0000
,
0100
0100
0020
0000
1000
0000
1030
0000
,
0010
0010
0200
0000
0001
0000
0301
0000
,
1000
1000
0002
0000
0100
0000
0103
0000
,
0001
0001
2000
0000
0010
0000
3010
0000
,
0001
0001
0020
0000
0100
0000
0130
0000
,
1000
1000
0200
0000
0010
0000
0310
0000
,
0010
0010
0002
0000
1000
0000
1003
0000
,
1000
0000
0010
0000
1000
0100
1100
0000
,
0001
0010
0001
0100
0001
0000
1000
0000
,
0100
0000
0010
0000
0001
1000
0010
0100
,
0001
1000
0100
0010
0011
0000
0000
0000
;

//---------------dance-double - ----------------
#NOTES:
     dance-double:
     :
     Beginner:
     1:
     :
00000000
00000000
00000000
00000000
,
00000000
00000000
00000000
00000000
,
00000000
00000000
00000000
00000000
,
10000000
00000000
00000000
00000000
,
10000000
00000000
00000000
00000000
,
01000000
00000000
00000000
00000000
,
01000000
00000000
00000000
00000000
,
00010000
00000000
00000000
00000000
,
00001000
00000000
00000000
00000000
,
00010000
00000000
00000000
00000000
,
00001000
00000000
00000000
00000000
,
00001000
00000000
00000000
00000000
,
00000100
00000000
00000000
00000000
,
00000001
00000000
00000001
00000000
,
00001000
00000000
00000000
00000000
,
00000010
00000000
00000100
00000000
,
00000001
00000000
00000000
00000000
,
00000001
00000000
00000100
00000000
,
00001000
00000000
00000000
00000000
,
00010000
00000000
00000000
00000000
,
01000000
00000000
00000000
00000000
,
10000000
00000000
00000000
00000000
,
00100000
00000000
00000000
00000000
,
10000000
00000000
00000000
00000000
,
01000000
00000000
00000000
00000000
,
10000000
00000000
00000000
00000000
,
01000000
00000000
00000000
00000000
,
01000000
00000000
00000000
00000000
,
00010000
00000000
00000000
00000000
,
00001000
00000000
00001000
00000000
,
00001000
00000000
00000000
00000000
,
00010000
00000000
00010000
00000000
,
00010000
00000000
00000000
00000000
,
00001000
00000000
00001000
00000000
,
00001000
00000000
00000000
00000000
,
00010000
00000000
00010000
00000000
,
00010000
00000000
00000000
00000000
,
00001000
00000000
00000100
00000000
,
00000001
00000000
00000000
00000000
,
00001000
00000000
00000010
00000000
,
00001000
00000000
00000000
00000000
,
00000001
00000000
00000010
00000000
,
00000100
00000000
00000000
00000000
,
00001000
00000000
00000001
00000000
,
00000001
00000000
00000000
00000000
,
00000100
00000000
00000000
00000000
,
00001000
00000000
00000000
00000000
,
00010000
00000000
00000000
00000000
,
01000000
00000000
00000000
00000000
,
10000000
00000000
00000000
00000000
,
00010000
00000000
00000000
00000000
,
10000000
00000000
00000000
00000000
,
00100000
00000000
00000000
00000000
,
00100000
00000000
00000000
00000000
,
01000000
00000000
00000000
00000000
,
01000000
00000000
00000000
00000000
,
00010000
00000000
00000000
00000000
,
10000000
00000000
00000000
00000000
,
01000000
00000000
00000000
00000000
,
00010000
00000000
00000000
00000000
,
00001000
00000000
00000000
00000000
,
00000100
00000000
00000000
00000000
,
00000001
00000000
00000000
00000000
,
00001000
00000000
00000010
00000000
,
00000100
00000000
00000001
00000000
,
00001000
00000000
00001001
00000000
;

//---------------dance-double - ----------------
#NOTES:
     dance-double:
     :
     Easy:
     2:
     :
00000000
00000000
00000000
00000000
,
00000000
00000000
00000000
00000000
,
00000000
00000000
00000000
00000000
,
20000000
00000000
00000000
30000000
,
10000000
00000000
01000000
00000000
,
02000000
00000000
00000000
03000000
,
01000000
00000000
00010000
00000000
,
00002000
00000000
00000000
00003000
,
00001000
00000000
00000100
00000000
,
00000002
00000000
00000000
00000003
,
00000001
00000000
00001000
00000000
,
00000001
00000000
00000010
00000000
,
00000100
00000000
00001000
00000000
,
00000010
00000100
00001000
00000000
,
00010000
01000000
10000000
00000000
,
01000000
10000000
00100000
00000000
,
01000000
00010000
10000000
00000000
,
10000000
01000000
00010000
00000000
,
00001000
00000100
00000001
00000000
,
00000010
00000000
00000001
00000000
,
00000100
00000000
00000100
00000000
,
00001000
00000000
00001000
00000000
,
00010000
00000000
00010000
00000000
,
01000000
00000000
01000000
00000000
,
10000000
00000000
10000000
00000000
,
00010000
00000000
00010000
00000000
,
00100000
00000000
00100000
00000000
,
01000000
00000000
01000000
00000000
,
10000000
00000000
10000000
00000000
,
01000000
00000000
01000000
00000000
,
00010000
00000000
00000000
00000000
,
00001000
00000000
00000100
00000000
,
00000001
00000000
00000000
00000000
,
00000010
00000000
00000001
00000000
,
00001000
00000000
00000000
00000000
,
00000010
00000000
00000100
00000000
,
00000001
00000000
00000000
00000000
,
00000001
00000100
00000001
00000000
,
00000100
00001000
00010000
00000000
,
00010000
01000000
10000000
00000000
,
01000000
00100000
01000000
00000000
,
00100000
00010000
01000000
00000000
,
00100000
10000000
01000000
00000000
,
00010000
00001000
00010000
00000000
,
00001000
00000100
00000001
00000000
,
00000001
00000000
00000010
00000000
,
00000100
00000000
00001000
00000000
,
00000001
00000000
00000100
00000000
,
00001000
00000000
00010000
00000000
,
00001000
00000000
00010000
00000000
,
01000000
00000000
10000000
00000000
,
00010000
00000000
01000000
00000000
,
00100000
00000000
10000000
00000000
,
00010000
00000000
00100000
00000000
,
01000000
00000000
00010000
00000000
,
00001000
00000000
00010000
00000000
,
00001000
00000000
00000100
00000000
,
00000001
00000000
00000100
00000000
,
00000001
00000000
00001000
00000000
,
00000010
00000000
00000100
00000000
,
00000001
00000000
00000100
00000000
,
00001000
00000000
00010000
00000000
,
01000000
00000000
10000000
00000000
,
02000000
00000000
00000000
03000000
,
01000000
00000000
00000000
00000000
,
00010000
00000000
00011000
00000000
;

//---------------dance-double - ----------------
#NOTES:
     dance-double:
     :
     Medium:
     4:
     :
00000000
00000000
00000000
00000000
,
00000000
00000000
00000000
00000000
,
00000000
00000000
00000000
00000000
,
00100000
00000000
01000000
00000000
,
00010000
00100000
00001000
00000000
,
00010000
00000000
00001000
00000000
,
00010000
00000010
00001000
00000000
,
00000100
00000000
00000010
00000000
,
00000001
00000100
00000010
00000000
,
00010000
00000000
00001000
00000000
,
00010000
01000000
10000000
00000000
,
01000000
00000000
00100000
00000000
,
00010000
01000000
00100000
00000000
,
00100000
00000000
01000000
00000000
,
00010000
01000000
00010000
01000000
00000000
00000000
00000000
00000000
,
00001000
00000000
00010000
00000000
,
00001000
00010000
00001000
00010000
00000000
00000000
00000000
00000000
,
00000100
00000000
00001000
00000000
,
00000100
00000010
00000100
00000010
00000000
00000000
00000000
00000000
,
00000001
00000100
00000002
00000000
00000000
00000000
00000003
00000000
,
00000100
00001000
00020000
00000000
00000000
00000000
00030000
00000000
,
01000000
10000000
02000000
00000000
00000000
00000000
03000000
00000000
,
10000000
00010000
20000000
00000000
00000000
00000000
30000000
00000000
,
00100000
01000000
00020000
00000000
00000000
00000000
00030000
00000000
,
01000000
00001000
00020000
00000000
00000000
00000000
00030000
00000000
,
00001000
00010000
00002000
00000000
00000000
00000000
00003000
00000000
,
00001000
00000100
00000002
00000000
00000000
00000000
00000003
00000000
,
00000100
00000100
00000020
00000000
00000000
00000000
00000030
00000000
,
00001000
00001000
00000200
00000000
00000000
00000000
00000300
00000000
,
00010000
00000000
00001000
00000000
,
00100000
00000000
00010000
00100000
00010000
00100000
00000000
00000000
,
00100000
00000000
01000000
00000000
,
10000000
00000000
00010000
00100000
01000000
00000000
00000000
00000000
,
10000000
00000000
01000000
00000000
,
00010000
00000000
00001000
00010000
00001000
00010000
00000000
00000000
,
00000100
00000000
00001000
00000000
,
00000001
00000000
00000010
00000100
00000010
00000000
00000000
00000000
,
00000001
00000000
00000001
00000000
,
00001000
00000000
00000001
00000000
,
00000100
00001000
00010000
00000000
,
00010000
00001000
01000000
00010000
00000000
00000000
00000000
00000000
,
00010000
00100000
01000000
00000000
,
10000000
01000000
01000000
00100000
00000000
00000000
00000000
00000000
,
00010000
00100000
00001000
00000000
,
00010000
00001000
00010000
00001000
00000000
00000000
00000000
00000000
,
00010000
00000100
00001000
00000000
00000010
00000000
00000000
00000000
,
00000100
00000001
00000001
00000000
00001000
00000000
00000000
00000000
,
00000100
00001000
00000001
00000000
00000001
00000000
00000000
00000000
,
00000100
00001000
00010000
00000000
00001000
00000000
00000000
00000000
,
00010000
01000000
10000000
00000000
00010000
00000000
00000000
00000000
,
01000000
00100000
01000000
00000000
00010000
00000000
00000000
00000000
,
01000000
00100000
10000000
00000000
00100000
00000000
00000000
00000000
,
00100000
00100000
01000000
00000000
00001000
00000000
00000000
00000000
,
00010000
00001000
00010000
00000000
00000100
00000000
00000000
00000000
,
00001000
00000001
00000010
00000000
00000001
00000000
00000000
00000000
,
00001000
00000100
00000010
00000000
00000001
00000000
00000000
00000000
,
00000100
00000001
00000010
00000000
00000100
00000000
00000000
00000000
,
00010000
00001000
00001000
00000000
00010000
00000000
00000000
00000000
,
00010000
01000000
10000000
00000000
00100000
00000000
00000000
00000000
,
01000000
00010000
00100000
00000000
01000000
00000000
00000000
00000000
,
10000000
00100000
10000000
00000000
01000000
00000000
00000000
00000000
,
00010000
00001000
00000100
00000000
00000001
00000000
00000000
00000000
,
00001000
00000001
00000001
00000000
00001000
00000000
00000000
00000000
,
00000001
00000000
00000100
00000000
,
00001000
00010000
00001000
01000000
,
00010000
01000000
01010000
00000000
;

//---------------dance-double - ----------------
#NOTES:
     dance-double:
     :
     Hard:
     7:
     :
00000000
00000000
00000000
00000000
,
00000000
00000000
00000000
00000000
,
00000000
00000000
00000000
00000000
,
00000100
00010000
00001000
00010000
00002000
00000000
00000000
00000000
,
00010000
00010000
00013000
00000000
,
00001000
00010000
01000000
10000000
02000000
00000000
00000000
00000000
,
10000000
10000000
13000000
00000000
,
00100000
00100000
01000000
00001000
00020000
00000000
00000000
00000000
,
00001000
00001000
00031000
00000000
,
00010000
00001000
00000010
00000001
00000200
00000000
00000000
00000000
,
00000010
00000010
00000310
00000000
,
00001000
00000100
00000010
00000001
00000200
00000000
00000000
00000000
,
00000001
00000010
00000310
00000000
,
00000100
00001000
00010000
01000000
20000000
00000000
00000000
00000000
,
30010000
01000000
00100000
01100000
00000000
00000000
10000000
00100000
,
01000000
00010000
00100000
01000000
00200000
00000000
00000000
00000000
,
00310000
00010000
01000000
01010000
00000000
00000000
00000000
00000000
,
00100000
01000000
00001000
00010000
00002000
00000000
00000000
00000000
,
00013000
00001000
00010000
00011000
00000000
00000000
00000000
00000000
,
00010000
00001000
00000100
00000000
00000001
00000000
00001000
00000000
,
00000001
00000010
00000001
00000000
00000010
00000000
00000010
00000000
,
00000100
00001000
00000001
00000000
00000100
00000000
00000100
00000000
,
00001000
00010000
01000000
00000000
10000000
00000000
01000000
00000000
,
10000000
00010000
10000000
00000000
10000000
00000000
00010000
00000000
,
10000000
00100000
10000000
00000000
01000000
00000000
01000000
00000000
,
00010000
00010000
00001000
00000000
00010000
00000000
00000010
00000000
,
00001000
00000010
00000100
00000000
00000001
00000000
00000100
00000000
,
00000100
00000100
00000010
00000000
00001000
00000000
00000001
00000000
,
00000010
00000100
00001000
00000000
00001000
00000100
00001100
00000000
,
00011000
00000000
01001000
00000000
,
01010000
00000000
01000000
00010000
01000000
01010000
00000000
00000000
,
10010000
00000000
00110000
00000000
,
01100000
00000000
10000000
00010000
10010000
00000000
00000000
00000000
,
00110000
00000000
00101000
00000000
,
00011000
00000000
00010000
00001000
00010000
00000100
00000000
00000000
,
00010100
00000000
00001100
00000000
,
00001001
00000000
00001000
00000001
00000010
00000000
00000000
00000000
,
00000100
00001000
00000001
00000100
00000101
00000000
00000000
00000000
,
00000010
00000000
00000001
00000000
00001000
00000010
00000100
00001000
,
00010000
01000000
00010000
00001000
00020000
00000000
00000000
00000000
,
01030000
10000000
01000000
11000000
00000000
00000000
00010000
00010000
,
01000000
00100000
10000000
00010000
02000000
00000000
00000000
00000000
,
03010000
01000000
00001000
01001000
00000000
00000000
00010000
00000000
,
00001000
00010000
00000100
00001000
00002000
00000000
00000000
00000000
,
00003001
00001000
00000001
00001001
00000000
00000000
00000000
00000000
,
00000100
00000100
00000020
00000000
00001000
00000000
00001030
00000000
,
00000010
00000010
00000200
00000000
00000001
00000000
00000301
00000000
,
00000100
00001000
00020000
00000000
00001000
00000000
00031000
00000000
,
00001000
00100000
00020000
00000000
01000000
00000000
01030000
00000000
,
00010000
00010000
00200000
00000000
01000000
00000000
01300000
00000000
,
10000000
10000000
02000000
00000000
00100000
00000000
03100000
00000000
,
00001000
00010000
00002000
00000000
00010000
00000000
00013000
00000000
,
00000010
00001000
00000200
00000000
00010000
00000000
00010300
00000000
,
00001000
00001000
00000020
00000000
00000100
00000000
00000130
00000000
,
00000001
00000001
00000200
00000000
00000010
00000000
00000310
00000000
,
00001000
00000100
00020000
00000000
00001000
00000000
00031000
00000000
,
00100000
00100000
02000000
00000000
10000000
00000000
13000000
00000000
,
10000000
10000000
00020000
00000000
01000000
00000000
01030000
00000000
,
00001000
00001000
00020000
00000000
00000100
00000000
00030100
00000000
,
00001000
00001000
00000020
00000000
00000100
00000000
00000130
00000000
,
00000001
00000001
00002000
00000000
00000010
00000000
00003010
00000000
,
00010000
00100000
20000000
00000000
01000000
00000000
31000000
00000000
,
10000000
00000000
00100000
00000000
10000000
01000000
11000000
00000000
,
00010000
00100000
00001000
00010000
00001000
00000000
01000000
00000000
,
00001000
00000000
00010000
00000000
00000100
00001000
00000100
00000010
,
00000001
00000001
00000010
00000100
00001100
00000000
00000000
00000000
;
