#TITLE:What I'd Say;
#ARTIST:Ray Charles;
#BANNER:What I'd Say.png;
#BACKGROUND:What I'd Say-bg.png;
#CDTITLE:./CDTITLES/DANCE DANCE REVOLUTION ULTRAMIX 3.png;
#MUSIC:What I'd Say.ogg;
#SAMPLESTART:47.741;
#SAMPLELENGTH:15;
#DISPLAYBPM:162;
#BPMS:0=184.55,4=176.471,12=180.905,20=181.36,36=179.104,52=172.249,60=173.913,68=180.451,84=180,100=171.838,108=173.077,116=180.225,132=180.678,148=177.122,164=176.039,180=177.34,192=174.757,196=176.687,228=175.61,240=178.218,244=162.162,248=168.224,256=167.442,260=178.218,264=177.34,268=179.104,272=178.218,276=178.66,292=177.778,308=175.61;

//---------------dance-single - ----------------
#NOTES:
     dance-single:
     :
     Beginner:
     1:
     :
0000
0000
0000
0000
,
0000
0000
0000
0000
,
0000
0000
0000
0000
,
0000
0000
0000
0000
,
0000
0000
0000
0000
,
0001
0000
0000
0000
,
0001
0000
0000
0000
,
1000
0000
0000
0000
,
1000
0000
0000
0000
,
0001
0000
0000
0000
,
0001
0000
0000
0000
,
1000
0000
0000
0000
,
1000
0000
0000
0000
,
0020
0000
0000
0030
,
0000
0000
0000
0000
,
0200
0000
0000
0300
,
0000
0000
0000
0000
,
0010
0000
0000
0000
,
0010
0000
0000
0000
,
0100
0000
0000
0000
,
0100
0000
0000
0000
,
0001
0000
0000
0000
,
0001
0000
0000
0000
,
1000
0000
0000
0000
,
1000
0000
0000
0000
,
0002
0000
0000
0003
,
0000
0000
0000
0000
,
2000
0000
0000
3000
,
0000
0000
0000
0000
,
0000
0001
0000
0001
,
0000
1000
0000
1000
,
0000
0010
0000
0010
,
0000
0100
0000
0100
,
0000
0001
0000
1000
,
0000
0001
0000
1000
,
0000
0001
0000
0000
,
0000
0000
0000
0000
,
0010
0000
0000
0000
,
0010
0000
0000
0000
,
0001
0000
0000
0000
,
0001
0000
0000
0000
,
1000
0000
0000
0000
,
1000
0000
0000
0000
,
0100
0000
0000
0000
,
0100
0000
0000
0000
,
1000
1000
0000
0000
,
0001
0001
0000
0000
,
0010
0010
0000
0000
,
0001
0000
0000
0000
,
1000
0000
0000
0000
,
1000
1000
0000
0000
,
0001
0000
0001
0000
,
0001
0000
0000
0000
,
1000
0000
1000
0000
,
1000
0000
0000
0000
,
0010
0000
0010
0000
,
0010
0000
0000
0000
,
0100
0000
0100
0000
,
0100
0000
0000
0000
,
0001
0000
0001
0000
,
0001
0000
0000
0000
,
0001
0000
0000
0000
,
1000
0000
0000
0000
,
0001
0000
0000
0000
,
1000
0000
0000
0000
,
0010
0000
0100
0000
,
0010
0000
0100
0000
,
1000
1000
1000
1000
,
1000
0000
0000
0000
,
0001
0001
0000
0000
,
1000
1000
0000
0000
,
0001
0001
0000
0000
,
1000
1000
0000
0000
,
0010
0000
0010
0000
,
0010
0000
0000
0000
,
0100
0000
0100
0000
,
0100
0000
0000
0000
,
0001
0000
0001
0000
,
1000
0000
1000
0000
,
0001
0000
0001
0000
,
1001
0000
0000
0000
;

//---------------dance-single - ----------------
#NOTES:
     dance-single:
     :
     Easy:
     2:
     :
0000
0000
0000
0000
,
0000
0000
0000
0000
,
0000
0000
0000
0000
,
0000
0000
0000
0000
,
0000
0000
0000
0000
,
1000
1000
0000
0000
,
0001
0000
0001
0000
,
0001
0001
0000
0000
,
1000
0000
1000
0000
,
0010
0010
0000
0000
,
0100
0000
0100
0000
,
0002
0000
0000
0003
,
0000
0000
0000
0000
,
1000
0000
1000
0000
,
0100
0000
0100
0000
,
1000
0000
1000
0000
,
0010
0000
0010
0000
,
1000
0000
0001
0000
,
0100
0000
0100
0000
,
0001
0000
1000
0000
,
0100
0000
0100
0000
,
0010
0000
0100
0000
,
1000
0000
1000
0000
,
0002
0000
0000
0003
,
0000
0000
0000
0000
,
1001
0001
0000
0000
,
0100
0000
0100
0000
,
1001
1000
0000
0000
,
0100
0000
0100
0000
,
0001
1000
0001
0000
,
0001
0000
0001
0000
,
0100
0001
0100
0000
,
0100
0000
0100
0000
,
0001
0001
1000
0000
,
0001
0000
0001
0000
,
2000
0000
0000
3000
,
0000
0000
0000
0000
,
1000
0100
1000
0000
,
1000
0000
0001
0000
,
0010
0001
0010
0000
,
0100
0000
0100
0000
,
1000
1000
0001
0000
,
1000
0000
1000
0000
,
0001
0001
1000
0000
,
0100
0000
0100
0000
,
1000
0001
1000
0000
,
0010
0000
0010
0000
,
0100
0010
0100
0000
,
0001
0000
0001
0000
,
1001
0000
0000
0000
,
0010
0000
0010
0000
,
1001
0000
0000
0000
,
0100
0000
0100
0000
,
0001
0100
0001
0000
,
1000
0000
1000
0000
,
0100
0010
0100
0000
,
0010
0000
0010
0000
,
1000
0010
1000
0000
,
0100
0000
0100
0000
,
1000
0001
1000
0000
,
0010
0000
0010
0000
,
2000
0000
0000
3000
,
0000
0000
0000
0000
,
0002
0000
0000
0003
,
0000
0000
0000
0000
,
1001
0000
0000
0000
,
1001
0000
0000
0000
,
0001
1000
0001
1000
,
0002
0000
0000
0003
,
1000
1000
1000
0000
,
0010
0000
0010
0000
,
1000
1000
1000
0000
,
0001
0000
0001
0000
,
1000
1000
1000
0000
,
0100
0000
0100
0000
,
1000
1000
1000
0000
,
0001
0000
0001
0000
,
1000
0000
0001
0000
,
0100
0000
0100
0000
,
0020
0000
0000
0000
,
0030
0000
0000
0000
;

//---------------dance-single - ----------------
#NOTES:
     dance-single:
     :
     Medium:
     5:
     :
0000
0000
0000
0000
,
0000
0000
0000
0000
,
0000
0000
0000
0000
,
0000
0000
0000
0000
,
0000
0000
0000
0000
,
1000
0100
1000
0100
,
1000
0100
1000
0100
,
0010
0001
0100
0001
,
0100
0001
0100
0001
,
1000
0010
1000
0010
,
1000
0010
1000
0010
,
0100
0001
0100
0001
,
0100
0001
0100
0001
,
0002
0000
0000
0000
,
0000
0000
0000
1003
,
2002
0000
0000
0000
,
0000
0000
0000
3003
,
1000
0001
1000
0001
,
0100
0010
0100
0000
,
0001
1000
0001
1000
,
0100
0010
0100
0000
,
1000
1000
0001
0001
,
1000
1000
1001
0000
,
0001
0001
1000
1000
,
0001
1000
1001
0000
,
2000
0000
0000
0000
,
0000
0000
0000
3001
,
2002
0000
0000
0000
,
0000
0000
0000
3003
,
1000
0100
1000
0100
,
0010
0001
0010
0001
,
0100
0001
0100
0001
,
0010
1000
0010
1000
,
0100
0010
0100
1000
,
0010
0100
0010
0001
,
0010
0100
0001
1000
,
0100
0010
0001
0000
,
1000
1000
0001
0001
,
1000
0001
1001
0000
,
0001
0001
1000
1000
,
0001
1000
1001
0000
,
0010
1000
0100
0100
,
0010
0001
0100
0100
,
0000
0001
1000
0100
,
1000
0001
0100
0000
,
0010
0100
0010
0100
,
0001
1000
0001
1000
,
0001
1000
1001
0010
,
0110
0000
0000
0000
,
0010
0100
0110
0000
,
0100
0010
0110
0000
,
0001
1000
1001
0000
,
1000
0001
1001
0000
,
0001
0010
0011
0000
,
1000
0100
1100
0000
,
0001
1000
1001
0000
,
1000
0001
1001
0000
,
0010
0010
0100
0100
,
0010
0100
0110
0000
,
0100
0100
0010
0010
,
0110
0000
0000
0000
,
2001
0000
0000
3000
,
0002
0000
0000
0003
,
2001
0000
0000
3000
,
0020
0000
0000
0030
,
2001
0000
3001
0000
,
1002
0000
1003
0000
,
0120
0130
2001
3001
,
2002
0000
3003
0000
,
1000
0100
1000
1100
,
1000
0001
0100
0001
,
0101
0001
1000
0100
,
1000
1100
1000
0010
,
0100
0010
0110
0100
,
0001
0100
0101
0000
,
0001
0100
0010
0100
,
0010
1000
1010
0000
,
0010
0000
1000
0000
,
0100
0010
0001
0010
,
0001
0000
0010
0000
,
1001
0000
0000
0000
;

//---------------dance-single - ----------------
#NOTES:
     dance-single:
     :
     Hard:
     7:
     :
0000
0000
0000
0000
,
0000
0000
0000
0000
,
0000
0000
0000
0000
,
0000
0000
0000
0000
,
0000
0000
0000
0000
,
0000
0000
0001
0000
1000
2000
0000
0010
,
3020
0000
0100
0230
0000
0001
0301
0000
,
1001
0000
0100
0000
0010
0020
0000
1000
,
2030
0000
0001
3002
0000
1000
1003
0000
,
0110
0000
0000
0000
0100
0000
0000
0000
0001
0000
0001
0000
0000
0000
0000
0001
,
1000
0000
0000
1000
0001
0000
0000
0001
1000
0000
0000
1000
0001
0000
0000
0000
,
0101
0000
1000
0000
0001
0001
0000
1000
,
0010
0100
0001
0010
0200
0000
1300
0000
,
0000
0001
0000
0000
1000
1000
0001
0001
,
0100
0100
0000
0001
0000
1000
0001
0000
,
1001
0000
0010
0010
0100
0100
0001
0001
,
0100
0100
0000
0010
0000
1000
0000
0010
,
0000
0000
0100
0000
0001
1000
0000
1000
,
0001
0000
0001
0100
0000
0100
0001
0000
,
1100
0000
0010
0000
0100
1000
0000
1000
,
0100
0000
0100
0010
0000
0010
0100
0000
,
0110
0000
0000
0000
0001
0000
0000
0000
1000
0000
1000
0000
0000
0000
0000
1000
,
0001
0000
0000
0001
1000
0000
0000
1000
0001
0000
0000
0001
1000
0000
0000
0000
,
0101
0000
0010
0000
1000
2000
0000
0100
,
3200
0000
0010
0310
0000
0001
0002
0000
,
0000
0000
1003
0000
0001
0001
0100
0100
,
0001
0001
0000
1000
0000
0001
1000
0000
,
1010
0000
0010
0010
0100
0100
0001
0001
,
0100
0100
0000
0001
0000
1000
0000
0001
,
1000
1001
0001
0101
,
0010
1010
0100
0110
,
0001
0100
0010
1000
,
0001
1100
0010
0101
,
1000
0101
1000
0110
,
1000
0001
1000
0100
,
0010
0001
0010
0100
,
2200
0000
0000
0000
3300
0000
0000
1001
,
0000
0001
0100
0001
0100
0001
0000
0001
,
1000
0001
1000
0001
0000
0001
0000
0011
,
0000
0010
0001
0010
0001
0010
0000
0010
,
0100
0010
0100
0010
0000
0010
0000
1100
,
0000
1000
0001
1000
0001
1000
0000
1000
,
0100
1000
0100
1000
0000
1000
0000
1010
,
0000
0010
1000
0010
1000
0010
0000
0010
,
0100
0010
0100
0010
0000
0010
0000
0110
,
0000
0100
0001
0100
0001
0100
0000
0100
,
0001
0100
0001
0100
0000
0100
0000
0101
,
0000
0001
0010
0001
0010
0001
0000
0001
,
1000
0001
1000
0001
0000
1001
0000
0000
,
1000
0010
0100
0001
0001
0000
0001
0100
,
0001
0000
0001
1000
0001
0000
0101
0000
,
0010
1000
0100
0010
0010
0000
0010
0001
,
0010
0000
0010
0100
0010
0000
0011
0000
,
0100
1000
0010
0100
0100
0000
0100
0001
,
0100
0000
0100
0000
0100
0010
1000
0001
,
0100
0010
1000
0100
0010
0000
0001
1000
,
0001
0000
0001
1000
0001
0000
1001
0000
,
1000
0010
1000
0000
0001
0100
0001
0000
,
1000
0001
1000
0000
0100
1000
0100
0010
,
0001
0010
0001
0000
1000
0001
0100
0000
,
0001
0100
0100
0000
0010
1000
0100
0000
,
2000
0000
0000
0000
0000
0000
0000
0000
3000
0000
0001
0100
0000
0000
0000
0002
,
0000
0000
0000
0000
0000
0000
0000
0000
0003
0000
0000
1000
0100
0000
0000
0000
,
0020
0000
0000
0030
,
0002
0000
0000
0003
,
2000
3010
0200
0310
,
2000
3100
0020
0031
,
0011
1001
0101
1010
,
1000
0010
0100
0010
1000
0100
0010
0000
,
0001
0100
0010
1000
0010
1000
0010
0100
,
0001
0000
1000
0100
1000
0100
1000
0000
,
0001
0010
0100
1000
0010
1000
0001
0100
,
0001
0000
1000
0010
1000
0010
1000
0000
,
0100
0001
1000
0100
1000
0010
0100
0001
,
0100
0000
0010
1000
0010
1000
0010
0000
,
0100
0001
0010
0000
0100
1000
0010
0100
,
0010
0000
0100
0001
0100
0001
0100
0000
,
0001
0100
1000
0100
0001
0010
0001
0100
,
0010
0000
1000
0100
1000
0100
1000
0000
,
0001
0100
0010
1000
0100
0010
0001
0100
,
0110
0000
0000
0000
;

//---------------dance-double - ----------------
#NOTES:
     dance-double:
     :
     Beginner:
     1:
     :
00000000
00000000
00000000
00000000
,
00000000
00000000
00000000
00000000
,
00000000
00000000
00000000
00000000
,
00000000
00000000
00000000
00000000
,
00000000
00000000
00000000
00000000
,
10000000
00000000
00000000
00000000
,
10000000
00000000
00000000
00000000
,
00010000
00000000
00000000
00000000
,
00010000
00000000
00000000
00000000
,
10000000
00000000
00000000
00000000
,
10000000
00000000
00000000
00000000
,
01000000
00000000
00000000
00000000
,
01000000
00000000
00000000
00000000
,
00020000
00000000
00000000
00030000
,
00000000
00000000
00000000
00000000
,
00002000
00000000
00000000
00003000
,
00000000
00000000
00000000
00000000
,
00000100
00000000
00000000
00000000
,
00000100
00000000
00000000
00000000
,
00000010
00000000
00000000
00000000
,
00000010
00000000
00000000
00000000
,
00000001
00000000
00000000
00000000
,
00000001
00000000
00000000
00000000
,
00001000
00000000
00000000
00000000
,
00001000
00000000
00000000
00000000
,
00000020
00000000
00000000
00000030
,
00000000
00000000
00000000
00000000
,
00000200
00000000
00000000
00000300
,
00000000
00000000
00000000
00000000
,
00000000
00000001
00000000
00000001
,
00000000
00001000
00000000
00001000
,
00000000
00000001
00000000
00000001
,
00000000
00000100
00000000
00000100
,
00000000
00001000
00000000
00010000
,
00000000
00001000
00000000
00010000
,
00000000
00001000
00000000
00000000
,
00000000
00000000
00000000
00000000
,
00100000
00000000
00000000
00000000
,
00100000
00000000
00000000
00000000
,
00010000
00000000
00000000
00000000
,
00010000
00000000
00000000
00000000
,
10000000
00000000
00000000
00000000
,
10000000
00000000
00000000
00000000
,
01000000
00000000
00000000
00000000
,
01000000
00000000
00000000
00000000
,
00010000
00010000
00000000
00000000
,
00001000
00001000
00000000
00000000
,
00010000
00010000
00000000
00000000
,
00000010
00000000
00000000
00000000
,
00000100
00000000
00000000
00000000
,
00000001
00000001
00000000
00000000
,
00001000
00000000
00001000
00000000
,
00001000
00000000
00000000
00000000
,
00000001
00000000
00000001
00000000
,
00000001
00000000
00000000
00000000
,
00000100
00000000
00000100
00000000
,
00000100
00000000
00000000
00000000
,
00000010
00000000
00000010
00000000
,
00000010
00000000
00000000
00000000
,
00001000
00000000
00001000
00000000
,
00001000
00000000
00000000
00000000
,
00000001
00000000
00000000
00000000
,
00000100
00000000
00000000
00000000
,
00001000
00000000
00000000
00000000
,
00010000
00000000
00000000
00000000
,
00010000
00000000
00001000
00000000
,
00010000
00000000
00001000
00000000
,
00100000
00100000
00100000
00100000
,
00100000
00000000
00000000
00000000
,
00010000
00010000
00000000
00000000
,
10000000
10000000
00000000
00000000
,
00100000
00100000
00000000
00000000
,
10000000
10000000
00000000
00000000
,
01000000
00000000
01000000
00000000
,
01000000
00000000
00000000
00000000
,
00010000
00000000
00010000
00000000
,
00010000
00000000
00000000
00000000
,
00001000
00000000
00001000
00000000
,
00010000
00000000
00010000
00000000
,
00001000
00000000
00001000
00000000
,
00011000
00000000
00000000
00000000
;

//---------------dance-double - ----------------
#NOTES:
     dance-double:
     :
     Easy:
     3:
     :
00000000
00000000
00000000
00000000
,
00000000
00000000
00000000
00000000
,
00000000
00000000
00000000
00000000
,
00000000
00000000
00000000
00000000
,
00000000
00000000
00000000
00000000
,
00001000
00001000
00000000
00000000
,
00010000
00000000
00010000
00000000
,
00000100
00000100
00000000
00000000
,
00010000
00000000
00010000
00000000
,
00001000
00001000
00000000
00000000
,
01000000
00000000
01000000
00000000
,
00020000
00000000
00000000
00030000
,
00000000
00000000
00000000
00000000
,
10000000
00000000
10000000
00000000
,
01000000
00000000
01000000
00000000
,
00100000
00000000
00100000
00000000
,
01000000
00000000
01000000
00000000
,
10000000
00000000
00010000
00000000
,
01000000
00000000
01000000
00000000
,
00001000
00000000
00010000
00000000
,
00000100
00000000
00000100
00000000
,
00000010
00000000
00000100
00000000
,
00001000
00000000
00001000
00000000
,
00000002
00000000
00000000
00000003
,
00000000
00000000
00000000
00000000
,
00001001
00000001
00000000
00000000
,
00000100
00000000
00000100
00000000
,
00001001
00000001
00000000
00000000
,
00001000
00000000
00001000
00000000
,
00000100
00010000
00000100
00000000
,
00010000
00000000
00010000
00000000
,
00001000
00010000
00001000
00000000
,
00100000
00000000
00100000
00000000
,
00010000
00010000
10000000
00000000
,
00010000
00000000
00010000
00000000
,
20000000
00000000
00000000
30000000
,
00000000
00000000
00000000
00000000
,
00100000
01000000
00100000
00000000
,
01000000
00000000
00010000
00000000
,
00100000
00010000
00100000
00000000
,
00001000
00000000
00010000
00000000
,
00000100
00000100
00001000
00000000
,
00000001
00000000
00000001
00000000
,
00001000
00001000
00000100
00000000
,
00000010
00000000
00000010
00000000
,
00000001
00000001
00000010
00000000
,
00000100
00000000
00000100
00000000
,
00010000
00010000
00001000
00000000
,
00010000
00000000
00010000
00000000
,
00011000
00000000
00000000
00000000
,
00010000
00000000
00010000
00000000
,
00011000
00000000
00000000
00000000
,
00001000
00000000
00001000
00000000
,
01000000
00010000
01000000
00000000
,
00010000
00000000
00010000
00000000
,
10000000
01000000
10000000
00000000
,
00010000
00000000
00010000
00000000
,
10000000
00100000
10000000
00000000
,
01000000
00000000
01000000
00000000
,
00010000
10000000
00010000
00000000
,
00100000
00000000
00100000
00000000
,
00002000
00000000
00000000
00003000
,
00000000
00000000
00000000
00000000
,
00020000
00000000
00000000
00030000
,
00000000
00000000
00000000
00000000
,
00011000
00000000
00000000
00000000
,
00011000
00000000
00000000
00000000
,
00010000
00001000
00010000
00001000
,
00020000
00000000
00000000
00030000
,
00000100
00000100
00000100
00000000
,
00010000
00000000
00010000
00000000
,
00001000
00001000
00001000
00000000
,
01000000
00000000
01000000
00000000
,
00010000
00010000
00010000
00000000
,
01000000
00000000
01000000
00000000
,
00100000
00100000
00100000
00000000
,
10000000
00000000
10000000
00000000
,
00010000
00000000
10000000
00000000
,
01000000
00000000
01000000
00000000
,
00200000
00000000
00000000
00000000
,
00300000
00000000
00000000
00000000
;

//---------------dance-double - ----------------
#NOTES:
     dance-double:
     :
     Medium:
     5:
     :
00000000
00000000
00000000
00000000
,
00000000
00000000
00000000
00000000
,
00000000
00000000
00000000
00000000
,
00000000
00000000
00000000
00000000
,
00000000
00000000
00000000
00000000
,
01000000
00100000
01000000
00100000
,
01000000
00100000
01000000
00100000
,
00001000
00010000
00001000
00010000
,
00001000
00010000
00001000
00010000
,
00000010
00000100
00000010
00000100
,
00000010
00000100
00000010
00000100
,
00000001
00001000
00000001
00001000
,
00000001
00001000
00000001
00001000
,
00002000
00000000
00000000
00000000
,
00000000
00000000
00000000
00003001
,
00002002
00000000
00000000
00000000
,
00000000
00000000
00000000
00003003
,
00001000
00000001
00001000
00000001
,
00000100
00001000
00010000
00000000
,
00010000
00001000
00010000
00001000
,
00010000
01000000
10000000
00000000
,
00010000
00010000
10000000
10000000
,
00010000
00010000
10010000
00000000
,
00100000
00100000
01000000
01000000
,
00100000
01000000
01100000
00000000
,
00020000
00000000
00000000
00000000
,
00000000
00000000
00000000
10030000
,
20020000
00000000
00000000
00000000
,
00000000
00000000
00000000
30030000
,
00010000
10000000
00010000
10000000
,
01000000
00010000
00001000
00000000
,
00001000
00010000
00001000
00010000
,
00001000
00000100
00000001
00000000
,
00001000
00001000
00000001
00000001
,
00001000
00001000
00001001
00000000
,
00000100
00000100
00000010
00000010
,
00000100
00000010
00000110
00000000
,
00000001
00000001
00001000
00001000
,
00000001
00001000
00001001
00000000
,
00000001
00000001
00000100
00000100
,
00001000
00010000
00011000
00000000
,
00001000
00010000
01000000
01000000
,
00100000
00010000
10000000
10000000
,
00000000
10000000
00010000
01000000
,
00010000
10000000
01000000
00000000
,
00100000
01000000
00100000
01000000
,
00010000
00001000
00010000
00001000
,
00000100
00000001
00001001
00001000
,
00001001
00000000
00000000
00000000
,
00000001
00001001
00001000
00000000
,
00001000
00011000
00010000
00000000
,
00010000
10010000
10000000
00000000
,
00100000
01100000
01000000
00000000
,
01000000
01100000
00100000
00000000
,
10000000
01000000
11000000
00000000
,
00010000
00001000
00011000
00000000
,
00000100
00000001
00000101
00000000
,
00001000
00001000
00000001
00000001
,
00000100
00001000
00011000
00000000
,
00010000
00010000
01000000
01000000
,
01100000
00000000
00000000
00000000
,
20100000
00000000
00000000
30000000
,
02000000
00000000
00000000
03000000
,
01200000
00000000
00000000
00300000
,
00002000
00000000
00000000
00003000
,
00021000
00000000
00030010
00000000
,
00000102
00000000
00001003
00000000
,
00021000
00031000
00012000
00013000
,
00022000
00000000
00033000
00000000
,
00100000
01000000
10000000
11000000
,
01000000
00010000
00001000
00000100
,
00000110
00000001
00001000
00000100
,
00000010
00000011
00000001
00000100
,
00001000
00010000
00011000
00001000
,
00100000
00010000
01010000
00000000
,
10000000
00100000
10000000
00100000
,
10000000
01000000
11000000
00000000
,
00010000
00000000
00001000
00000000
,
00000100
00000001
00000010
00000001
,
00001000
00000000
00000001
00000000
,
00001001
00000000
00000000
00000000
;

//---------------dance-double - ----------------
#NOTES:
     dance-double:
     :
     Hard:
     8:
     :
00000000
00000000
00000000
00000000
,
00000000
00000000
00000000
00000000
,
00000000
00000000
00000000
00000000
,
00000000
00000000
00000000
00000000
,
00000000
00000000
00000000
00000000
,
00010000
00000000
00001000
00000000
00000100
00001000
00010000
00000000
,
01000000
10000000
01000000
00010000
00000000
01000000
10000000
00100000
,
00010000
00000000
00001000
00000000
00010000
00001000
00000000
00000100
,
00000001
00000100
00001000
00000000
00000100
00000010
00000000
00000100
,
00000001
00000000
00000000
00000000
00000010
00000000
00000000
00000000
00001000
00000000
00010000
00000000
00000000
00000000
00001000
00010000
,
00000000
00001000
01000000
00001000
00100000
00001000
00010000
00010000
,
00000000
00001000
00000000
00100000
,
00010000
01000000
00010000
10000000
00000000
00000000
00100000
00010000
,
10000000
01000000
00000000
00000000
01000000
00010000
00001000
01000000
,
00010000
00000000
00100000
00000000
00000000
00000000
00010000
00000000
00000000
00000000
00000000
00000000
00010000
00001000
00000000
00000000
,
00011000
00000000
00001000
00010000
00000010
00010000
00000100
00001000
,
00000010
00001000
00000100
00000010
00000000
00001000
00000000
00010000
,
00001000
00000000
00010000
00000000
00001000
00100000
01000000
00000000
,
00010000
01000000
10000000
01000000
00000000
00100000
01000000
10000000
,
00010000
00000000
01000000
00000000
00001000
00010000
00000000
00001000
,
00000100
00000001
00000100
00000000
00000010
00001000
00000000
00000001
,
00000010
00000000
00000000
00000000
00001000
00000000
00000000
00000000
00000010
00000000
00000100
00000000
00000000
00000000
00010000
00001000
,
00000000
00100000
00001000
00010000
00000100
00010000
00001000
00001000
,
00000000
00000000
00010000
00000000
00100000
10000000
00000000
00010000
,
00100000
01000000
01000000
01000000
00000000
00000000
01100000
00000000
,
10010000
00000000
10000000
01000000
00010000
00000000
01000000
00100000
,
00001000
00000000
00010000
00000000
00000000
00000000
00000100
00000000
00000000
00000000
00000000
00000000
00010000
00001000
00000000
00000000
,
00011000
00000000
00000000
00000000
00000100
00000000
00001000
00000000
00000010
00000000
00000001
00000000
00000010
00000000
00000000
00001000
,
00000000
00000001
00000000
00001000
00000000
00000001
00000000
00000000
,
00000010
00000000
00000100
00000000
00010000
00000100
00010000
00000000
,
00000010
00001000
00000010
00000100
00000000
00001000
00010000
00001000
,
00100000
00000000
01000000
00000000
00010000
01000000
00000000
10000000
,
00100000
01000000
00001000
00000000
00100000
00010000
00000000
01000000
,
00001000
00000000
00010000
00000000
00000100
00001000
00000000
00000002
,
00000000
00000000
00000103
00000000
00000100
00000010
00000000
00000020
,
00000000
00000000
00001030
00000000
00001000
00000002
00000000
00000000
,
00000013
00000000
00001000
00010000
00001000
00010000
00001000
00000000
,
00010000
00000000
00001000
00000100
00000010
00010000
00001000
00000100
,
00000010
00010000
00001000
00000000
00100000
00001000
00010000
00000000
,
00001000
00000000
00010000
01000000
00100000
00001000
00010000
01000000
,
00100000
00001000
00010000
00000000
00000010
00010000
00001000
00000000
,
00010000
00000000
00001000
00000010
00000100
00010000
00001000
00000010
,
00000100
00010000
00001000
00000000
01000000
00001000
00010000
00000000
,
00001000
00000000
00010000
00100000
01000000
00001000
00010000
00100000
,
01000000
00001000
00010000
00000000
00000100
00010000
00001000
00000000
,
00010000
00000000
00000100
00001000
00000100
00000010
00000000
00000001
,
00000100
00000000
00000010
00000100
00001000
00010000
00000000
00010000
,
00001000
00000000
01000000
00010000
01000000
10000000
00000000
01000000
,
00100000
10000000
00000000
01000000
00010000
00001000
00010000
00001000
,
00001000
00100000
01000000
10000000
10000000
00000000
00100000
01000000
,
00100000
00000000
10000000
01000000
00010000
00000000
00011000
00000000
,
00001000
00000100
00000001
00000010
00000010
00000000
00000001
00001000
,
00000001
00000000
00000001
00000100
00001000
00000000
00001100
00000000
,
00000100
00000010
00010000
00001000
00001000
00000000
00100000
00001000
,
00100000
00000000
00010000
00000000
01000000
00010000
10000000
00010000
,
00100000
01000000
10000000
01000000
00010000
00000000
01000000
00100000
,
00010000
00000000
00100000
00001000
00100000
00000000
00011000
00000000
,
00001000
00010000
00000010
00000000
00001000
00000001
00000010
00000000
,
00000100
00000010
00001000
00000000
00000010
00000001
00000100
00001000
,
00010000
00100000
10000000
00000000
00010000
00100000
01000000
00000000
,
10010000
00000000
00000000
00000000
,
22000000
00000000
00000000
30000000
,
00020000
00000000
00000000
03030000
,
00022000
00000000
00000000
00030000
,
00000200
00000000
00000000
00003300
,
00000102
00001000
00000013
00000001
,
00002100
00000001
00003010
00001000
,
00001100
00010100
00101000
00110000
,
00010000
10000000
00100000
01000000
00010000
00100000
10000000
00000000
,
00100000
00001000
00010000
00001000
01000000
00001000
00010000
00000010
,
00000100
00000000
00001000
00000100
00000001
00000100
00000010
00000000
,
00000001
00000100
00001000
00000100
00000010
00010000
00001000
00100000
,
00010000
00000000
10000000
00010000
01000000
00001000
00010000
00000000
,
00001000
00010000
00000100
00001000
00000001
00000010
00000100
00001000
,
00000100
00000000
00000001
00000100
00001000
00000100
00000001
00000000
,
00001000
00000100
00000010
00000000
00000100
00010000
00001000
00010000
,
00001000
00000000
01000000
00010000
00100000
00010000
01000000
00000000
,
00010000
01000000
10000000
01000000
00010000
00100000
00010000
10000000
,
01000000
00000000
00010000
00001000
00000100
00000001
00000100
00000000
,
00001000
00010000
00100000
10000000
01000000
00010000
00001000
00010000
,
00011000
00000000
00000000
00000000
;
