#TITLE:Walk This Way;
#ARTIST:Run D.M.C.;
#BANNER:Walk This Way.png;
#BACKGROUND:Walk This Way-bg.png;
#CDTITLE:./CDTITLES/DANCE DANCE REVOLUTION ULTRAMIX 3.png;
#MUSIC:Walk This Way.ogg;
#SAMPLESTART:61.316;
#SAMPLELENGTH:15;
#DISPLAYBPM:105;
#BPMS:0=104.532,4=105.727,36=105.649,52=105.727,84=105.649,100=106.038,116=105.495,132=105.572,148=105.727,164=105.649,180=105.882;

//---------------dance-single - ----------------
#NOTES:
     dance-single:
     :
     Beginner:
     1:
     :
0000
0000
0000
0000
,
0000
0000
0000
0000
,
0000
0000
0000
0000
,
0000
0000
0000
0000
,
0000
0000
0000
0000
,
1001
0000
0000
0000
,
0110
0000
0000
0000
,
1000
0000
1000
0000
,
0100
0000
0100
0000
,
0001
0000
0001
0000
,
0100
0000
0100
0000
,
0010
0000
0010
0000
,
0001
0000
0001
0000
,
1000
0000
1000
0000
,
0100
0000
0100
0000
,
1001
0000
0000
0000
,
1001
0000
0000
0000
,
0110
0000
0000
0000
,
0110
0000
0000
0000
,
0010
0000
0010
0000
,
1000
0000
1000
0000
,
0100
0000
0100
0000
,
0001
0000
0001
0000
,
0100
0000
0100
0000
,
1000
0000
1000
0000
,
0001
0000
0001
0000
,
1000
0000
1000
0000
,
1001
0000
0000
0000
,
0110
0000
0000
0000
,
1001
0000
0000
0000
,
0110
0000
0000
0000
,
1001
0000
0000
0000
,
0110
0000
0000
0000
,
1001
0000
0000
0000
,
0110
0000
0000
0000
,
1001
0000
0000
0000
,
0100
0000
0100
0000
,
1000
0000
1000
0000
,
0010
0000
0010
0000
,
0001
0000
0001
0000
,
1000
0000
1000
0000
,
0100
0000
0100
0000
,
0010
0000
0010
0000
,
0001
0000
0001
0000
,
0010
0000
0010
0010
,
0010
0010
0000
0000
,
0000
0000
0000
0000
,
1001
0000
0000
0000
;

//---------------dance-single - ----------------
#NOTES:
     dance-single:
     :
     Easy:
     3:
     :
0000
0000
0000
0000
,
0000
0000
0000
0000
,
0000
0000
0000
0000
,
0001
1000
0001
0000
,
1000
1000
0001
0001
,
0010
0100
0010
0000
,
0100
0100
0010
0010
,
0001
0100
1000
0100
,
0001
1000
0100
0000
,
1000
0100
0001
0100
,
1000
0001
0100
0000
,
0002
0003
2000
3000
,
0001
1000
0001
0000
,
0010
0010
0100
0100
,
0001
0010
1000
0000
,
0101
0001
0101
0000
,
1100
1000
1100
0010
,
0011
0001
0011
0000
,
1010
1000
1010
0010
,
0100
0001
1000
0100
,
1000
0001
0010
0000
,
0100
1000
0001
0100
,
0001
1000
0010
0000
,
1000
0010
1000
0001
,
0010
0100
1000
0000
,
0001
0010
0001
1000
,
0010
1000
0001
0100
,
0020
0030
0200
0300
,
0010
1000
0100
0001
,
0200
0300
0020
0030
,
0100
1000
0010
0001
,
0020
0030
0200
0300
,
0010
1000
0001
0100
,
0002
0003
2000
3000
,
0100
0010
0001
1000
,
0100
0100
0010
0010
,
0001
0001
0001
0001
,
1000
1000
0010
0010
,
0100
0100
0100
0100
,
0101
0001
0011
0000
,
1100
1000
1010
0010
,
0110
0100
0110
0000
,
1001
1000
1001
0001
,
2000
0000
0000
3000
,
0001
1000
0001
1000
,
0020
0000
0000
0030
,
0100
0010
0100
0010
,
0110
0000
0000
0000
;

//---------------dance-single - ----------------
#NOTES:
     dance-single:
     :
     Medium:
     6:
     :
0000
0000
0000
0000
,
0000
0000
0000
0000
,
0000
0000
0000
0000
,
0010
0000
0001
0000
1000
0001
0000
0000
,
1000
0100
0010
0100
,
1000
0000
0001
0000
1000
0001
0000
0000
,
0100
0000
0001
0000
0010
0001
0100
0000
,
0010
0100
0001
0000
1000
0001
1000
0000
,
0100
1000
0002
0003
,
0010
1000
0100
0000
0010
0100
1000
0000
,
0001
1000
0001
0000
2000
0000
3000
0000
,
0001
0000
1000
0000
0010
1000
0100
0000
,
0010
0001
0100
0000
0002
0000
0003
0000
,
0100
0001
0010
0000
0100
1000
0010
0000
,
0100
0001
1000
0000
0001
0000
1001
0000
,
0010
0000
1000
0000
0001
1000
0000
0000
,
0001
0000
0100
0000
0010
0100
0001
0000
,
0010
0000
0001
0000
1000
0001
0000
0000
,
1000
0000
0100
0000
0010
0100
1000
0000
,
0001
0100
0001
0000
1000
0100
1000
0000
,
0010
1000
0100
0000
2000
0000
3000
0000
,
0010
1000
0010
0000
0100
0001
0100
0000
,
0001
0010
0100
0000
0020
0000
0030
0000
,
0001
1000
0010
0000
1000
0001
0100
0000
,
0001
0010
0100
0000
2000
0000
3000
0000
,
0100
0010
0001
0000
0100
0010
1000
0000
,
0100
0010
0100
0000
0020
0000
0030
0000
,
0011
0000
0000
0001
0000
0000
0101
0000
0000
0000
0000
0000
0001
0000
0000
0000
,
0010
0100
1000
0010
,
1010
0000
0000
1000
0000
0000
1100
0000
0000
0000
0000
0000
0000
0000
0000
0000
,
1000
0010
0100
0001
,
1001
0000
0000
0100
0000
0000
0110
0000
0000
0000
0000
0000
0001
0000
0000
0000
,
0100
1000
0100
0001
,
1001
0000
0000
0010
0000
0000
0110
0000
0000
0000
0000
0000
1000
0000
0000
0000
,
0100
0001
0100
1000
,
0001
0000
0010
0100
0000
1000
0010
1000
,
0100
0000
1000
0001
0000
0000
0100
0000
,
0010
0000
0100
0001
0010
0000
0001
1000
,
0010
0000
0100
0001
1000
0000
0100
0000
,
0010
0000
0001
0000
1000
0001
0000
0000
,
1000
0000
0100
0000
0010
0100
1000
0000
,
0010
0000
1000
0000
0001
1000
0000
0000
,
0001
0000
0100
0000
0010
0100
0001
0000
,
2000
3000
0002
0003
,
1000
0000
0001
0000
0010
0001
0100
0010
,
0200
0300
0020
0030
,
1000
0000
0001
0000
1000
0001
1000
0000
,
1001
0000
0000
0000
;

//---------------dance-single - ----------------
#NOTES:
     dance-single:
     :
     Hard:
     7:
     :
0000
0000
0000
0000
,
0000
0000
0000
0000
,
0000
0000
0000
0000
,
0001
1000
0001
1000
0000
0001
0100
0001
0100
0000
0001
0000
0000
0000
0000
0000
,
1000
0001
1000
0001
0000
1000
0100
1000
0100
0000
1000
0000
0010
0000
0000
0000
,
0001
1000
0001
1000
0000
0001
0010
0001
0010
0000
0001
0000
0000
0000
0000
0000
,
1000
0001
1000
0001
0000
1000
0010
1000
0010
0000
1000
0000
0001
0000
0100
0000
,
0010
1000
0001
1000
0001
0100
0010
1000
,
0100
0000
0010
0000
0001
0000
1000
0200
0000
0000
0300
0000
0000
0000
1000
0000
,
0100
0001
0100
1000
0100
0001
0100
1000
,
0100
0000
0001
0000
0100
0000
1000
0020
0000
0000
0030
0000
0000
0000
0010
0000
,
1000
0010
0001
0010
1000
0010
0001
0010
,
1000
0000
0010
0000
0001
0000
0010
0200
0000
0000
0300
0000
0000
0000
1000
0000
,
0010
1000
0100
1000
0010
1000
0100
1000
,
0010
1000
0100
1000
0010
1000
0100
0000
,
0100
1000
0100
1000
0000
0001
1000
0001
1000
0000
0100
0000
0000
0000
0000
0000
,
0010
0100
0010
0100
0000
0010
0001
0010
0001
0000
1000
0000
0001
0000
0000
0000
,
0001
0100
0001
0100
0000
0010
0100
0010
0100
0000
1000
0000
0000
0000
0000
0000
,
0100
0010
0100
0010
0000
1000
0001
1000
0001
0000
0100
0000
0000
0000
0000
0000
,
0010
0001
0010
0100
0010
0001
0010
0100
,
0010
0000
0001
0000
0010
0000
0100
0020
0000
0000
0030
0000
0000
0000
0010
0000
,
1000
0001
1000
0010
1000
0001
1000
0010
,
1000
0000
0001
0000
1000
0000
0010
0200
0000
0000
0300
0000
0000
0000
0100
0000
,
0010
0100
1000
0100
0010
0100
1000
0100
,
0010
0000
0100
0000
1000
0000
0100
0020
0000
0000
0030
0000
0000
0000
0001
0000
,
0100
0001
0010
0001
0100
0001
0010
0001
,
0100
0000
0001
0000
0010
0000
0001
0100
0000
0000
0010
0100
0000
0010
0100
0000
,
0110
0000
0000
1001
0000
0000
0110
0000
0000
0000
0100
0000
0010
0000
0000
0000
,
1010
0000
0000
1100
0000
0000
0110
0000
0000
0000
1000
0000
0001
0000
0000
0000
,
0011
0000
0000
1001
0000
0000
0101
0000
0000
0000
0001
0000
1000
0000
0000
0000
,
1010
0000
0000
0110
0000
0000
0101
0000
0000
0000
0100
0000
0010
0000
0000
0000
,
1010
0000
0000
0101
0000
0000
0110
0000
0000
0000
0100
0000
0010
0000
0000
0000
,
0110
0000
0000
1010
0000
0000
1001
0000
0000
0000
1000
0000
0001
0000
0000
0000
,
0101
0000
0000
1001
0000
0000
1100
0000
0000
0000
0100
0000
0010
0000
0000
0000
,
0110
0000
0000
0101
0000
0000
1100
0000
0000
0000
1000
0000
0010
0100
0010
0000
,
0200
0000
0000
0300
,
0001
1000
0001
0100
0001
1000
0001
0100
,
0001
1000
0001
0100
0001
1000
0001
0100
,
0001
1000
0001
0100
0001
1000
0100
0000
,
0010
1000
0010
1000
0000
0001
1000
0001
1000
0000
0100
0000
0010
0000
0000
0000
,
0001
0010
0001
0010
0000
0001
1000
0001
1000
0000
0010
0000
0100
0000
0000
0000
,
0001
1000
0001
1000
0000
0010
1000
0010
1000
0000
0000
0000
0100
0000
0000
0000
,
0100
0010
0100
0010
0000
0001
1000
0001
1000
0000
0001
0000
0100
0000
0000
0000
,
1000
0100
0010
0001
0010
0100
1000
0001
,
0100
1000
0100
0001
0100
1000
0100
0001
,
0100
1000
0200
0000
0000
0000
0000
0000
,
0000
0000
0000
0300
,
1001
0000
0000
0000
;

//---------------dance-double - ----------------
#NOTES:
     dance-double:
     :
     Beginner:
     1:
     :
00000000
00000000
00000000
00000000
,
00000000
00000000
00000000
00000000
,
00000000
00000000
00000000
00000000
,
00001000
00000000
00000000
00000000
,
00010000
00000000
00010000
00000000
,
01000000
00000000
00000000
00000000
,
10000000
00000000
10000000
00000000
,
10000000
00000000
00000000
00000000
,
01000000
00000000
00000000
00000000
,
00010000
00000000
00010000
00000000
,
00001000
00000000
00000000
00000000
,
00000100
00000000
00000100
00000000
,
00000001
00000000
00000000
00000000
,
00000010
00000000
00000010
00000000
,
00001000
00000000
00000000
00000000
,
00000001
00000001
00000001
00000000
,
00000100
00000100
00000100
00000000
,
00001000
00001000
00001000
00000000
,
00010000
00010000
00010000
00000000
,
01000000
00000000
00000000
00000000
,
10000000
00000000
00000000
00000000
,
00100000
00000000
00100000
00000000
,
10000000
00000000
00000000
00000000
,
10000000
00000000
10000000
00000000
,
00010000
00000000
00000000
00000000
,
10000000
00000000
01000000
00000000
,
01000000
00000000
00000000
00000000
,
00010000
00000000
00000000
00000000
,
00001000
00000000
00001000
00000000
,
00010000
00000000
00000000
00000000
,
00000100
00000000
00000100
00000000
,
00001000
00000000
00000000
00000000
,
00000001
00000000
00000001
00000000
,
00000010
00000000
00000000
00000000
,
00000001
00000000
00000001
00000000
,
00000100
00000000
00000000
00000000
,
00001000
00000000
00001000
00000000
,
00010000
00000000
00010000
00000000
,
01000000
00000000
01000000
00000000
,
10000000
00000000
00000000
00000000
,
00100000
00000000
00000000
01000000
,
01000000
00000000
00000000
00000000
,
00001000
00000000
00000000
00010000
,
00010000
00000000
00000000
00000000
,
00001000
00000000
00001000
00000000
,
00000100
00000000
00000100
00000000
,
00000001
00000000
00000001
00000000
,
00000010
00000000
00000000
00000000
;

//---------------dance-double - ----------------
#NOTES:
     dance-double:
     :
     Easy:
     3:
     :
00000000
00000000
00000000
00000000
,
00000000
00000000
00000000
00000000
,
00000000
00000000
00000000
00000000
,
00000001
00000001
00000001
00000000
,
00001000
00001000
00010000
00010000
,
00001000
00001000
00001000
00000000
,
01000000
01000000
00100000
00100000
,
10000000
01000000
10000000
01000000
,
00010000
00001000
00000100
00000000
,
00000001
00000100
00000001
00000100
,
00001000
00010000
01000000
00000000
,
20000000
30000000
00020000
00030000
,
00001000
00001000
00001000
00000000
,
00010000
00010000
00001000
00001000
,
00000100
00000001
00000010
00000000
,
00001001
00001000
00001001
00000000
,
00011000
00001000
00011000
00010000
,
01100000
01000000
01100000
00000000
,
10010000
10000000
10010000
00010000
,
00100000
00010000
00100000
00010000
,
10000000
01000000
00010000
00000000
,
00001000
00010000
00001000
00010000
,
00001000
00000100
00000001
00000000
,
00001000
00000001
00001000
00000001
,
00000010
00000100
00001000
00000000
,
00000010
00000100
00000010
00000100
,
00001000
00010000
01000000
10000000
,
00200000
00300000
20000000
30000000
,
01000000
00010000
00001000
00000100
,
00000002
00000003
00000020
00000030
,
00000001
00000100
00001000
00010000
,
02000000
03000000
20000000
30000000
,
00100000
10000000
01000000
00010000
,
00002000
00003000
00000200
00000300
,
00000001
00000010
00000001
00000100
,
00001000
00001000
00010000
00010000
,
00001000
00001000
00001000
00001000
,
00010000
00010000
01000000
01000000
,
10000000
10000000
10000000
10000000
,
10010000
10000000
10010000
00000000
,
01100000
01000000
01100000
00010000
,
00011000
00010000
00011000
00000000
,
00001001
00001000
00001001
00000001
,
00002000
00000000
00000000
00003000
,
00000001
00000100
00001000
00010000
,
02000000
00000000
00000000
03000000
,
00020000
00030000
00001000
00001000
,
00011000
00000000
00000000
00000000
;

//---------------dance-double - ----------------
#NOTES:
     dance-double:
     :
     Medium:
     5:
     :
00000000
00000000
00000000
00000000
,
00000000
00000000
00000000
00000000
,
00000000
00000000
00000000
00000000
,
00100000
00000000
00010000
00000000
10000000
00010000
00000000
00000000
,
10000000
00000000
00010000
00000000
01000000
00001000
00010000
00000000
,
00000100
00000000
00001000
00000000
00000001
00001000
00000000
00000000
,
00000100
00000000
00000001
00000000
00000010
00000001
00001000
00000000
,
00000010
00000100
00001000
00000000
00010000
00001000
00010000
00000000
,
01000000
10000000
00010000
00000000
,
00100000
10000000
00010000
00000000
00100000
01000000
00010000
00000000
,
00001000
00000100
00000001
00000000
,
00000010
00000001
00000100
00000000
00000010
00000010
00000010
00000000
,
00001000
00000001
00000100
00000000
00000001
00000000
00000000
00000000
,
00000100
00001000
00010000
00000000
00001000
00010000
00100000
00000000
,
00010000
00100000
10000000
00000000
00010000
00000000
10000000
00000000
,
00100000
00000000
10000000
00000000
00010000
10000000
00000000
00000000
,
10000000
00000000
00010000
00000000
01000000
00001000
00010000
00000000
,
00000100
00000000
00001000
00000000
00000001
00001000
00000000
00000000
,
00000001
00000000
00000010
00000000
00000100
00001000
00000001
00000000
,
00000100
00001000
00010000
00000000
00001000
00010000
00100000
00000000
,
00100000
10000000
01000000
00000000
10000000
00000000
00000000
00000000
,
00010000
00100000
01000000
00000000
10000000
01000000
00010000
00000000
,
00010000
00001000
00000100
00000000
00001000
00000000
00000000
00000000
,
00000001
00001000
00000010
00000000
00001000
00000001
00000100
00000000
,
00000001
00000010
00000100
00000000
00001000
00000000
00000000
00000000
,
00010000
00001000
00010000
00000000
00001000
00010000
01000000
00000000
,
01000000
10000000
01000000
00000000
10000000
00000000
00000000
00000000
,
01100000
00000000
00000000
01000000
00000000
00000000
01010000
00000000
00000000
00000000
00000000
00000000
10000000
00000000
00000000
00000000
,
01000000
00010000
00001000
00000100
,
00000110
00000000
00000000
00000100
00000000
00000000
00001100
00000000
00000000
00000000
00000000
00000000
00000000
00000000
00000000
00000000
,
00000010
00001000
00000010
00000001
,
00000011
00000000
00000000
00000001
00000000
00000000
00001100
00000000
00000000
00000000
00000000
00000000
00010000
00000000
00000000
00000000
,
01000000
10000000
01000000
00010000
,
11000000
00000000
00000000
10000000
00000000
00000000
00110000
00000000
00000000
00000000
00000000
00000000
01000000
00000000
00000000
00000000
,
00100000
10000000
01000000
00010000
,
00001000
00000000
00010000
00001000
00000000
00000100
00000001
00000010
,
00000001
00000000
00001000
00000001
00000000
00000000
00000100
00000000
,
00001000
00000000
00010000
01000000
10000000
00000000
10000000
00100000
,
01000000
00000000
00100000
01000000
00010000
00000000
10000000
00000000
,
00100000
00000000
10000000
00000000
00010000
10000000
00000000
00000000
,
10000000
00000000
00010000
00000000
01000000
00001000
00010000
00000000
,
00000100
00000000
00001000
00000000
00000001
00001000
00000000
00000000
,
00000001
00000000
00000100
00000000
00001000
00010000
00001000
00000000
,
00020000
00030000
00002000
00003000
,
00001000
00000000
00010000
00000000
01000000
10000000
01000000
00010000
,
02000000
03000000
00020000
00030000
,
00001000
00000000
00000100
00000000
00000001
00001000
00000001
00000000
,
00001001
00000000
00000000
00000000
;

//---------------dance-double - ----------------
#NOTES:
     dance-double:
     :
     Hard:
     7:
     :
00000000
00000000
00000000
00000000
,
00000000
00000000
00000000
00000000
,
00000000
00000000
00000000
00000000
,
10000000
00010000
10000000
00010000
00000000
00010000
01000000
00010000
01000000
00000000
00010000
00000000
00000000
00000000
00000000
00000000
,
00010000
10000000
00010000
10000000
00000000
10000000
01000000
10000000
01000000
00000000
00010000
00000000
00001000
00000000
00000000
00000000
,
00000100
00000010
00000100
00000010
00000000
00001000
00000001
00001000
00000001
00000000
00000001
00000000
00000000
00000000
00000000
00000000
,
00001000
00000001
00001000
00000001
00000000
00000001
00000100
00000001
00000100
00000000
00001000
00000000
00000000
00000000
00000000
00000000
,
00010000
00100000
10000000
01000000
10000000
00100000
00010000
00001000
,
00000010
00000000
00000001
00000000
00000100
00000000
00000001
00001000
00000000
00000000
00000000
00000000
00000000
00000000
00000000
00000000
,
00000100
00010000
00001000
00100000
00001000
00010000
00000010
00010000
,
00001000
00000000
01000000
00000000
00010000
00000000
10000000
01000000
00000000
00000000
00000000
00000000
00000000
00000000
00000000
00000000
,
10000000
00100000
10000000
00010000
10000000
01000000
10000000
00100000
,
00010000
00000000
00001000
00000000
00010000
00000000
00001000
00010000
00000000
00000000
00000000
00000000
00000000
00000000
00000000
00000000
,
00100000
00001000
00010000
00000100
00010000
00001000
01000000
00001000
,
00010000
00000000
00000010
00000000
00001000
00000000
00000001
00000100
00000000
00000000
00000000
00000000
00000000
00000000
00000000
00000000
,
00000001
00001000
00000100
00001000
00000000
00000001
00000100
00000001
00001000
00000000
00001000
00000000
00000000
00000000
00000000
00000000
,
00001000
00000010
00000100
00000010
00000000
00000100
00000001
00001000
00000001
00000000
00000100
00000000
00001000
00000000
00000000
00000000
,
00010000
01000000
00100000
01000000
00000000
00100000
00010000
10000000
00010000
00000000
00010000
00000000
00000000
00000000
00000000
00000000
,
10000000
00010000
01000000
00010000
00000000
10000000
01000000
10000000
00010000
00000000
10000000
00000000
00000000
00000000
00000000
00000000
,
10000000
00100000
10000000
00010000
10000000
01000000
10000000
00100000
,
00010000
00000000
00001000
00000000
00010000
00000000
00001000
00010000
00000000
00000000
00000000
00000000
00000000
00000000
00000000
00000000
,
00100000
00001000
00010000
00000100
00010000
00001000
01000000
00001000
,
00010000
00000000
00000010
00000000
00001000
00000000
00000001
00000100
00000000
00000000
00000000
00000000
00000000
00000000
00000000
00000000
,
00000001
00000010
00000001
00001000
00000001
00000010
00000001
00000100
,
00001000
00000000
00010000
00000000
01000000
00000000
10000000
01000000
00000000
00000000
00000000
00000000
00000000
00000000
00000000
00000000
,
00100000
00001000
00010000
00000100
00010000
00001000
01000000
00001000
,
00010000
00000000
00000010
00000000
00001000
00000000
00000001
00000100
00000000
00000000
00000000
00000000
00000000
00000000
00000000
00000000
,
00001001
00000000
00000000
00000101
00000000
00000000
00001100
00000000
00000000
00000000
00000000
00000000
00000000
00000000
00000000
00000000
,
00000001
00000010
00001000
00010000
00100000
10000000
01000000
10000000
,
10010000
00000000
00000000
11000000
00000000
00000000
01010000
00000000
00000000
00000000
00000000
00000000
00000000
00000000
00000000
00000000
,
10000000
00100000
00010000
00001000
00000010
00000001
00000100
00000001
,
00000011
00000000
00000000
00001100
00000000
00000000
00001001
00000000
00000000
00000000
00000000
00000000
00000000
00000000
00000000
00000000
,
00000010
00000001
00000100
00001000
00010000
01000000
10000000
00100000
,
10100000
00000000
00000000
01010000
00000000
00000000
10010000
00000000
00000000
00000000
00000000
00000000
00000000
00000000
00000000
00000000
,
00100000
10000000
01000000
00010000
00001000
00000100
00000001
00000010
,
00000001
00000001
00001000
00001000
00000010
00000010
00000100
00000100
,
00010000
00010000
01000000
01000000
00100000
10000000
00100000
00000000
,
10000000
10000000
00010000
00010000
00100000
00100000
01000000
01000000
,
00001000
00001000
00000100
00000100
00000010
00000001
00000010
00000000
,
00000001
00001000
00000001
00001000
00000000
00001000
00000100
00001000
00000100
00000000
00001000
00000000
00000000
00000000
00000000
00000000
,
00001000
00000001
00001000
00000001
00000000
00000001
00000100
00000001
00000100
00000000
00001000
00000000
00010000
00000000
00000000
00000000
,
01000000
00100000
01000000
00100000
00000000
00010000
10000000
00010000
10000000
00000000
10000000
00000000
00000000
00000000
00000000
00000000
,
00010000
10000000
00010000
10000000
00000000
10000000
01000000
10000000
01000000
00000000
00010000
00000000
00001000
00000000
00000000
00000000
,
00010000
00001000
00010000
00000100
00000010
00000001
00001000
00000001
,
00001000
00000010
00010000
00001000
00010000
01000000
00100000
00010000
,
02200000
00000000
00000000
03300000
;
