#TITLE:WILD RUSH;
#SUBTITLE:(PCM REMIX);
#ARTIST:FACTOR-X;
#BANNER:WILD RUSH (PCM REMIX).png;
#BACKGROUND:WILD RUSH (PCM REMIX)-bg.png;
#MUSIC:WILD RUSH (PCM REMIX).ogg;
#SAMPLESTART:11.52;
#SAMPLELENGTH:15;
#DISPLAYBPM:125;
#BPMS:0=124.99;

//---------------dance-single - ----------------
#NOTES:
     dance-single:
     :
     Beginner:
     1:
     :
0000
0000
0000
0000
,
0000
0000
0000
0000
,
1000
0000
0000
0000
,
0000
0000
0000
0000
,
0001
0000
0000
0000
,
0000
0000
0000
0000
,
1000
0000
1000
0000
,
0001
0000
0000
0000
,
0100
0000
0100
0000
,
0000
0010
0000
0010
,
0000
1000
0000
1000
,
0000
0000
0000
0001
,
0000
0001
0000
0000
,
0001
0000
1000
0000
,
1000
0000
0000
0000
,
0100
0000
0000
0000
,
0010
0000
0000
0000
,
0100
0000
0000
0000
,
0001
0000
0001
0000
,
1000
0000
0000
0000
,
0100
0000
0100
0000
,
0000
0010
0000
0000
,
0000
1000
0000
1000
,
0000
0001
0000
0000
,
0000
0001
0000
0100
,
0000
0000
1001
0000
,
1001
0000
0000
0000
,
0000
0000
0000
0000
,
0110
0000
0000
0000
,
0000
0000
0000
0000
,
0002
0000
0000
0003
,
0000
0000
0000
0000
,
1000
0000
0001
0000
,
0000
0000
0010
0010
,
0000
0010
0000
1000
,
0000
0001
0000
0000
,
0000
0100
0000
0000
,
0010
0000
0010
0000
,
0100
0000
0000
0000
,
1000
0000
0000
0100
,
0000
1000
0000
0001
,
0000
0000
0001
0000
,
0100
0000
0001
0000
,
0000
1000
0000
0000
,
0010
0000
0010
0000
,
0000
1000
0000
1000
,
0000
0001
0000
0000
,
0100
0000
0100
0000
,
0002
0000
0000
0000
,
0000
0003
0000
0000
;

//---------------dance-single - ----------------
#NOTES:
     dance-single:
     :
     Easy:
     3:
     :
0000
0000
0000
0000
,
0000
0000
0000
0000
,
0010
0000
0000
0000
,
0000
0000
0000
1000
,
0100
0000
0000
0000
,
0000
0000
0000
0001
,
1000
0100
0000
0100
,
0000
0100
0000
1000
,
0001
0020
0000
0030
,
0110
0000
0100
0010
,
2000
0000
3000
1001
,
0000
0100
0000
0010
,
0000
1000
0001
0100
,
0000
0100
0000
0001
,
0010
0010
0010
1000
,
0001
0001
0001
0010
,
0100
0100
0100
0010
,
2000
0000
0000
3000
,
0001
1000
0000
0100
,
0000
1000
0001
0010
,
0000
0010
0000
0020
,
0000
0100
0100
0100
,
0130
0000
1000
0001
,
0000
0100
0000
0001
,
1000
0010
0000
0000
,
1001
0000
1000
0001
,
0200
0000
0000
0310
,
0020
0000
0000
1030
,
2000
0000
0000
3001
,
0002
0000
0000
0003
,
0200
0000
0000
0000
,
0000
0000
0000
0300
,
0010
0001
0001
0010
,
0001
0001
0000
1000
,
0001
0100
0000
0100
,
0000
0100
0000
0001
,
1000
0010
0000
0000
,
0110
0000
0100
0010
,
0010
1000
0000
1000
,
0000
1000
0000
0100
,
0010
0001
0000
0001
,
1000
0100
0000
0010
,
0100
1000
0000
1000
,
0000
0001
0000
1000
,
0001
0100
0000
0100
,
0000
0010
0000
0001
,
0010
0010
0100
0010
,
0100
0100
0100
1000
,
0002
0000
0000
0000
,
0000
0003
0000
0000
;

//---------------dance-single - ----------------
#NOTES:
     dance-single:
     :
     Medium:
     5:
     :
0000
0000
0000
0000
,
0000
0000
0000
0000
,
1000
0000
0000
0000
,
0000
0000
0000
0000
0000
0001
0100
0000
,
1001
0000
0000
0000
,
0110
0000
0000
0000
,
1000
0001
0100
0100
,
1001
0000
0100
0000
0000
1000
0010
0000
,
0100
0001
0100
0001
,
0000
1000
0010
0000
1000
0000
0110
0000
,
1000
0001
1000
0001
,
0000
0010
0100
0000
0100
0000
1001
0000
,
0010
1000
0010
0010
,
0000
1000
0001
0000
0010
0000
0011
0000
,
1000
0000
0010
0000
0000
0100
0101
0000
,
0000
1000
1100
0000
0000
0010
0110
0000
,
0000
0001
1001
0000
0000
0100
0101
0000
,
2002
0000
0000
3003
,
0100
0001
0010
0010
,
0110
0000
0010
0000
0000
0001
1000
0000
,
0100
0000
0100
0000
1100
0000
0000
0101
,
0000
0000
0000
0000
0000
0010
1000
0000
,
0010
0100
0010
0010
,
0110
0000
0010
0000
0000
1000
0001
0000
,
1000
0000
0010
0000
0100
0000
0100
0001
,
0000
0100
1000
0000
0100
0000
0010
0000
,
0120
0000
0100
0000
,
0100
0000
0100
0030
,
2001
0000
0001
0000
,
0001
0000
0001
3000
,
0020
0000
0000
0000
,
0000
0000
0000
0030
,
0100
0100
0100
0100
,
1000
0100
0010
0001
0000
0101
0101
0000
,
0001
0000
0100
0000
0000
0001
1000
0000
,
0100
0000
0010
0000
0000
0100
1000
0000
,
0010
0000
0100
0000
0000
0001
0010
0000
,
0001
0000
1000
0100
0000
1000
0001
0000
,
0100
0000
0100
0000
0000
0010
1000
0000
,
0001
0000
0001
0000
0000
1000
0010
0000
,
0100
0000
0100
0000
0000
0001
0020
0000
,
0000
0031
2000
0000
0000
3001
0100
0000
,
1001
0000
1100
0000
0000
1000
0001
0000
,
0011
0000
0110
0000
0010
0100
0001
0000
,
0110
0000
1100
0000
0000
0100
0020
0000
,
0000
0130
0002
0000
0103
1000
0100
0000
,
0110
0000
1001
0000
1000
0001
0010
0000
,
0101
0000
1100
0000
0100
0010
0100
0010
,
2002
0000
0000
0000
,
0000
3003
0000
0000
;

//---------------dance-single - ----------------
#NOTES:
     dance-single:
     :
     Hard:
     8:
     :
0000
0000
0000
0000
,
0000
0000
0000
0000
,
0001
1000
0000
0000
0100
0000
0000
1000
0000
0010
0000
0100
0000
0000
0010
0000
,
1000
0001
0000
0000
0100
0000
0000
0001
0000
0000
0010
0000
0100
0000
0010
0000
,
0100
1000
0000
0000
1000
0000
0000
0001
0000
1000
0000
0001
0000
0000
0010
0000
,
0001
0100
0000
0000
0010
0000
1000
0000
0100
1000
0100
1000
0000
0000
0000
0000
,
0001
0000
0100
0000
0001
0000
0010
0001
0000
0000
0110
0000
0110
0000
0000
0000
,
1000
0000
0010
0000
0100
0000
0000
0000
0001
0000
1000
0000
0001
0100
0000
0000
,
0101
0000
0101
0000
1000
0000
0010
1000
0000
0000
0100
0000
0001
0000
0100
0000
,
1000
0010
1000
0000
0110
0110
0001
1000
,
0010
0000
0100
0000
0001
0000
0000
0001
0000
0000
1000
0000
0010
0000
1000
0000
,
0100
0000
1000
0000
0110
0000
0000
0000
0000
0010
0000
0000
0010
0001
0000
0000
,
0100
0000
0010
0000
1000
0000
0001
0100
0000
0000
0100
0000
0010
0000
0100
0000
,
0001
0000
0100
0000
1001
0000
0000
0000
0000
0011
0000
0000
1001
0000
0000
0101
,
0000
0200
0010
0010
0300
0002
1000
1000
,
0003
0020
0100
0100
0030
0200
1000
1000
,
0300
0020
0001
0001
0030
0001
1000
1000
,
2002
0000
0000
3003
,
1000
0000
0010
0000
1000
0000
0001
1000
0000
0000
0100
0000
1000
0000
0001
0100
,
0000
0000
0001
0000
0010
0000
0001
0000
0000
0000
0010
0000
0001
1000
0000
0000
,
0010
0000
0100
0000
0001
0000
1000
0001
0000
0000
0010
0000
0100
0000
1000
0010
,
0000
0000
0100
0000
0001
0000
1000
0000
0100
0000
1000
0000
0100
1000
0100
1000
,
0000
0000
0010
0000
0100
0000
0001
1000
0000
0000
0010
0000
0100
0000
0001
1000
,
0000
0010
0100
0110
0000
0011
0011
0100
,
1000
0000
0001
0000
1000
0000
0010
0100
0000
0000
0001
0000
1000
0000
0010
0100
,
0000
0000
0001
0000
0010
0000
0001
0000
0010
0100
0010
0100
0010
0000
0000
0000
,
0002
0100
0000
0100
0000
0100
0000
0100
,
0000
1000
0000
1000
0000
1000
0000
1000
,
0000
0100
0000
0100
0000
0100
0000
0100
,
0000
1000
0000
1000
0000
1003
0100
1000
,
2002
0000
0000
0000
,
0000
0000
0000
3003
,
0010
0000
0000
1000
0001
1000
0000
0001
0000
0001
0000
0001
0000
0010
0100
0000
,
1000
0100
1000
0001
1000
0100
1000
0001
0000
0000
1001
0000
1001
0000
0000
0000
,
1000
0000
0100
0000
0110
0000
0000
0110
0000
0000
0100
0000
0010
0000
0001
0000
,
0100
0000
0010
0000
1000
0000
0000
0000
0000
0001
0000
0000
0100
0010
0000
0000
,
1000
0000
0001
0000
1100
0000
0000
1100
0000
0000
0100
0000
0010
0000
1001
0000
,
0000
0000
0010
0000
0110
0000
0000
0000
0000
1100
0000
0000
1010
0000
0000
1001
,
0000
0000
0000
0000
0110
0000
0000
0110
0000
0000
0100
0000
0010
0000
0001
0000
,
0100
0000
0010
0000
1000
0000
0000
0000
0000
0001
0000
0000
0100
0010
0000
0000
,
1000
0000
0001
0000
1100
0000
0000
1100
0000
0000
0100
0000
0010
0000
1001
0000
,
0000
0010
0110
0010
0110
0100
0010
1001
,
0100
0010
0100
1001
0000
0010
0001
0101
,
0100
0010
1000
1100
0000
0010
0001
0101
,
0100
0010
1000
1100
0000
0100
0010
1001
,
0000
0000
0110
0000
0110
0000
0000
0000
0000
0101
0000
0000
1001
0000
0000
0011
,
0000
0002
0000
0100
,
0000
0000
0000
0000
0100
0000
0000
0000
0000
0103
0000
0000
0001
1000
0000
0000
,
2000
0000
0000
0100
0000
0000
0200
0000
0000
0000
0000
0000
0000
0000
0000
0000
,
0000
3300
0000
0000
;

//---------------dance-single - ----------------
#NOTES:
     dance-single:
     :
     Challenge:
     7:
     :
0000
0000
0000
0000
,
0000
0000
0000
0000
,
1000
0000
0000
0000
,
0000
0000
0000
0000
0000
1000
0010
0000
,
0100
0000
0000
0000
,
0000
0000
0000
0000
0100
0100
0001
0000
,
1000
0000
0001
0000
1000
0010
0100
0000
,
0001
0000
1000
0000
0001
0010
0100
0010
,
0001
0000
1000
1000
0010
0100
0100
0000
,
0001
0000
0010
0010
0100
1000
1000
0001
,
0200
0001
0000
0001
,
0000
0000
0301
0001
1000
0010
0100
0001
,
1000
0000
1000
0000
1000
0100
0010
0001
,
1000
0001
0001
0000
0100
0010
0010
0100
,
0002
1000
0000
1000
,
0000
0000
1003
0001
0100
0010
1000
1000
,
0001
0001
1000
1000
,
0001
0000
0001
0100
0001
0000
0001
1000
,
0020
0000
0000
0030
,
0100
0000
0100
0010
0100
0010
0010
0000
,
1000
0000
1000
0001
1000
0001
0001
0000
,
0010
0000
0000
0000
,
0100
0000
0000
0000
0001
0000
0000
0001
1000
0000
0001
0000
0001
0000
0000
0000
,
0100
0000
0000
0000
0010
0000
0000
0010
1000
0000
0001
0000
0001
0000
0000
0000
,
0200
0000
0000
0300
,
0002
0000
1000
1003
,
0110
0000
0000
0000
,
0100
0100
0100
0100
,
0010
1000
0001
0100
,
0001
0100
0010
1000
,
0002
0000
0000
0000
,
0000
0000
0000
0003
,
1000
0000
0000
0000
0010
0000
0000
0010
0100
0000
0100
0000
0100
0000
0001
0000
,
1000
0100
1000
0100
0000
0010
0001
0000
,
1000
0000
1000
0010
0100
0001
0001
0000
,
1000
0000
0010
0100
0001
1000
1000
0001
,
0100
0100
0010
0010
1000
0000
1000
0001
,
0100
0010
1000
0000
1000
0001
0100
0001
,
2000
3000
0200
0300
,
0020
0000
0030
0000
0002
0000
0003
1000
,
0020
0000
0000
0000
0000
0000
0030
0100
,
0002
0000
0000
0000
0003
1000
0001
0000
,
0100
0000
0000
0100
0001
0000
0000
0001
1000
0000
1000
0000
1000
0000
0000
0000
,
0010
0000
0000
0010
1000
0000
0000
1000
0001
0000
0001
0000
0001
0000
1000
0000
,
0100
0000
0000
0100
0020
0000
0000
0000
0000
0000
0001
0000
0031
0000
0000
0000
,
2000
0100
0100
0000
3000
0001
1001
0000
,
0100
0000
0000
0100
0001
0000
0000
0001
1000
0000
0100
0000
1000
0000
0000
0000
,
0010
0000
0000
0010
0100
0000
0000
0100
0001
0000
1000
0000
0001
0000
0001
0000
,
0200
0000
0000
0000
,
0000
0000
0000
0300
;

//---------------dance-double - ----------------
#NOTES:
     dance-double:
     :
     Beginner:
     1:
     :
00000000
00000000
00000000
00000000
,
00000000
00000000
00000000
00000000
,
00020000
00000000
00000000
00030000
,
00000000
00000000
00000000
00000000
,
00000020
00000000
00000000
00000030
,
00000000
00000000
00000000
00000000
,
00000100
00000000
00000100
00000000
,
00010000
00000000
00000000
00000000
,
10000000
00000000
10000000
00000000
,
00000000
00010000
00000000
00010000
,
00000000
00001000
00000000
00001000
,
00000000
00000000
00000000
00000010
,
00000000
00000010
00000000
00000000
,
00000100
00000000
00000001
00000000
,
00000001
00000000
00000000
00000000
,
00010000
00000000
00000000
00000000
,
00001000
00000000
00000000
00000000
,
01000000
00000000
00000000
00000000
,
00010000
00000000
00010000
00000000
,
00100000
00000000
00000000
00000000
,
00001000
00000000
00001000
00000000
,
00000000
00010000
00000000
00000000
,
00000000
00000100
00000000
00000100
,
00000000
00000001
00000000
00000000
,
00000000
00001000
00000000
00000100
,
00000000
00000000
00011000
00000000
,
00001000
00000000
00000000
00000000
,
00000000
00000000
00000000
00000000
,
00001001
00000000
00000000
00000000
,
00000000
00000000
00000000
00000000
,
02000000
00000000
00000000
03000000
,
00000000
00000000
00000000
00000000
,
00010000
00000000
00001000
00000000
,
00000000
00000000
00000100
00000100
,
00000000
00000100
00000000
00000001
,
00000000
00001000
00000000
00000000
,
00000000
00000010
00000000
00000000
,
00010000
00000000
00010000
00000000
,
01000000
00000000
00000000
00000000
,
00010000
00000000
00000000
10000000
,
00000000
10000000
00000000
00010000
,
00000000
00000000
00001000
00000000
,
00001000
00000000
00000100
00000000
,
00000000
00000001
00000000
00000000
,
00001000
00000000
00001000
00000000
,
00000000
00000100
00000000
00000100
,
00000000
00000010
00000000
00000000
,
00001001
00000000
00000000
00000000
,
02000000
00000000
00000000
00000000
,
00000000
03000000
00000000
00000000
;

//---------------dance-double - ----------------
#NOTES:
     dance-double:
     :
     Easy:
     3:
     :
00000000
00000000
00000000
00000000
,
00000000
00000000
00000000
00000000
,
00000100
00000000
00000000
00000000
,
00000000
00000000
01000000
00000000
,
00001000
00000000
00000000
00000000
,
00000000
00000000
10000000
00000000
,
00010000
00010000
00001000
00001000
,
00000000
10000000
00000000
00010000
,
00010000
00100000
00100000
00000000
,
00000010
00000000
00001000
00001000
,
00010000
00010000
00000000
00000001
,
00000000
00001000
00000100
00010000
,
00000000
00000100
00000000
01000000
,
00010000
10000000
00000000
00010000
,
00010000
10000000
00000000
00000000
,
00000000
00001000
00010000
00000000
,
00000000
00000001
00001000
00000000
,
00000110
00000000
00000000
00000000
,
00001000
00001000
00010000
00010000
,
00000000
00000001
00000000
00001000
,
00000100
00010000
00000000
00000000
,
10000000
00000000
00000000
01000000
,
00001000
00010000
00000000
00010000
,
00000000
00001000
00000000
00000100
,
00000000
00000100
00000000
00010000
,
00001000
00000000
00010000
10000000
,
20000000
00000000
00000000
30010000
,
00020000
00000000
00000000
00031000
,
00002000
00000000
00000000
00003001
,
00000002
00000000
00000000
00000003
,
00002000
00000000
00000000
00000000
,
00000000
00000000
00000000
00003000
,
00010000
00010000
01000000
01000000
,
00010000
00010000
00000000
00000000
,
10000000
00010000
00000000
00010000
,
00000000
00010000
00000000
00000000
,
00000100
00000010
00000000
00000010
,
00000000
00000010
00000000
00000000
,
00001000
00000001
00000000
00000001
,
00000000
00000001
00000000
00000000
,
00000100
00001000
00000000
01000000
,
10000000
00000000
00010000
00001000
,
00000000
00001001
00000000
00000100
,
00000001
00000001
00000000
00001000
,
00000000
00100000
00000000
00011000
,
00000000
01000000
01000000
00010000
,
00000000
00010000
00000000
00001000
,
00000000
00000100
00000100
00000010
,
00000200
00000000
00000000
00000000
,
00000000
00000300
00000000
00000000
;

//---------------dance-double - ----------------
#NOTES:
     dance-double:
     :
     Medium:
     5:
     :
00000000
00000000
00000000
00000000
,
00000000
00000000
00000000
00000000
,
00000110
00000000
00000000
00000000
,
00000000
00000000
00000000
00000000
00000000
00100000
01000000
00000000
,
01100000
00000000
00000000
00000000
,
00000000
00000000
00000000
00000000
,
00100000
10000000
01000000
00010000
,
00001000
00000010
00000001
00000100
,
00001000
00010000
01000000
00010000
,
00001000
00000010
00001000
00010000
,
00100000
10000000
01000000
00100000
,
00010000
00001000
00000100
00000010
,
00000001
00001000
00000010
00000100
,
00001000
00010000
00100000
00010000
,
00001000
00000000
00011000
00000000
00000000
00010000
01000000
00000000
,
00100000
00000000
10010000
00000000
00000000
01000000
00010000
00000000
,
00001000
00000000
00011000
00000000
00000000
00000100
00000001
00000000
,
00002002
00000000
00000000
00003003
,
00000001
00000001
00001000
00000100
,
00000010
00000001
00000100
00001000
,
00010000
01000000
10000000
01000000
,
00100000
00010000
10000000
00010000
,
00100000
00001000
00010000
00001000
,
00000010
00001000
00010000
00001000
,
01000000
00001000
00010000
01000000
,
00010000
00000100
00010000
00001000
,
00000200
00000300
00000002
00000003
,
00002000
00003000
00020000
00030000
,
20000000
30000000
00020000
00030000
,
00200000
00300000
00002000
00003000
,
00000220
00000000
00000000
00000000
,
00000000
00000000
00000000
00000330
,
00000001
00001000
00000001
00001000
,
00000001
00001000
00000001
00001000
00000000
00010000
00001000
00000000
,
00010000
00000000
01010000
00000000
00000000
10000000
01000000
00000000
,
00100000
00000000
00110000
00000000
00000000
00001000
00010000
00000000
,
00001000
00000000
00011000
00000000
00000000
00001000
00000100
00000000
,
00000001
00000000
00000101
00000000
00000000
00000010
00000001
00000000
,
00000100
00001001
00000100
00001001
,
00000001
00000100
00001000
00010000
,
01000000
10010000
01000000
10010000
,
10000000
01000000
00010000
00001000
,
00000100
00000001
00000010
00000000
00000000
00000000
00000110
00000000
,
00000010
00001000
00010000
00000000
00000000
00000000
00011000
00000000
,
00010000
01000000
10000000
00000000
00000000
00000000
01100000
00000000
,
00000000
00000000
01010000
00000000
00000000
00100000
01000000
00000000
,
10000000
01000000
00100000
00000000
00001000
00000000
00011000
00000000
,
00001000
00001100
00001000
00011000
,
00000200
00000000
00000000
00000000
,
00000000
00000300
00000000
00000000
;

//---------------dance-double - ----------------
#NOTES:
     dance-double:
     :
     Hard:
     8:
     :
00000000
00000000
00000000
00000000
,
00000000
00000000
00000000
00000000
,
00100000
10000000
00000000
00010000
01000000
00000000
00010000
10000000
00000000
00100000
00000000
01000000
00000000
00000000
00001000
00000000
,
00010000
00001000
00000000
00000100
00001000
00000000
00010000
00001000
00010000
00000000
00001000
00000000
00000010
00000000
00000001
00000000
,
00001000
00000010
00000000
00001000
00000001
00000000
00001000
00000100
00000000
00000010
00000000
00000001
00000000
00000000
00001000
00000000
,
00000100
00001000
00000000
00000100
00010000
00000000
00001000
00000000
00000100
00000010
00000100
00000010
00000000
00000000
00000000
00000000
,
00000010
00000100
00000010
00000100
00000010
00000100
00000001
00001000
,
00000100
00010000
00001000
00100000
01000000
00100000
01000000
00100000
,
01000000
10000000
00010000
10000000
00100000
01000000
00010000
10000000
,
00000000
00010000
00001000
00000000
00000010
00000001
00000010
00000100
,
00001000
00000100
00001000
00000100
00001000
00000100
00000010
00001000
,
00010000
00100000
10000000
00010000
01000000
00010000
01000000
00010000
,
01000000
00100000
10000000
01000000
00010000
00001000
00010000
00000010
,
00010000
00000100
00001000
00000010
00000100
00000001
00001000
00000000
,
00000001
00000000
00000000
00000001
00001000
00000100
00000000
00001000
00000000
00000000
00000000
00000100
00010000
00001000
00000000
00010000
,
00000000
00000000
00000000
00001000
01000000
00100000
00000000
01000000
00000000
01000000
00000000
00100000
01000000
00100000
00000000
00000000
,
00000000
00000000
00000000
10000000
00010000
01000000
00000000
00010000
00000000
00000000
00000000
01000000
00001000
00010000
00000000
00000000
,
00022000
00000000
00000000
00033000
,
00001000
00000001
00001000
00000001
00001000
00000001
00000100
00001000
,
00010000
00001000
00000100
00001000
01000000
00001000
01000000
00001000
,
01000000
00100000
10000000
00010000
00100000
00001000
00010000
00000100
,
00010000
00000100
00010000
00000100
00001000
00000001
00001000
00000001
,
00000100
00000010
00000100
00000001
00000010
00001000
00000010
00000100
,
00001000
00000010
00000100
00001000
00010000
00100000
01000000
00010000
,
00100000
01000000
10000000
01000000
10000000
01000000
10000000
00010000
,
00100000
00001000
00000010
00001000
00010000
00001000
00100000
00001000
,
00021000
00000000
00001000
00000000
,
00000010
00000000
00100000
00000000
,
00001000
00000000
00000100
00000000
,
01000000
00000000
00001000
00030000
,
00022000
00000000
00000000
00000000
,
00000000
00000000
00000000
00033000
,
00100000
01000000
10000000
01000000
00010000
01000000
00010000
00001000
,
00010000
00001000
00010000
00001000
00010000
00001000
00010000
00001000
00000000
00000000
00011000
00000000
00011000
00000000
00000000
00000000
,
00001000
00000000
00000100
00000000
00001000
00000000
00000000
00000100
00000000
00000000
00000001
00000000
00000010
00000000
00000000
00000000
,
00000100
00000000
00010000
00000000
00001000
00000000
00000100
00000000
00000001
00000000
00001000
00000000
00000100
00001000
00000000
00000000
,
00000100
00000000
00010000
00000000
00001000
00000000
00000000
00001000
00000000
00000000
00000000
00000000
00000000
00000000
01100000
00000000
,
00000000
00000000
10000000
00000000
00100000
00000000
00000000
00000000
00000000
10100000
00000000
00000000
10010000
00000000
00000000
11000000
,
00000000
00000000
00010000
01000000
00010000
01000000
00010000
01000000
,
00001000
00010000
00000100
00000010
00000100
00000010
00000100
00000010
,
00000001
00001000
00000100
00000010
00000001
00001000
00000001
00001000
,
00000001
00000000
00001000
00000000
00000100
00000000
00000000
00000000
00000000
00011000
00000000
00000000
01001000
00000000
00000000
01010000
,
00000000
00000000
00000000
00000000
01000000
00000000
00010000
00000000
01000000
00000000
00010000
00100000
00000000
00000000
00000000
00000000
,
01000000
00000000
10000000
00000000
00100000
00000000
00010000
00000000
00001000
00000000
00000010
00000001
00000000
00000000
00000000
00000000
,
00000010
00000000
00000001
00000000
00001000
00000000
00000100
00000000
00010000
00000000
00001000
00010000
00000000
00000000
00000000
00000000
,
01000000
00000000
00100000
00000000
00010000
00000000
01000000
00000000
00100000
00000000
00010000
00001000
00000000
00000000
00000000
00000000
,
00010000
00001000
00020000
00000000
00000000
00000000
00001000
00000000
,
00000000
01000000
00000000
00031000
,
00002000
00000000
00000000
00003200
00000000
00000000
00000020
00000000
00000000
00000000
00000000
00000000
00000000
00000000
00000000
00000000
,
00000000
00000330
00000000
00000000
;

//---------------dance-double - ----------------
#NOTES:
     dance-double:
     :
     Challenge:
     8:
     :
00000000
00000000
00000000
00000000
,
00000000
00000000
00000000
00000000
,
00000001
00000000
00001000
00000000
,
00010000
00000000
10000000
00000000
,
10000000
00000000
00010000
00000000
,
00001000
00000000
00000001
00000000
,
00000200
00000000
00000301
00000001
00000002
00000000
00001003
00001000
,
00000010
00000100
00000010
00000000
00000100
00000010
00010000
00001000
,
02000000
00000000
03010000
00010000
00020000
00000000
00030000
10000000
,
00010000
01000000
00100000
00000000
01000000
00100000
10000000
00010000
,
01000000
01000000
01000000
00000000
00010000
00010000
00010000
00000000
,
00001000
00001000
00001000
00001000
00000010
00000010
00000010
00000000
,
00000100
00000000
00000100
00000000
00000001
00000000
00000000
00000001
00000100
00000000
00000010
00000000
00000010
00000000
00000000
00000000
,
00010000
00000000
00010000
00000000
00000010
00000000
00000000
00000010
00010000
00000000
00001000
00000000
00010000
00000000
01000000
00000000
,
00200000
00010000
00000000
00010000
,
00000000
00000000
00010000
00000000
00300000
00000000
00010000
10000000
,
00100000
01000000
00010000
00000010
,
00000002
00000000
00000000
00000003
,
00000100
00000010
00001000
00000001
00000100
00000010
00001000
00000001
,
00002000
00000000
00003010
00001000
00000100
00000100
00000100
00000000
,
00010000
00000010
00010000
00000100
00010000
00001000
00001000
00001000
,
02000000
00000000
00000000
00000000
00000000
00000000
03010000
00010000
,
10000000
01000000
00010000
01000000
10000000
01000000
00010000
01000000
,
10000000
01000000
00010000
00001000
00000100
00000100
00000100
00000000
,
00000001
00000100
00001000
00000100
00000001
00000100
00001000
00000100
,
00000001
00000100
00001000
00010000
01000000
01000000
01000000
00000000
,
20020000
00000000
00000000
00000000
,
00000000
00000000
00000000
30030000
,
00000000
00000000
01000000
00000000
,
00000000
00000000
00000010
00000000
,
00000002
00000000
00000000
00000000
,
00000000
00000000
00000100
00000103
,
00002000
00003100
00000002
00000103
,
00002000
00000000
00003100
00000000
00000000
00010000
00001000
00000000
,
01000000
00000000
00000000
01000000
00010000
00000000
00000000
00010000
00000000
00000000
10000000
00000000
10000000
00000000
00000000
00000000
,
00100000
00000000
00000000
00100000
01000000
00000000
00000000
01000000
00000000
00000000
00001000
00000000
00001000
00000000
00000000
00000000
,
00010000
00000000
00000000
00010000
00000010
00000000
00000000
00000010
00000000
00000000
00001000
00000000
00001000
00000000
00000001
00000000
,
00000100
00000010
00000010
00000100
00000001
00001000
00000001
00000001
,
00000100
00000000
00000000
00000100
00000010
00000000
00000000
00000010
00000000
00000000
00000000
00000000
00000000
00000000
00010000
00000000
,
00002000
00000000
01003000
00000000
01000000
00100000
10000000
00010000
,
10000000
00000000
01000000
00000000
00010000
00000000
00000000
01000000
00000000
00000000
00000000
00000000
00000000
00000000
10000000
00000000
,
01000000
00000000
00010000
00000000
00010000
00000000
01000000
00000000
00000000
00000000
00001000
00000000
00000010
00000000
00000000
00000100
,
00002000
00000000
00000000
00000000
00003001
00000000
00000000
00000001
00000000
00000000
00000100
00000000
00000010
00000000
00000000
00000000
,
00002000
00000000
00003200
00000000
00000300
00010000
00100000
00100000
,
01000000
01000000
01000000
01000000
01000000
01000000
00100000
00000000
,
10000000
10000000
10000000
10000000
10000000
10000000
00010000
00000000
,
01000000
00000000
00000000
01000000
00001000
00000000
00000000
00001000
00000000
00000000
00010000
00000000
00010000
00000000
00000000
00000000
,
00000010
00000000
00000000
00000010
00001000
00000000
00000000
00001000
00000000
00000000
00000001
00000000
00000001
00000000
00000100
00000000
,
00000020
00000000
00000000
00000000
,
00000000
00000030
00000000
00000000
;
